Subcategories

Ben Frost - Dark: Cycle 2 (Original Music From The Netflix Series) (2019)

Posted By: aasana
Ben Frost - Dark: Cycle 2 (Original Music From The Netflix Series) (2019)

Ben Frost - Dark꞉ Cycle 2 (2019)
EAC Rip | FLAC (tracks+.cue) | 00:46:49 | 197,05 MB
Experimental, Ambient, Modern Classical, Soundtrack, Score | Label: INVADA Records

The music of Ben Frost is about contrast; influenced as much by Classical Minimalism as by Punk Rock and Metal, Frost's throbbing guitar-based textures emerge from nothing and slowly coalesce into huge, forbidding forms that often eschew conventional structures in favor of the inevitable unfoldings of vast mechanical systems.

Tracklist:
01. Ben Frost - Schwarze Materie (2:58)
02. Ben Frost - Winden 2053 (2:40)
03. Ben Frost - Bootstrap (5:05)
04. Ben Frost - Alles In Einer Endlosen Schleife (1:58)
05. Ben Frost - Die Reisenden 1 (3:11)
06. Ben Frost - Du Bist Ein So Guter Mensch (5:03)
07. Ben Frost - Jeder Bekommt Was Er Verdient (2:24)
08. Ben Frost - Die Apokalypse Muss Kommen (3:07)
09. Ben Frost - Wir Haben Keine Zeit Mehr (4:44)
10. Ben Frost - Die Reisenden 2 (2:45)
11. Ben Frost - Ich Dachte, Ich Haette Mehr Zeit (5:33)
12. Ben Frost - Folge Dem Signal (3:04)
13. Ben Frost - Der Weisse Teufel (3:38)

Exact Audio Copy V1.3 from 2. September 2016

EAC extraction logfile from 29. November 2019, 20:26

Ben Frost / Dark꞉ Cycle 2

Used drive : ATAPI DVD A DH16AASH Adapter: 1 ID: 0

Read mode : Secure
Utilize accurate stream : Yes
Defeat audio cache : Yes
Make use of C2 pointers : No

Read offset correction : 6
Overread into Lead-In and Lead-Out : No
Fill up missing offset samples with silence : Yes
Delete leading and trailing silent blocks : No
Null samples used in CRC calculations : Yes
Used interface : Native Win32 interface for Win NT & 2000
Gap handling : Appended to previous track

Used output format : User Defined Encoder
Selected bitrate : 1024 kBit/s
Quality : High
Add ID3 tag : No
Command line compressor : C:\Program Files (x86)\Exact Audio Copy\Flac\flac.exe
Additional command line options : -8 -e -V -T "ARTIST=%artist%" -T "TITLE=%title%" -T "ALBUM=%albumtitle%" -T "DATE=%year%" -T "TRACKNUMBER=%tracknr%" -T "GENRE=%genre%" -T "PERFORMER=%albuminterpret%" -T "COMPOSER=%composer%" %haslyrics%–tag-from-file=LYRICS="%lyricsfile%"%haslyrics% -T "ALBUMARTIST=%albumartist%" -T "DISCNUMBER=%cdnumber%" -T "TOTALDISCS=%totalcds%" -T "TOTALTRACKS=%numtracks%" -T "COMMENT=%comment%" %source% -o %dest%


TOC of the extracted CD

Track | Start | Length | Start sector | End sector
––––––––––––––––––––––––––––-
1 | 0:00.00 | 3:02.29 | 0 | 13678
2 | 3:02.29 | 2:43.27 | 13679 | 25930
3 | 5:45.56 | 5:07.69 | 25931 | 49024
4 | 10:53.50 | 2:00.68 | 49025 | 58092
5 | 12:54.43 | 3:14.18 | 58093 | 72660
6 | 16:08.61 | 5:05.68 | 72661 | 95603
7 | 21:14.54 | 2:27.22 | 95604 | 106650
8 | 23:42.01 | 3:09.61 | 106651 | 120886
9 | 26:51.62 | 4:46.44 | 120887 | 142380
10 | 31:38.31 | 2:48.32 | 142381 | 155012
11 | 34:26.63 | 5:35.74 | 155013 | 180211
12 | 40:02.62 | 3:06.57 | 180212 | 194218
13 | 43:09.44 | 3:40.07 | 194219 | 210725


Track 1

Filename Q:\Music04_moviez\D\Dark꞉ Cycle 2 (2019, FLAC) - Ben Frost\01 - Schwarze Materie.wav

Pre-gap length 0:00:02.00

Peak level 88.1 %
Extraction speed 3.1 X
Track quality 100.0 %
Test CRC 7E1EAAC6
Copy CRC 7E1EAAC6
Track not present in AccurateRip database
Copy OK

Track 2

Filename Q:\Music04_moviez\D\Dark꞉ Cycle 2 (2019, FLAC) - Ben Frost\02 - Winden 2053.wav

Pre-gap length 0:00:02.78

Peak level 99.8 %
Extraction speed 2.5 X
Track quality 99.9 %
Test CRC 9E7BC25F
Copy CRC 9E7BC25F
Track not present in AccurateRip database
Copy OK

Track 3

Filename Q:\Music04_moviez\D\Dark꞉ Cycle 2 (2019, FLAC) - Ben Frost\03 - Bootstrap.wav

Pre-gap length 0:00:02.78

Peak level 99.7 %
Extraction speed 4.1 X
Track quality 100.0 %
Test CRC 4944FAA4
Copy CRC 4944FAA4
Track not present in AccurateRip database
Copy OK

Track 4

Filename Q:\Music04_moviez\D\Dark꞉ Cycle 2 (2019, FLAC) - Ben Frost\04 - Alles In Einer Endlosen Schleife.wav

Pre-gap length 0:00:02.78

Peak level 99.6 %
Extraction speed 3.7 X
Track quality 100.0 %
Test CRC D96F50E9
Copy CRC D96F50E9
Track not present in AccurateRip database
Copy OK

Track 5

Filename Q:\Music04_moviez\D\Dark꞉ Cycle 2 (2019, FLAC) - Ben Frost\05 - Die Reisenden 1.wav

Pre-gap length 0:00:02.78

Peak level 99.7 %
Extraction speed 4.3 X
Track quality 100.0 %
Test CRC E9438DD8
Copy CRC E9438DD8
Track not present in AccurateRip database
Copy OK

Track 6

Filename Q:\Music04_moviez\D\Dark꞉ Cycle 2 (2019, FLAC) - Ben Frost\06 - Du Bist Ein So Guter Mensch.wav

Pre-gap length 0:00:02.78

Peak level 99.5 %
Extraction speed 4.9 X
Track quality 100.0 %
Test CRC 7C42CEDD
Copy CRC 7C42CEDD
Track not present in AccurateRip database
Copy OK

Track 7

Filename Q:\Music04_moviez\D\Dark꞉ Cycle 2 (2019, FLAC) - Ben Frost\07 - Jeder Bekommt Was Er Verdient.wav

Pre-gap length 0:00:02.78

Peak level 99.7 %
Extraction speed 4.5 X
Track quality 100.0 %
Test CRC 1526161B
Copy CRC 1526161B
Track not present in AccurateRip database
Copy OK

Track 8

Filename Q:\Music04_moviez\D\Dark꞉ Cycle 2 (2019, FLAC) - Ben Frost\08 - Die Apokalypse Muss Kommen.wav

Pre-gap length 0:00:02.78

Peak level 99.6 %
Extraction speed 4.9 X
Track quality 100.0 %
Test CRC 41438A90
Copy CRC 41438A90
Track not present in AccurateRip database
Copy OK

Track 9

Filename Q:\Music04_moviez\D\Dark꞉ Cycle 2 (2019, FLAC) - Ben Frost\09 - Wir Haben Keine Zeit Mehr.wav

Pre-gap length 0:00:02.78

Peak level 99.3 %
Extraction speed 5.5 X
Track quality 100.0 %
Test CRC 648AAF72
Copy CRC 648AAF72
Track not present in AccurateRip database
Copy OK

Track 10

Filename Q:\Music04_moviez\D\Dark꞉ Cycle 2 (2019, FLAC) - Ben Frost\10 - Die Reisenden 2.wav

Pre-gap length 0:00:02.78

Peak level 93.1 %
Extraction speed 5.3 X
Track quality 100.0 %
Test CRC 4BF2407D
Copy CRC 4BF2407D
Track not present in AccurateRip database
Copy OK

Track 11

Filename Q:\Music04_moviez\D\Dark꞉ Cycle 2 (2019, FLAC) - Ben Frost\11 - Ich Dachte, Ich Haette Mehr Zeit.wav

Pre-gap length 0:00:02.78

Peak level 94.4 %
Extraction speed 5.2 X
Track quality 99.9 %
Test CRC 895A2093
Copy CRC 895A2093
Track not present in AccurateRip database
Copy OK

Track 12

Filename Q:\Music04_moviez\D\Dark꞉ Cycle 2 (2019, FLAC) - Ben Frost\12 - Folge Dem Signal.wav

Pre-gap length 0:00:02.78

Peak level 99.7 %
Extraction speed 5.8 X
Track quality 100.0 %
Test CRC B6BACA2C
Copy CRC B6BACA2C
Track not present in AccurateRip database
Copy OK

Track 13

Filename Q:\Music04_moviez\D\Dark꞉ Cycle 2 (2019, FLAC) - Ben Frost\13 - Der Weisse Teufel.wav

Pre-gap length 0:00:02.78

Peak level 82.1 %
Extraction speed 4.8 X
Track quality 99.9 %
Test CRC 330859B4
Copy CRC 330859B4
Track not present in AccurateRip database
Copy OK


None of the tracks are present in the AccurateRip database

No errors occurred

End of status report

–– CUETools DB Plugin V2.1.6

[CTDB TOCID: L1uQ4aAQXiWwIwbru7xzGQd339Y-] found
Submit result: L1uQ4aAQXiWwIwbru7xzGQd339Y- has been confirmed
Track | CTDB Status
1 | (1/1) Accurately ripped
2 | (1/1) Accurately ripped
3 | (1/1) Accurately ripped
4 | (1/1) Accurately ripped
5 | (1/1) Accurately ripped
6 | (1/1) Accurately ripped
7 | (1/1) Accurately ripped
8 | (1/1) Accurately ripped
9 | (1/1) Accurately ripped
10 | (1/1) Accurately ripped
11 | (1/1) Accurately ripped
12 | (1/1) Accurately ripped
13 | (1/1) Accurately ripped


==== Log checksum 1E66D6D17E5E6D3A5DE197C9D22143BD349AA9896F5DD875B685A0670A45481F ====