Subcategories
Tags
Language
Tags

Black Sabbath - Sabotage (Super Deluxe Edition) (1975/2021)

Posted By: delpotro
Black Sabbath - Sabotage (Super Deluxe Edition) (1975/2021)

Black Sabbath - Sabotage (Super Deluxe Edition) (1975/2021)
EAC Rip | FLAC (tracks+log+.cue) - 1,01 Gb | MP3 CBR 320 kbps - 350 Mb | 02:31:00
Hard Rock, Heavy Metal | Label: Rhino Entertainment

Black Sabbath was embroiled in a protracted legal battle with its former manager in 1975 when the band started recording its sixth studio album, SABOTAGE. The group felt sabotaged at every turn – hence the album’s title – but that feeling helped fuel the intensity of the new music they were making. In spite of the distractions, the band created one of the most dynamic – and underappreciated – albums of its legendary career.

We're paying tribute to the patron saints of heavy metal with a collection that includes a newly remastered version of the original album along with a complete live show recorded during the band’s 1975 tour. SABOTAGE: SUPER DELUXE EDITION will be available on June 11 as both a 4-CD set and a 4-LP set on 180-gram vinyl, with the latter including a bonus 7-inch with the single edit for “Am I Going Insane (Radio)” and “Hole In The Sky” on the flipside with artwork replicating the very rare Japanese release of the single.

Ozzy Osbourne, Tony Iommi, Geezer Butler, and Bill Ward recorded Sabotage in London and Brussels and co-produced the album with Mike Butcher. The eight songs were released first in the U.S. in July 1975, and then in the U.K. that September. Certified gold in America and silver in the UK, Sabotage earned positive reviews for hard-hitting tracks like “Hole In The Sky” and “Symptom Of The Universe,” as well as more experimental music like “Supertzar,” which featured harp, Mellotron, and the English Chamber Choir.

SABOTAGE: SUPER DELUXE EDITION introduces 16 live tracks (13 of which are previously unreleased) that were recorded in 1975 during the quartet’s U.S. tour for the album. The performances include songs that span the group’s career, from the title track to its 1970 debut Black Sabbath to “Spiral Architect” and “Sabbra Cadabra” from its previous album, Sabbath Bloody Sabbath (1973). Sabotage is represented as well with live takes of “Hole In The Sky” and “Megalomania.”

The music is accompanied by in-depth liner notes that tell the story of the album through quotes from band members and the music media along with rare photos and press clippings from the era. Also included is a 1975 Madison Square Garden replica concert book and Sabotage 1975 tour color poster.
Tracklist:
Disc 1 (43:38)
1. Hole In The Sky
2. Don't Start (Too Late)
3. Symptom Of The Universe
4. Megalomania
5. The Thrill Of It All
6. Supertzar
7. Am I Going Insane (Radio)
8. The Writ

Disc 2
1. Supertzar / Killing Yourself To Live
2. Hole In The Sky
3. Snowblind
4. Symptom Of The Universe
5. War Pigs
6. Megalomania
7. Sabbra Cadabra
8. Jam 1 (Including Guitar Solo)
9. Jam 2 (Including Drum Solo)
10. Supernaut
11. Iron Man

Disc 3
1. Guitar Solo (Including Excerpts Of Orchid And Rock 'N' Roll Doctor)
2. Black Sabbath
3. Spiral Architect
4. Embryo / Children Of The Grave
5. Paranoid

Disc 4
1. Am I Going Insane (Radio) Single Edit
2. Hole In The Sky

Exact Audio Copy V1.6 from 23. October 2020

EAC extraction logfile from 12. June 2021, 2:01

Black Sabbath / Sabotage Super Deluxe (Disc 1)

Used drive : ASUS BW-16D1HT Adapter: 1 ID: 1

Read mode : Secure
Utilize accurate stream : Yes
Defeat audio cache : Yes
Make use of C2 pointers : No

Read offset correction : 6
Overread into Lead-In and Lead-Out : No
Fill up missing offset samples with silence : Yes
Delete leading and trailing silent blocks : No
Null samples used in CRC calculations : Yes
Used interface : Native Win32 interface for Win NT & 2000
Gap handling : Appended to previous track

Used output format : User Defined Encoder
Selected bitrate : 1024 kBit/s
Quality : High
Add ID3 tag : No
Command line compressor : D:\FLAC 1.3.3 Encoder\flac.exe
Additional command line options : -8 -V -T "ARTIST=%artist%" -T "TITLE=%title%" -T "ALBUM=%albumtitle%" -T "DATE=%year%" -T "TRACKNUMBER=%tracknr%" -T "GENRE=%genre%" -T "PERFORMER=%albuminterpret%" -T "COMPOSER=%composer%" %haslyrics%–tag-from-file=LYRICS="%lyricsfile%"%haslyrics% -T "ALBUMARTIST=%albumartist%" -T "DISCNUMBER=%cdnumber%" -T "TOTALDISCS=%totalcds%" -T "TOTALTRACKS=%numtracks%" -T "COMMENT=%comment%" %source% -o %dest%


TOC of the extracted CD

Track | Start | Length | Start sector | End sector
––––––––––––––––––––––––––––-
1 | 0:00.00 | 3:59.17 | 0 | 17941
2 | 3:59.17 | 0:49.27 | 17942 | 21643
3 | 4:48.44 | 6:29.09 | 21644 | 50827
4 | 11:17.53 | 9:41.64 | 50828 | 94466
5 | 20:59.42 | 5:55.21 | 94467 | 121112
6 | 26:54.63 | 3:43.50 | 121113 | 137887
7 | 30:38.38 | 4:16.19 | 137888 | 157106
8 | 34:54.57 | 8:44.51 | 157107 | 196457


Track 1

Filename D:\Torrents\Black Sabbath - Sabotage Super Deluxe (CD) [FLAC]\01 - Remastered Album\01 - Hole in the Sky.wav

Pre-gap length 0:00:02.00

Peak level 100.0 %
Extraction speed 4.5 X
Track quality 100.0 %
Test CRC CAA821C3
Copy CRC CAA821C3
Track not present in AccurateRip database
Copy OK

Track 2

Filename D:\Torrents\Black Sabbath - Sabotage Super Deluxe (CD) [FLAC]\01 - Remastered Album\02 - Don’t Start (Too Late).wav

Peak level 23.4 %
Extraction speed 3.1 X
Track quality 100.0 %
Test CRC 490C48F7
Copy CRC 490C48F7
Track not present in AccurateRip database
Copy OK

Track 3

Filename D:\Torrents\Black Sabbath - Sabotage Super Deluxe (CD) [FLAC]\01 - Remastered Album\03 - Symptom of the Universe.wav

Peak level 100.0 %
Extraction speed 4.9 X
Track quality 99.9 %
Test CRC 142CA20F
Copy CRC 142CA20F
Track not present in AccurateRip database
Copy OK

Track 4

Filename D:\Torrents\Black Sabbath - Sabotage Super Deluxe (CD) [FLAC]\01 - Remastered Album\04 - Megalomania.wav

Peak level 98.3 %
Extraction speed 6.6 X
Track quality 100.0 %
Test CRC 10C2DD98
Copy CRC 10C2DD98
Track not present in AccurateRip database
Copy OK

Track 5

Filename D:\Torrents\Black Sabbath - Sabotage Super Deluxe (CD) [FLAC]\01 - Remastered Album\05 - The Thrill of It All.wav

Peak level 99.7 %
Extraction speed 7.1 X
Track quality 100.0 %
Test CRC 54B1C01E
Copy CRC 54B1C01E
Track not present in AccurateRip database
Copy OK

Track 6

Filename D:\Torrents\Black Sabbath - Sabotage Super Deluxe (CD) [FLAC]\01 - Remastered Album\06 - Supertzar.wav

Peak level 86.6 %
Extraction speed 7.1 X
Track quality 100.0 %
Test CRC 3ED9835F
Copy CRC 3ED9835F
Track not present in AccurateRip database
Copy OK

Track 7

Filename D:\Torrents\Black Sabbath - Sabotage Super Deluxe (CD) [FLAC]\01 - Remastered Album\07 - Am I Going Insane (Radio).wav

Peak level 97.8 %
Extraction speed 7.6 X
Track quality 100.0 %
Test CRC 1F29BC7B
Copy CRC 1F29BC7B
Track not present in AccurateRip database
Copy OK

Track 8

Filename D:\Torrents\Black Sabbath - Sabotage Super Deluxe (CD) [FLAC]\01 - Remastered Album\08 - The Writ.wav

Peak level 98.3 %
Extraction speed 8.6 X
Track quality 100.0 %
Test CRC 78008470
Copy CRC 78008470
Track not present in AccurateRip database
Copy OK


None of the tracks are present in the AccurateRip database

No errors occurred

End of status report

–– CUETools DB Plugin V2.1.6

[CTDB TOCID: 9QgxaSk2dsnKzjEd1MdPwhaDP7o-] found
Submit result: 9QgxaSk2dsnKzjEd1MdPwhaDP7o- has been confirmed
Track | CTDB Status
1 | (5/5) Accurately ripped
2 | (5/5) Accurately ripped
3 | (5/5) Accurately ripped
4 | (5/5) Accurately ripped
5 | (5/5) Accurately ripped
6 | (5/5) Accurately ripped
7 | (5/5) Accurately ripped
8 | (5/5) Accurately ripped


==== Log checksum 1272BB571F9BBB732ED3C9AFAE8DB166C9F6C00D970518BFF830B6B263D2E3B6 ====
Exact Audio Copy V1.6 from 23. October 2020

EAC extraction logfile from 12. June 2021, 3:30

Black Sabbath / Sabotage Super Deluxe (Disc 2)

Used drive : ASUS BW-16D1HT Adapter: 1 ID: 1

Read mode : Secure
Utilize accurate stream : Yes
Defeat audio cache : Yes
Make use of C2 pointers : No

Read offset correction : 6
Overread into Lead-In and Lead-Out : No
Fill up missing offset samples with silence : Yes
Delete leading and trailing silent blocks : No
Null samples used in CRC calculations : Yes
Used interface : Native Win32 interface for Win NT & 2000
Gap handling : Appended to previous track

Used output format : User Defined Encoder
Selected bitrate : 1024 kBit/s
Quality : High
Add ID3 tag : No
Command line compressor : D:\FLAC 1.3.3 Encoder\flac.exe
Additional command line options : -8 -V -T "ARTIST=%artist%" -T "TITLE=%title%" -T "ALBUM=%albumtitle%" -T "DATE=%year%" -T "TRACKNUMBER=%tracknr%" -T "GENRE=%genre%" -T "PERFORMER=%albuminterpret%" -T "COMPOSER=%composer%" %haslyrics%–tag-from-file=LYRICS="%lyricsfile%"%haslyrics% -T "ALBUMARTIST=%albumartist%" -T "DISCNUMBER=%cdnumber%" -T "TOTALDISCS=%totalcds%" -T "TOTALTRACKS=%numtracks%" -T "COMMENT=%comment%" %source% -o %dest%


TOC of the extracted CD

Track | Start | Length | Start sector | End sector
––––––––––––––––––––––––––––-
1 | 0:00.00 | 6:45.61 | 0 | 30435
2 | 6:45.61 | 4:36.17 | 30436 | 51152
3 | 11:22.03 | 6:44.42 | 51153 | 81494
4 | 18:06.45 | 4:34.62 | 81495 | 102106
5 | 22:41.32 | 8:23.52 | 102107 | 139883
6 | 31:05.09 | 10:59.67 | 139884 | 189375
7 | 42:05.01 | 5:20.51 | 189376 | 213426
8 | 47:25.52 | 7:52.29 | 213427 | 248855
9 | 55:18.06 | 6:06.69 | 248856 | 276374
10 | 61:25.00 | 2:21.19 | 276375 | 286968
11 | 63:46.19 | 6:16.58 | 286969 | 315226


Track 1

Filename D:\Torrents\Black Sabbath - Sabotage Super Deluxe (CD) [FLAC]\02 - Noth American Tour Live '75 Part 1\01 - Supertzar,Killing Yourself to Live (Live).wav

Pre-gap length 0:00:02.00

Peak level 97.0 %
Extraction speed 1.2 X
Track quality 100.0 %
Test CRC 632BAC3F
Copy CRC 632BAC3F
Track not present in AccurateRip database
Copy OK

Track 2

Filename D:\Torrents\Black Sabbath - Sabotage Super Deluxe (CD) [FLAC]\02 - Noth American Tour Live '75 Part 1\02 - Hole in the Sky (Live).wav

Peak level 97.0 %
Extraction speed 1.3 X
Track quality 99.9 %
Test CRC 2DA38DD4
Copy CRC 2DA38DD4
Track not present in AccurateRip database
Copy OK

Track 3

Filename D:\Torrents\Black Sabbath - Sabotage Super Deluxe (CD) [FLAC]\02 - Noth American Tour Live '75 Part 1\03 - Snowblind (Live).wav

Peak level 97.0 %
Extraction speed 1.5 X
Track quality 100.0 %
Test CRC ABA84666
Copy CRC ABA84666
Track not present in AccurateRip database
Copy OK

Track 4

Filename D:\Torrents\Black Sabbath - Sabotage Super Deluxe (CD) [FLAC]\02 - Noth American Tour Live '75 Part 1\04 - Symptom of the Universe (Live).wav

Peak level 97.0 %
Extraction speed 1.6 X
Track quality 100.0 %
Test CRC 6EA57C4D
Copy CRC 6EA57C4D
Track not present in AccurateRip database
Copy OK

Track 5

Filename D:\Torrents\Black Sabbath - Sabotage Super Deluxe (CD) [FLAC]\02 - Noth American Tour Live '75 Part 1\05 - War Pigs (Live).wav

Peak level 97.0 %
Extraction speed 1.8 X
Track quality 100.0 %
Test CRC 6C525400
Copy CRC 6C525400
Track not present in AccurateRip database
Copy OK

Track 6

Filename D:\Torrents\Black Sabbath - Sabotage Super Deluxe (CD) [FLAC]\02 - Noth American Tour Live '75 Part 1\06 - Megalomania (Live).wav

Peak level 97.0 %
Extraction speed 2.0 X
Track quality 100.0 %
Test CRC 2D05F8FE
Copy CRC 2D05F8FE
Track not present in AccurateRip database
Copy OK

Track 7

Filename D:\Torrents\Black Sabbath - Sabotage Super Deluxe (CD) [FLAC]\02 - Noth American Tour Live '75 Part 1\07 - Sabbra Cadabra (Live).wav

Peak level 97.0 %
Extraction speed 1.9 X
Track quality 99.9 %
Test CRC ABE522B2
Copy CRC ABE522B2
Track not present in AccurateRip database
Copy OK

Track 8

Filename D:\Torrents\Black Sabbath - Sabotage Super Deluxe (CD) [FLAC]\02 - Noth American Tour Live '75 Part 1\08 - Jam 1 (including Guitar Solo) (Live).wav

Peak level 97.0 %
Extraction speed 2.1 X
Track quality 99.9 %
Test CRC 9DD9F749
Copy CRC 9DD9F749
Track not present in AccurateRip database
Copy OK

Track 9

Filename D:\Torrents\Black Sabbath - Sabotage Super Deluxe (CD) [FLAC]\02 - Noth American Tour Live '75 Part 1\09 - Jam 2 (including Drum Solo) (Live).wav

Peak level 97.0 %
Extraction speed 2.3 X
Track quality 100.0 %
Test CRC EF875E76
Copy CRC EF875E76
Track not present in AccurateRip database
Copy OK

Track 10

Filename D:\Torrents\Black Sabbath - Sabotage Super Deluxe (CD) [FLAC]\02 - Noth American Tour Live '75 Part 1\10 - Supernaut (Live).wav

Peak level 97.0 %
Extraction speed 2.0 X
Track quality 100.0 %
Test CRC E1F1856C
Copy CRC E1F1856C
Track not present in AccurateRip database
Copy OK

Track 11

Filename D:\Torrents\Black Sabbath - Sabotage Super Deluxe (CD) [FLAC]\02 - Noth American Tour Live '75 Part 1\11 - Iron Man (Live).wav

Peak level 97.0 %
Extraction speed 2.4 X
Track quality 100.0 %
Test CRC D0E6E4FD
Copy CRC D0E6E4FD
Track not present in AccurateRip database
Copy OK


None of the tracks are present in the AccurateRip database

No errors occurred

End of status report

–– CUETools DB Plugin V2.1.6

[CTDB TOCID: XbsnFFLASSdD0ceOVU329_zFTBA-] found
Submit result: XbsnFFLASSdD0ceOVU329_zFTBA- has been confirmed
Track | CTDB Status
1 | (6/6) Accurately ripped
2 | (6/6) Accurately ripped
3 | (6/6) Accurately ripped
4 | (6/6) Accurately ripped
5 | (6/6) Accurately ripped
6 | (6/6) Accurately ripped
7 | (6/6) Accurately ripped
8 | (6/6) Accurately ripped
9 | (6/6) Accurately ripped
10 | (6/6) Accurately ripped
11 | (6/6) Accurately ripped


==== Log checksum F6C4EBD56A78EF7901CDDCF074D54701D1ED1336CF9E612EBAC19F44BA7CB076 ====
Exact Audio Copy V1.6 from 23. October 2020

EAC extraction logfile from 12. June 2021, 4:21

Black Sabbath / Sabotage Super Deluxe (Disc 3)

Used drive : ASUS BW-16D1HT Adapter: 1 ID: 1

Read mode : Secure
Utilize accurate stream : Yes
Defeat audio cache : Yes
Make use of C2 pointers : No

Read offset correction : 6
Overread into Lead-In and Lead-Out : No
Fill up missing offset samples with silence : Yes
Delete leading and trailing silent blocks : No
Null samples used in CRC calculations : Yes
Used interface : Native Win32 interface for Win NT & 2000
Gap handling : Appended to previous track

Used output format : User Defined Encoder
Selected bitrate : 1024 kBit/s
Quality : High
Add ID3 tag : No
Command line compressor : D:\FLAC 1.3.3 Encoder\flac.exe
Additional command line options : -8 -V -T "ARTIST=%artist%" -T "TITLE=%title%" -T "ALBUM=%albumtitle%" -T "DATE=%year%" -T "TRACKNUMBER=%tracknr%" -T "GENRE=%genre%" -T "PERFORMER=%albuminterpret%" -T "COMPOSER=%composer%" %haslyrics%–tag-from-file=LYRICS="%lyricsfile%"%haslyrics% -T "ALBUMARTIST=%albumartist%" -T "DISCNUMBER=%cdnumber%" -T "TOTALDISCS=%totalcds%" -T "TOTALTRACKS=%numtracks%" -T "COMMENT=%comment%" %source% -o %dest%


TOC of the extracted CD

Track | Start | Length | Start sector | End sector
––––––––––––––––––––––––––––-
1 | 0:00.00 | 8:46.55 | 0 | 39504
2 | 8:46.55 | 6:46.01 | 39505 | 69955
3 | 15:32.56 | 5:15.17 | 69956 | 93597
4 | 20:47.73 | 6:00.00 | 93598 | 120597
5 | 26:47.73 | 3:03.65 | 120598 | 134387


Track 1

Filename D:\Torrents\Black Sabbath - Sabotage Super Deluxe (CD) [FLAC]\03 - Noth American Tour Live '75 Part 2\01 - Guitar Solo (Live).wav

Pre-gap length 0:00:02.00

Peak level 97.0 %
Extraction speed 1.2 X
Track quality 100.0 %
Test CRC 78649967
Copy CRC 78649967
Track not present in AccurateRip database
Copy OK

Track 2

Filename D:\Torrents\Black Sabbath - Sabotage Super Deluxe (CD) [FLAC]\03 - Noth American Tour Live '75 Part 2\02 - Black Sabbath (Live).wav

Peak level 97.0 %
Extraction speed 1.4 X
Track quality 99.9 %
Test CRC D09367D9
Copy CRC D09367D9
Track not present in AccurateRip database
Copy OK

Track 3

Filename D:\Torrents\Black Sabbath - Sabotage Super Deluxe (CD) [FLAC]\03 - Noth American Tour Live '75 Part 2\03 - Spiral Architect (Live).wav

Peak level 97.0 %
Extraction speed 1.5 X
Track quality 100.0 %
Test CRC 2E0A22BE
Copy CRC 2E0A22BE
Track not present in AccurateRip database
Copy OK

Track 4

Filename D:\Torrents\Black Sabbath - Sabotage Super Deluxe (CD) [FLAC]\03 - Noth American Tour Live '75 Part 2\04 - Embryo,Children of the Grave (Live).wav

Peak level 97.0 %
Extraction speed 1.7 X
Track quality 100.0 %
Test CRC 02A9357F
Copy CRC 02A9357F
Track not present in AccurateRip database
Copy OK

Track 5

Filename D:\Torrents\Black Sabbath - Sabotage Super Deluxe (CD) [FLAC]\03 - Noth American Tour Live '75 Part 2\05 - Paranoid (Live).wav

Peak level 97.0 %
Extraction speed 1.6 X
Track quality 100.0 %
Test CRC 87482707
Copy CRC 87482707
Track not present in AccurateRip database
Copy OK


None of the tracks are present in the AccurateRip database

No errors occurred

End of status report

–– CUETools DB Plugin V2.1.6

[CTDB TOCID: BUZglpl49ydSHKjqF5d7uBc7H2A-] found
Submit result: BUZglpl49ydSHKjqF5d7uBc7H2A- has been confirmed
Track | CTDB Status
1 | (6/6) Accurately ripped
2 | (6/6) Accurately ripped
3 | (6/6) Accurately ripped
4 | (6/6) Accurately ripped
5 | (6/6) Accurately ripped


==== Log checksum 71F3F3F4C554F933C78573B2335C96B90A106D0D7F695CB6487EF5EA4B740570 ====
Exact Audio Copy V1.6 from 23. October 2020

EAC extraction logfile from 12. June 2021, 4:42

Black Sabbath / Sabotage Super Deluxe (Disc 4)

Used drive : ASUS BW-16D1HT Adapter: 1 ID: 1

Read mode : Secure
Utilize accurate stream : Yes
Defeat audio cache : Yes
Make use of C2 pointers : No

Read offset correction : 6
Overread into Lead-In and Lead-Out : No
Fill up missing offset samples with silence : Yes
Delete leading and trailing silent blocks : No
Null samples used in CRC calculations : Yes
Used interface : Native Win32 interface for Win NT & 2000
Gap handling : Appended to previous track

Used output format : User Defined Encoder
Selected bitrate : 1024 kBit/s
Quality : High
Add ID3 tag : No
Command line compressor : D:\FLAC 1.3.3 Encoder\flac.exe
Additional command line options : -8 -V -T "ARTIST=%artist%" -T "TITLE=%title%" -T "ALBUM=%albumtitle%" -T "DATE=%year%" -T "TRACKNUMBER=%tracknr%" -T "GENRE=%genre%" -T "PERFORMER=%albuminterpret%" -T "COMPOSER=%composer%" %haslyrics%–tag-from-file=LYRICS="%lyricsfile%"%haslyrics% -T "ALBUMARTIST=%albumartist%" -T "DISCNUMBER=%cdnumber%" -T "TOTALDISCS=%totalcds%" -T "TOTALTRACKS=%numtracks%" -T "COMMENT=%comment%" %source% -o %dest%


TOC of the extracted CD

Track | Start | Length | Start sector | End sector
––––––––––––––––––––––––––––-
1 | 0:00.00 | 3:27.13 | 0 | 15537
2 | 3:27.13 | 3:59.18 | 15538 | 33480


Track 1

Filename D:\Torrents\Black Sabbath - Sabotage Super Deluxe (CD) [FLAC]\04 - Japanese Single\01 - Am I Going Insane (Radio) (Single Edit).wav

Pre-gap length 0:00:02.00

Peak level 97.0 %
Extraction speed 1.0 X
Track quality 99.9 %
Test CRC AFE2083D
Copy CRC AFE2083D
Track not present in AccurateRip database
Copy OK

Track 2

Filename D:\Torrents\Black Sabbath - Sabotage Super Deluxe (CD) [FLAC]\04 - Japanese Single\02 - Hole in the Sky.wav

Peak level 97.4 %
Extraction speed 1.1 X
Track quality 100.0 %
Test CRC FFC3ECE7
Copy CRC FFC3ECE7
Track not present in AccurateRip database
Copy OK


None of the tracks are present in the AccurateRip database

No errors occurred

End of status report

–– CUETools DB Plugin V2.1.6

[CTDB TOCID: soc6s8QRl5lIeMOc6CK_P7ge4oY-] found
Submit result: soc6s8QRl5lIeMOc6CK_P7ge4oY- has been confirmed
Track | CTDB Status
1 | (6/6) Accurately ripped
2 | (6/6) Accurately ripped


==== Log checksum 88E8A24E694BCA1F800CD35E9E7AD5CA5461B250F8C0DDD957C192F6F8C63297 ====

Thanks to the Original ripper !