Tags
Language
Tags
November 2022
Su Mo Tu We Th Fr Sa
30 31 1 2 3 4 5
6 7 8 9 10 11 12
13 14 15 16 17 18 19
20 21 22 23 24 25 26
27 28 29 30 1 2 3

Debbie Gibson - Out of the Blue (Deluxe Edition) (1987/2021)

Posted By: delpotro
Debbie Gibson - Out of the Blue (Deluxe Edition) (1987/2021)

Debbie Gibson - Out of the Blue (Deluxe Edition) (1987/2021)
EAC Rip | FLAC (tracks+log+.cue) - 1,15 Gb | MP3 CBR 320 kbps - 396 Mb | 02:52:42
Pop, Dance, Female Vocal | Label: Cherry Pop Records, Cherry Red Records

Extensive four disc (three CDs + NTSC/Region 0 DVD) reissue of Debbie Gibson's big selling Atlantic Records' debut album from 1987. Featuring the hit singles 'Only In My Dreams', 'Shake Your Love', 'Out Of The Blue', 'Foolish Beat' and 'Staying Together' plus the videos to all five singles. With a 2021 introduction written by Debbie, and many mixes, new-to-CD, from the original master tapes. Including 'Out Of The Blue: Live In Concert' plus bonus Up Close And Personal interview special on the DVD. Cherry Red are delighted to announce the first in a series of Debbie Gibson reissues. Signed to Atlantic Records at 16, Debbie became a teen sensation in 1987. Thanks to a string of international pop hits, the singer-songwriter rapidly became a household name around the globe. Within the space of 12 months, Debbie had scored US Top Ten singles with 'Only In My Dreams' (US #4, UK #11), 'Shake Your Love' (US #4, UK #7), 'Out Of The Blue' (US #3, UK #19) and 'Foolish Beat' (US #1, UK #9), all taken from the 'Out Of The Blue' album, which would ultimately sell over five million copies worldwide, earning a Gold record in the UK.
Tracklist:
1. Out of the Blue (03:53)
2. Staying Together (04:04)
3. Only In My Dreams (03:53)
4. Foolish Beat (04:22)
5. Red Hot (03:52)
6. Wake up to Love (03:41)
7. Shake Your Love (03:42)
8. Fallen Angel (03:43)
9. Play the Field (04:36)
10. Between the Lines (04:41)
11. Only In My Dreams (Vocal) [Remix] (03:56)
12. Only In My Dreams (Dreamix) [Remix] (04:18)
13. Shake Your Love (Bad Dubb Version) [Remix] (05:05)
14. Foolish Beat (Extended Mix) (06:48)
15. Staying Together (Dub Edit) [Remix] (04:35)
16. Only In My Dreams (Extended Club Mix) (06:37)
17. Only In My Dreams (Dub) [Remix] (04:45)
18. Only In My Dreams (Percapella/Vocal) [Remix] (03:32)
19. Only In My Dreams (Heartthrob Beats) [Remix] (04:18)
20. Shake Your Love (Vocal-Club Mix) (05:58)
21. Shake Your Love (Bonus Beats) [Remix] (06:32)
22. Shake Your Love (Vocal/Bassapella) [Remix] (03:35)
23. Shake Your Love (Shake the House Version) [Remix] (05:49)
24. Out of the Blue (Vocal/Club Mix) (05:53)
25. Out of the Blue (Bonus Beats) [Remix] (04:20)
26. Out of the Blue (Drumapella) [Remix] (04:09)
27. Out of the Blue (Dub Version) [Remix] (03:57)
28. Shake Your Love (Live) (07:47)
29. Foolish Beat (Instrumental Version) (04:28)
30. Only In My Dreams (Dream House Mix) (10:07)
31. Medley (Debbie Gibson Mega Mix) (07:17)
32. Staying Together (Remix) (06:00)
33. Staying Together (Dub Version) [Remix] (05:46)
34. Staying Together (Bonus Beats) [Remix] (01:36)
35. Staying Together (Vocal Recut) [Remix] (04:22)

Exact Audio Copy V1.5 from 20. February 2020

EAC extraction logfile from 16. October 2021, 23:38

Debbie Gibson / Out Of The Blue (2021 Deluxe)

Used drive : ATAPI DVD A DH16AASH Adapter: 1 ID: 0

Read mode : Secure
Utilize accurate stream : Yes
Defeat audio cache : Yes
Make use of C2 pointers : No

Read offset correction : 6
Overread into Lead-In and Lead-Out : No
Fill up missing offset samples with silence : Yes
Delete leading and trailing silent blocks : No
Null samples used in CRC calculations : Yes
Used interface : Native Win32 interface for Win NT & 2000
Gap handling : Appended to previous track

Used output format : User Defined Encoder
Selected bitrate : 1024 kBit/s
Quality : High
Add ID3 tag : No
Command line compressor : C:\Program Files (x86)\Exact Audio Copy\Flac\flac.exe
Additional command line options : -8 -V -T "ARTIST=%artist%" -T "TITLE=%title%" -T "ALBUM=%albumtitle%" -T "DATE=%year%" -T "TRACKNUMBER=%tracknr%" -T "GENRE=%genre%" -T "PERFORMER=%albuminterpret%" -T "COMPOSER=%composer%" -T "ALBUMARTIST=%albumartist%" -T "DISCNUMBER=%cdnumber%" -T "TOTALDISCS=%totalcds%" -T "TOTALTRACKS=%numtracks%" -T "COMMENT=%comment%" %source% -o %dest%


TOC of the extracted CD

Track | Start | Length | Start sector | End sector
––––––––––––––––––––––––––––-
1 | 0:00.00 | 3:56.66 | 0 | 17765
2 | 3:56.66 | 4:07.07 | 17766 | 36297
3 | 8:03.73 | 3:55.33 | 36298 | 53955
4 | 11:59.31 | 4:25.30 | 53956 | 73860
5 | 16:24.61 | 3:55.14 | 73861 | 91499
6 | 20:20.00 | 3:44.56 | 91500 | 108355
7 | 24:04.56 | 3:45.63 | 108356 | 125293
8 | 27:50.44 | 3:46.29 | 125294 | 142272
9 | 31:36.73 | 4:39.64 | 142273 | 163261
10 | 36:16.62 | 4:46.66 | 163262 | 184777
11 | 41:03.53 | 3:56.60 | 184778 | 202537
12 | 45:00.38 | 4:18.54 | 202538 | 221941
13 | 49:19.17 | 5:05.46 | 221942 | 244862
14 | 54:24.63 | 6:48.23 | 244863 | 275485
15 | 61:13.11 | 4:35.30 | 275486 | 296140


Track 1

Filename D:\EAC\Debbie Gibson - 1987 - Out Of The Blue (2021 Deluxe) [CD-FLAC]\CD1\01 Out Of The Blue.wav

Pre-gap length 0:00:02.00

Peak level 96.6 %
Extraction speed 3.3 X
Track quality 100.0 %
Test CRC 00F983B5
Copy CRC 00F983B5
Track not present in AccurateRip database
Copy OK

Track 2

Filename D:\EAC\Debbie Gibson - 1987 - Out Of The Blue (2021 Deluxe) [CD-FLAC]\CD1\02 Staying Together.wav

Pre-gap length 0:00:02.00

Peak level 96.6 %
Extraction speed 3.8 X
Track quality 100.0 %
Test CRC 73679A0E
Copy CRC 73679A0E
Track not present in AccurateRip database
Copy OK

Track 3

Filename D:\EAC\Debbie Gibson - 1987 - Out Of The Blue (2021 Deluxe) [CD-FLAC]\CD1\03 Only In My Dreams.wav

Pre-gap length 0:00:02.00

Peak level 96.6 %
Extraction speed 4.1 X
Track quality 100.0 %
Test CRC 68D4005C
Copy CRC 68D4005C
Track not present in AccurateRip database
Copy OK

Track 4

Filename D:\EAC\Debbie Gibson - 1987 - Out Of The Blue (2021 Deluxe) [CD-FLAC]\CD1\04 Foolish Beat.wav

Pre-gap length 0:00:02.00

Peak level 96.6 %
Extraction speed 4.5 X
Track quality 100.0 %
Test CRC 75012CB6
Copy CRC 75012CB6
Track not present in AccurateRip database
Copy OK

Track 5

Filename D:\EAC\Debbie Gibson - 1987 - Out Of The Blue (2021 Deluxe) [CD-FLAC]\CD1\05 Red Hot.wav

Pre-gap length 0:00:02.00

Peak level 96.6 %
Extraction speed 4.6 X
Track quality 100.0 %
Test CRC 80E8D65C
Copy CRC 80E8D65C
Track not present in AccurateRip database
Copy OK

Track 6

Filename D:\EAC\Debbie Gibson - 1987 - Out Of The Blue (2021 Deluxe) [CD-FLAC]\CD1\06 Wake Up To Love.wav

Pre-gap length 0:00:02.00

Peak level 96.6 %
Extraction speed 3.8 X
Track quality 99.9 %
Test CRC D1F8FA7F
Copy CRC D1F8FA7F
Track not present in AccurateRip database
Copy OK

Track 7

Filename D:\EAC\Debbie Gibson - 1987 - Out Of The Blue (2021 Deluxe) [CD-FLAC]\CD1\07 Shake Your Love.wav

Pre-gap length 0:00:02.00

Peak level 96.6 %
Extraction speed 5.1 X
Track quality 100.0 %
Test CRC BB739E5B
Copy CRC BB739E5B
Track not present in AccurateRip database
Copy OK

Track 8

Filename D:\EAC\Debbie Gibson - 1987 - Out Of The Blue (2021 Deluxe) [CD-FLAC]\CD1\08 Fallen Angel.wav

Pre-gap length 0:00:02.00

Peak level 96.6 %
Extraction speed 4.2 X
Track quality 99.9 %
Test CRC B9D2B8C7
Copy CRC B9D2B8C7
Track not present in AccurateRip database
Copy OK

Track 9

Filename D:\EAC\Debbie Gibson - 1987 - Out Of The Blue (2021 Deluxe) [CD-FLAC]\CD1\09 Play The Field.wav

Pre-gap length 0:00:02.00

Peak level 96.6 %
Extraction speed 4.6 X
Track quality 99.9 %
Test CRC 87829B40
Copy CRC 87829B40
Track not present in AccurateRip database
Copy OK

Track 10

Filename D:\EAC\Debbie Gibson - 1987 - Out Of The Blue (2021 Deluxe) [CD-FLAC]\CD1\10 Between The Lines.wav

Pre-gap length 0:00:02.00

Peak level 96.6 %
Extraction speed 5.9 X
Track quality 100.0 %
Test CRC 9918008F
Copy CRC 9918008F
Track not present in AccurateRip database
Copy OK

Track 11

Filename D:\EAC\Debbie Gibson - 1987 - Out Of The Blue (2021 Deluxe) [CD-FLAC]\CD1\11 Only In My Dreams (Vocal).wav

Pre-gap length 0:00:04.00

Peak level 96.6 %
Extraction speed 6.0 X
Track quality 100.0 %
Test CRC 0260B029
Copy CRC 0260B029
Track not present in AccurateRip database
Copy OK

Track 12

Filename D:\EAC\Debbie Gibson - 1987 - Out Of The Blue (2021 Deluxe) [CD-FLAC]\CD1\12 Only In My Dreams (Dreamix).wav

Pre-gap length 0:00:02.00

Peak level 96.6 %
Extraction speed 6.3 X
Track quality 100.0 %
Test CRC 54CAE659
Copy CRC 54CAE659
Track not present in AccurateRip database
Copy OK

Track 13

Filename D:\EAC\Debbie Gibson - 1987 - Out Of The Blue (2021 Deluxe) [CD-FLAC]\CD1\13 Shake Your Love (Bad Dubb Version).wav

Pre-gap length 0:00:02.00

Peak level 96.6 %
Extraction speed 6.6 X
Track quality 100.0 %
Test CRC C9E45879
Copy CRC C9E45879
Track not present in AccurateRip database
Copy OK

Track 14

Filename D:\EAC\Debbie Gibson - 1987 - Out Of The Blue (2021 Deluxe) [CD-FLAC]\CD1\14 Foolish Beat (Extended Mix).wav

Pre-gap length 0:00:02.00

Peak level 96.6 %
Extraction speed 7.0 X
Track quality 100.0 %
Test CRC 3F4F2594
Copy CRC 3F4F2594
Track not present in AccurateRip database
Copy OK

Track 15

Filename D:\EAC\Debbie Gibson - 1987 - Out Of The Blue (2021 Deluxe) [CD-FLAC]\CD1\15 Staying Together (Dub Edit).wav

Pre-gap length 0:00:02.00

Peak level 96.6 %
Extraction speed 7.1 X
Track quality 100.0 %
Test CRC ED769B04
Copy CRC ED769B04
Track not present in AccurateRip database
Copy OK


None of the tracks are present in the AccurateRip database

No errors occurred

End of status report

–– CUETools DB Plugin V2.1.6

[CTDB TOCID: _HS9a1I29iE_vHGlYEKFlmKHrto-] disk not present in database
Submit result: _HS9a1I29iE_vHGlYEKFlmKHrto- has been uploaded


==== Log checksum 1BD085E701A0347829A3C77860A466779E472A7BB4D472DD58771E84237FABC9 ====
Exact Audio Copy V1.5 from 20. February 2020

EAC extraction logfile from 17. October 2021, 9:24

Debbie Gibson / Out Of The Blue (2021 Deluxe) - The Remixes Part 1

Used drive : ATAPI DVD A DH16AASH Adapter: 1 ID: 0

Read mode : Secure
Utilize accurate stream : Yes
Defeat audio cache : Yes
Make use of C2 pointers : No

Read offset correction : 6
Overread into Lead-In and Lead-Out : No
Fill up missing offset samples with silence : Yes
Delete leading and trailing silent blocks : No
Null samples used in CRC calculations : Yes
Used interface : Native Win32 interface for Win NT & 2000
Gap handling : Appended to previous track

Used output format : User Defined Encoder
Selected bitrate : 1024 kBit/s
Quality : High
Add ID3 tag : No
Command line compressor : C:\Program Files (x86)\Exact Audio Copy\Flac\flac.exe
Additional command line options : -8 -V -T "ARTIST=%artist%" -T "TITLE=%title%" -T "ALBUM=%albumtitle%" -T "DATE=%year%" -T "TRACKNUMBER=%tracknr%" -T "GENRE=%genre%" -T "PERFORMER=%albuminterpret%" -T "COMPOSER=%composer%" -T "ALBUMARTIST=%albumartist%" -T "DISCNUMBER=%cdnumber%" -T "TOTALDISCS=%totalcds%" -T "TOTALTRACKS=%numtracks%" -T "COMMENT=%comment%" %source% -o %dest%


TOC of the extracted CD

Track | Start | Length | Start sector | End sector
––––––––––––––––––––––––––––-
1 | 0:00.00 | 6:37.01 | 0 | 29775
2 | 6:37.01 | 4:45.00 | 29776 | 51150
3 | 11:22.01 | 3:32.72 | 51151 | 67122
4 | 14:54.73 | 4:18.47 | 67123 | 86519
5 | 19:13.45 | 5:53.00 | 86520 | 112994
6 | 25:06.45 | 6:32.57 | 112995 | 142451
7 | 31:39.27 | 3:35.44 | 142452 | 158620
8 | 35:14.71 | 5:49.49 | 158621 | 184844
9 | 41:04.45 | 5:53.15 | 184845 | 211334
10 | 46:57.60 | 4:20.49 | 211335 | 230883


Track 1

Filename D:\EAC\Debbie Gibson - 1987 - Out Of The Blue (2021 Deluxe) [CD-FLAC]\CD2\01 Only In My Dreams (Extended Club Mix).wav

Pre-gap length 0:00:02.00

Peak level 96.6 %
Extraction speed 0.8 X
Track quality 99.8 %
Test CRC 84DA523C
Copy CRC 84DA523C
Track not present in AccurateRip database
Copy OK

Track 2

Filename D:\EAC\Debbie Gibson - 1987 - Out Of The Blue (2021 Deluxe) [CD-FLAC]\CD2\02 Only In My Dreams (Dub).wav

Pre-gap length 0:00:02.00

Peak level 96.6 %
Extraction speed 0.7 X
Track quality 99.7 %
Test CRC 241557B8
Copy CRC 241557B8
Track not present in AccurateRip database
Copy OK

Track 3

Filename D:\EAC\Debbie Gibson - 1987 - Out Of The Blue (2021 Deluxe) [CD-FLAC]\CD2\03 Only In My Dreams (Percapella,Vocal).wav

Pre-gap length 0:00:02.00

Peak level 96.6 %
Extraction speed 0.5 X
Track quality 99.5 %
Test CRC A2DAB219
Copy CRC A2DAB219
Track not present in AccurateRip database
Copy OK

Track 4

Filename D:\EAC\Debbie Gibson - 1987 - Out Of The Blue (2021 Deluxe) [CD-FLAC]\CD2\04 Only In My Dreams (Heartthrob Beats).wav

Pre-gap length 0:00:02.00

Peak level 96.6 %
Extraction speed 0.8 X
Track quality 99.7 %
Test CRC 0BB00DA9
Copy CRC 0BB00DA9
Track not present in AccurateRip database
Copy OK

Track 5

Filename D:\EAC\Debbie Gibson - 1987 - Out Of The Blue (2021 Deluxe) [CD-FLAC]\CD2\05 Shake Your Love (Vocal,Club Mix).wav

Pre-gap length 0:00:02.00

Peak level 96.6 %
Extraction speed 1.3 X
Track quality 99.9 %
Test CRC BBCA333B
Copy CRC BBCA333B
Track not present in AccurateRip database
Copy OK

Track 6

Filename D:\EAC\Debbie Gibson - 1987 - Out Of The Blue (2021 Deluxe) [CD-FLAC]\CD2\06 Shake Your Love (Bonus Beats).wav

Peak level 96.6 %
Extraction speed 1.4 X
Track quality 99.9 %
Test CRC 2C4209A4
Copy CRC 2C4209A4
Track not present in AccurateRip database
Copy OK

Track 7

Filename D:\EAC\Debbie Gibson - 1987 - Out Of The Blue (2021 Deluxe) [CD-FLAC]\CD2\07 Shake Your Love (Vocal,Bassapella).wav

Pre-gap length 0:00:02.00

Peak level 96.6 %
Extraction speed 1.2 X
Track quality 99.9 %
Test CRC 9D720C6E
Copy CRC 9D720C6E
Track not present in AccurateRip database
Copy OK

Track 8

Filename D:\EAC\Debbie Gibson - 1987 - Out Of The Blue (2021 Deluxe) [CD-FLAC]\CD2\08 Shake Your Love (Shake The House Version).wav

Pre-gap length 0:00:02.00

Peak level 96.6 %
Extraction speed 1.5 X
Track quality 99.9 %
Test CRC 7F7D0F73
Copy CRC 7F7D0F73
Track not present in AccurateRip database
Copy OK

Track 9

Filename D:\EAC\Debbie Gibson - 1987 - Out Of The Blue (2021 Deluxe) [CD-FLAC]\CD2\09 Out Of The Blue (Vocal,Club Mix).wav

Pre-gap length 0:00:02.00

Peak level 96.6 %
Extraction speed 1.8 X
Track quality 99.9 %
Test CRC AFBD772F
Copy CRC AFBD772F
Track not present in AccurateRip database
Copy OK

Track 10

Filename D:\EAC\Debbie Gibson - 1987 - Out Of The Blue (2021 Deluxe) [CD-FLAC]\CD2\10 Out Of The Blue (Bonus Beats).wav

Pre-gap length 0:00:02.00

Peak level 96.6 %
Extraction speed 1.9 X
Track quality 100.0 %
Test CRC 8CC812EC
Copy CRC 8CC812EC
Track not present in AccurateRip database
Copy OK


None of the tracks are present in the AccurateRip database

No errors occurred

End of status report

–– CUETools DB Plugin V2.1.6

[CTDB TOCID: vGRIeXvmJwqxPVMsNJXyptgw3ws-] disk not present in database
Submit result: vGRIeXvmJwqxPVMsNJXyptgw3ws- has been uploaded


==== Log checksum AA7140EBC6ADFAEFD08CE51B473C42D3E036B3F3F7558654F1FE4E8F41B90342 ====
Exact Audio Copy V1.5 from 20. February 2020

EAC extraction logfile from 17. October 2021, 10:44

Debbie Gibson / Out Of The Blue (2021 Deluxe) - The Remixes Part 2

Used drive : ATAPI DVD A DH16AASH Adapter: 1 ID: 0

Read mode : Secure
Utilize accurate stream : Yes
Defeat audio cache : Yes
Make use of C2 pointers : No

Read offset correction : 6
Overread into Lead-In and Lead-Out : No
Fill up missing offset samples with silence : Yes
Delete leading and trailing silent blocks : No
Null samples used in CRC calculations : Yes
Used interface : Native Win32 interface for Win NT & 2000
Gap handling : Appended to previous track

Used output format : User Defined Encoder
Selected bitrate : 1024 kBit/s
Quality : High
Add ID3 tag : No
Command line compressor : C:\Program Files (x86)\Exact Audio Copy\Flac\flac.exe
Additional command line options : -8 -V -T "ARTIST=%artist%" -T "TITLE=%title%" -T "ALBUM=%albumtitle%" -T "DATE=%year%" -T "TRACKNUMBER=%tracknr%" -T "GENRE=%genre%" -T "PERFORMER=%albuminterpret%" -T "COMPOSER=%composer%" -T "ALBUMARTIST=%albumartist%" -T "DISCNUMBER=%cdnumber%" -T "TOTALDISCS=%totalcds%" -T "TOTALTRACKS=%numtracks%" -T "COMMENT=%comment%" %source% -o %dest%


TOC of the extracted CD

Track | Start | Length | Start sector | End sector
––––––––––––––––––––––––––––-
1 | 0:00.00 | 4:09.05 | 0 | 18679
2 | 4:09.05 | 3:57.73 | 18680 | 36527
3 | 8:07.03 | 7:47.39 | 36528 | 71591
4 | 15:54.42 | 4:28.58 | 71592 | 91749
5 | 20:23.25 | 10:07.62 | 91750 | 137336
6 | 30:31.12 | 7:17.64 | 137337 | 170175
7 | 37:49.01 | 6:00.09 | 170176 | 197184
8 | 43:49.10 | 5:46.70 | 197185 | 223204
9 | 49:36.05 | 1:36.57 | 223205 | 230461
10 | 51:12.62 | 4:22.31 | 230462 | 250142


Track 1

Filename D:\EAC\Debbie Gibson - 1987 - Out Of The Blue (2021 Deluxe) [CD-FLAC]\CD3\01 Out Of The Blue (Drumapella).wav

Pre-gap length 0:00:02.00

Peak level 96.6 %
Extraction speed 0.7 X
Track quality 99.8 %
Test CRC 5DD70183
Copy CRC 5DD70183
Track not present in AccurateRip database
Copy OK

Track 2

Filename D:\EAC\Debbie Gibson - 1987 - Out Of The Blue (2021 Deluxe) [CD-FLAC]\CD3\02 Out Of The Blue (Dub Version).wav

Pre-gap length 0:00:02.00

Peak level 96.6 %
Extraction speed 1.1 X
Track quality 100.0 %
Test CRC 95305CC1
Copy CRC 95305CC1
Track not present in AccurateRip database
Copy OK

Track 3

Filename D:\EAC\Debbie Gibson - 1987 - Out Of The Blue (2021 Deluxe) [CD-FLAC]\CD3\03 Shake Your Love (Live).wav

Pre-gap length 0:00:02.00

Peak level 96.6 %
Extraction speed 1.3 X
Track quality 100.0 %
Test CRC 943C60E4
Copy CRC 943C60E4
Track not present in AccurateRip database
Copy OK

Track 4

Filename D:\EAC\Debbie Gibson - 1987 - Out Of The Blue (2021 Deluxe) [CD-FLAC]\CD3\04 Foolish Beat (Instrumental).wav

Pre-gap length 0:00:01.98

Peak level 96.6 %
Extraction speed 1.4 X
Track quality 100.0 %
Test CRC F0E1DE3A
Copy CRC F0E1DE3A
Track not present in AccurateRip database
Copy OK

Track 5

Filename D:\EAC\Debbie Gibson - 1987 - Out Of The Blue (2021 Deluxe) [CD-FLAC]\CD3\05 Only In My Dreams (Dream House Mix).wav

Pre-gap length 0:00:01.98

Peak level 96.6 %
Extraction speed 1.7 X
Track quality 100.0 %
Test CRC 164613AE
Copy CRC 164613AE
Track not present in AccurateRip database
Copy OK

Track 6

Filename D:\EAC\Debbie Gibson - 1987 - Out Of The Blue (2021 Deluxe) [CD-FLAC]\CD3\06 Medley (Debbie Gibson Megamix).wav

Pre-gap length 0:00:02.00

Peak level 96.6 %
Extraction speed 1.8 X
Track quality 100.0 %
Test CRC 8E78F659
Copy CRC 8E78F659
Track not present in AccurateRip database
Copy OK

Track 7

Filename D:\EAC\Debbie Gibson - 1987 - Out Of The Blue (2021 Deluxe) [CD-FLAC]\CD3\07 Staying Together (C&C Remix).wav

Pre-gap length 0:00:01.98

Peak level 96.6 %
Extraction speed 1.9 X
Track quality 100.0 %
Test CRC E1DA1CF9
Copy CRC E1DA1CF9
Track not present in AccurateRip database
Copy OK

Track 8

Filename D:\EAC\Debbie Gibson - 1987 - Out Of The Blue (2021 Deluxe) [CD-FLAC]\CD3\08 Staying Together (Dub Version).wav

Pre-gap length 0:00:01.98

Peak level 96.6 %
Extraction speed 1.8 X
Track quality 99.9 %
Test CRC 91819928
Copy CRC 91819928
Track not present in AccurateRip database
Copy OK

Track 9

Filename D:\EAC\Debbie Gibson - 1987 - Out Of The Blue (2021 Deluxe) [CD-FLAC]\CD3\09 Staying Together (Bonus Beats).wav

Pre-gap length 0:00:01.98

Peak level 96.6 %
Extraction speed 1.6 X
Track quality 100.0 %
Test CRC 4DCAF335
Copy CRC 4DCAF335
Track not present in AccurateRip database
Copy OK

Track 10

Filename D:\EAC\Debbie Gibson - 1987 - Out Of The Blue (2021 Deluxe) [CD-FLAC]\CD3\10 Staying Together (LP Version W, Vocal Re-cut).wav

Pre-gap length 0:00:01.98

Peak level 96.6 %
Extraction speed 2.0 X
Track quality 100.0 %
Test CRC E38D67FC
Copy CRC E38D67FC
Track not present in AccurateRip database
Copy OK


None of the tracks are present in the AccurateRip database

No errors occurred

End of status report

–– CUETools DB Plugin V2.1.6

[CTDB TOCID: pjgiOhMgRzYZ_pDTcuBWdheV3kk-] disk not present in database
Submit result: pjgiOhMgRzYZ_pDTcuBWdheV3kk- has been uploaded


==== Log checksum ABC4536C9BFC662B97DF8B10E802280BC0B7E0BB5E2AD138299F139B357A42F7 ====

Thanks to the Original ripper !