Tags
Language
Tags

Dry Cleaning - New Long Leg (2021)

Posted By: delpotro
Dry Cleaning - New Long Leg (2021)

Dry Cleaning - New Long Leg (2021)
XLD Rip | FLAC (tracks+log+.cue) | 00:41:37 | 276 Mb
Indie Rock, Post-Punk, Female Vocal, Spoken Word | Label: 4AD

One of the standout albums of 2021. It's everything you expected and more. Simply amazing. Dry Cleaning release their debut studio album New Long Leg on 4AD. The 10-track long-player, which includes ‘Strong Feelings’ and last year’s single ‘Scratchcard Lanyard’, was recorded over two weeks last summer at Rockfield Studios in rural Wales with producer John Parish (PJ Harvey, Aldous Harding). Following on from their thrillingly taut 2019 EPs Boundary Road Snacks and Drinks and Sweet Princess, New Long Leg is more ambitious and complex, with Shaw’s spoken vocals tightly intertwined with the band’s restless instrumentals. With lyrics preoccupied by themes like dissociation, escapism, daydreaming, complicated feelings of love, anger, revenge, anxiety, the kitchen, lethargy, forgetfulness, and survival, Shaw says, “the title is ambiguous; a new long leg could be an expensive present or a growth or a table repair.”

Dry Cleaning was formed by friends Tom Dowse, Nick Buxton and Lewis Maynard after a karaoke party in 2017 inspired a collaboration. They wrote instrumentally to begin with until six months later Florence Shaw, a visual artist, university lecturer and picture researcher by day – with no prior musical experience – turned up to a band rehearsal armed with reams of her own collected writing and a copy of Michael Bernard Loggins’ Fears Of Your Life to read out over the music. Before long she was the group’s frontperson, contributing words of her own, and serving as the perfect foil to the band’s music.
Tracklist:
1. Scratchcard Lanyard (04:06)
2. Unsmart Lady (03:02)
3. Strong Feelings (04:04)
4. Leafy (03:08)
5. Her Hippo (04:38)
6. New Long Leg (04:12)
7. John Wick (03:26)
8. More Big Birds (04:07)
9. A.L.C (03:09)
10. Every Day Carry (07:38)

X Lossless Decoder version 20210101 (153.1)

XLD extraction logfile from 2021-04-14 13:04:31 +0200

Dry Cleaning / New Long Leg

Used drive : HL-DT-ST DVDRAM GP90EB70 (revision RC00)
Media type : Pressed CD

Ripper mode : XLD Secure Ripper
Disable audio cache : OK for the drive with a cache less than 1375KiB
Make use of C2 pointers : NO
Read offset correction : 6
Max retry count : 100
Gap status : Analyzed, Appended (except HTOA)

TOC of the extracted CD
Track | Start | Length | Start sector | End sector
––––––––––––––––––––––––––––-
1 | 00:00:00 | 04:07:02 | 0 | 18526
2 | 04:07:02 | 03:02:30 | 18527 | 32206
3 | 07:09:32 | 04:04:40 | 32207 | 50546
4 | 11:13:72 | 03:08:66 | 50547 | 64712
5 | 14:22:63 | 04:38:02 | 64713 | 85564
6 | 19:00:65 | 04:12:57 | 85565 | 104521
7 | 23:13:47 | 03:26:27 | 104522 | 119998
8 | 26:39:74 | 04:07:69 | 119999 | 138592
9 | 30:47:68 | 03:09:42 | 138593 | 152809
10 | 33:57:35 | 07:39:47 | 152810 | 187281

AccurateRip Summary
Disc not found in AccurateRip DB.

All Tracks
Album gain : -10.14 dB
Peak : 0.999969
Statistics
Read error : 0
Jitter error (maybe fixed) : 0
Retry sector count : 0
Damaged sector count : 0

Track 01
Filename : /Volumes/LaCieD2 1 DL/Dry Cleaning -2021- New Long Leg (FLAC)/01 - Scratchcard Laynard.flac
Pre-gap length : 00:02:00

Track gain : -11.02 dB
Peak : 0.999969
CRC32 hash (test run) : A20A9F86
CRC32 hash : A20A9F86
CRC32 hash (skip zero) : 33CE6B99
AccurateRip v1 signature : 088869FA
AccurateRip v2 signature : 42DB2C4A
->Track not present in AccurateRip database.
Statistics
Read error : 0
Jitter error (maybe fixed) : 0
Retry sector count : 0
Damaged sector count : 0

Track 02
Filename : /Volumes/LaCieD2 1 DL/Dry Cleaning -2021- New Long Leg (FLAC)/02 - Unsmart Lady.flac

Track gain : -10.94 dB
Peak : 0.999969
CRC32 hash (test run) : 5B64E36F
CRC32 hash : 5B64E36F
CRC32 hash (skip zero) : 4FF13F95
AccurateRip v1 signature : B91D4419
AccurateRip v2 signature : 6781236D
->Track not present in AccurateRip database.
Statistics
Read error : 0
Jitter error (maybe fixed) : 0
Retry sector count : 0
Damaged sector count : 0

Track 03
Filename : /Volumes/LaCieD2 1 DL/Dry Cleaning -2021- New Long Leg (FLAC)/03 - Strong Feelings.flac

Track gain : -9.66 dB
Peak : 0.999969
CRC32 hash (test run) : 0597AD63
CRC32 hash : 0597AD63
CRC32 hash (skip zero) : 04B30932
AccurateRip v1 signature : E29B9F63
AccurateRip v2 signature : BBB8F804
->Track not present in AccurateRip database.
Statistics
Read error : 0
Jitter error (maybe fixed) : 0
Retry sector count : 0
Damaged sector count : 0

Track 04
Filename : /Volumes/LaCieD2 1 DL/Dry Cleaning -2021- New Long Leg (FLAC)/04 - Leafy.flac

Track gain : -9.47 dB
Peak : 0.999969
CRC32 hash (test run) : 2087F1B1
CRC32 hash : 2087F1B1
CRC32 hash (skip zero) : 9835745A
AccurateRip v1 signature : 0291BA37
AccurateRip v2 signature : B0ABBCD7
->Track not present in AccurateRip database.
Statistics
Read error : 0
Jitter error (maybe fixed) : 0
Retry sector count : 0
Damaged sector count : 0

Track 05
Filename : /Volumes/LaCieD2 1 DL/Dry Cleaning -2021- New Long Leg (FLAC)/05 - Her Hippo.flac

Track gain : -11.52 dB
Peak : 0.999969
CRC32 hash (test run) : 3035D7BD
CRC32 hash : 3035D7BD
CRC32 hash (skip zero) : A4403845
AccurateRip v1 signature : 83F90D51
AccurateRip v2 signature : 94AC23E0
->Track not present in AccurateRip database.
Statistics
Read error : 0
Jitter error (maybe fixed) : 0
Retry sector count : 0
Damaged sector count : 0

Track 06
Filename : /Volumes/LaCieD2 1 DL/Dry Cleaning -2021- New Long Leg (FLAC)/06 - New Long Leg.flac

Track gain : -9.84 dB
Peak : 0.999969
CRC32 hash (test run) : 1D9C67AA
CRC32 hash : 1D9C67AA
CRC32 hash (skip zero) : 60516AF7
AccurateRip v1 signature : 8D37D420
AccurateRip v2 signature : B7922C90
->Track not present in AccurateRip database.
Statistics
Read error : 0
Jitter error (maybe fixed) : 0
Retry sector count : 0
Damaged sector count : 0

Track 07
Filename : /Volumes/LaCieD2 1 DL/Dry Cleaning -2021- New Long Leg (FLAC)/07 - John Wick.flac

Track gain : -10.06 dB
Peak : 0.999969
CRC32 hash (test run) : DB2C41DD
CRC32 hash : DB2C41DD
CRC32 hash (skip zero) : 90E19B0D
AccurateRip v1 signature : 6B743270
AccurateRip v2 signature : 663E8B40
->Track not present in AccurateRip database.
Statistics
Read error : 0
Jitter error (maybe fixed) : 0
Retry sector count : 0
Damaged sector count : 0

Track 08
Filename : /Volumes/LaCieD2 1 DL/Dry Cleaning -2021- New Long Leg (FLAC)/08 - More Big Birds.flac

Track gain : -9.66 dB
Peak : 0.999969
CRC32 hash (test run) : 43229185
CRC32 hash : 43229185
CRC32 hash (skip zero) : A3319B63
AccurateRip v1 signature : 13D2162B
AccurateRip v2 signature : D2CB1FBA
->Track not present in AccurateRip database.
Statistics
Read error : 0
Jitter error (maybe fixed) : 0
Retry sector count : 0
Damaged sector count : 0

Track 09
Filename : /Volumes/LaCieD2 1 DL/Dry Cleaning -2021- New Long Leg (FLAC)/09 - A.L.C..flac

Track gain : -8.82 dB
Peak : 0.999969
CRC32 hash (test run) : 12F3C4AB
CRC32 hash : 12F3C4AB
CRC32 hash (skip zero) : B565E652
AccurateRip v1 signature : 35CD8136
AccurateRip v2 signature : 2578D500
->Track not present in AccurateRip database.
Statistics
Read error : 0
Jitter error (maybe fixed) : 0
Retry sector count : 0
Damaged sector count : 0

Track 10
Filename : /Volumes/LaCieD2 1 DL/Dry Cleaning -2021- New Long Leg (FLAC)/10 - Every Day Carry.flac

Track gain : -9.59 dB
Peak : 0.999969
CRC32 hash (test run) : 9BCD73DB
CRC32 hash : 9BCD73DB
CRC32 hash (skip zero) : E06E2D7A
AccurateRip v1 signature : 8BCEE8E1
AccurateRip v2 signature : 0443F6DD
->Track not present in AccurateRip database.
Statistics
Read error : 0
Jitter error (maybe fixed) : 0
Retry sector count : 0
Damaged sector count : 0

No errors occurred

End of status report

––-BEGIN XLD SIGNATURE––-
lvXMhoW5KVgGCwILKoZedoD6fgmIaZTYValIypAgwh8Wa0qstCO2U3YSPrEvm9TZkyGQurp0tAU69wcbnt3Z0WN5KP3rPTyIEtd79pS
––-END XLD SIGNATURE––-

Thanks to the Original ripper !