Subcategories

Eric Clapton - Give Me Strength: The '74/'75 Recordings (2013)

Posted By: delpotro
Eric Clapton - Give Me Strength: The '74/'75 Recordings (2013)

Eric Clapton - Give Me Strength: The '74/'75 Recordings (2013)
EAC Rip | FLAC (image+log+.cue) - 1,8 Gb | MP3 CBR 320 kbps - 747 Mb | Scans - 435 Mb | 05:26:27
Pop Rock, Blues Rock | Label: Polydor Records

Give Me Strength: The ’74/’75 Recordings is a 5CD+ Blu-ray Audio box set that celebrates the period between April 1974 and June 1975 when Clapton produced the studio albums 461 Ocean Boulevard and There’s One In Every Crowd, as well as the live double set E.C. Was Here.

All three of those albums are included in this new box in remastered, expanded form, and all include previously unreleased session outtakes or unheard live performances.

461 Ocean Boulevard includes four previously released outtakes (including a couple of versions of Getting Acquainted), whilst amongst the bonus offerings on There’s One In Every Crowd are two unreleased session tracks Burial and Fools Like Me, and both sides of the Knockin’ On Heaven’s Door single.

E.C. Was Here is not only remastered, but REMIXED, and expanded across two CDs, with numerous unissued extras such as versions of Layla, Crossroads and Little Wing.

The fifth CD is taken up with Clapton’s sessions with blues guitarist and singer Freddie King. Originally recorded for King’s Burglar album, four tracks are featured here, including a previously unreleased 22-minute version of Gambling Woman Blues.
Tracklist:
Disc 1 (01:19:28)
1. Motherless Children (04:53)
2. Give Me Strength (02:54)
3. Willie And The Hand Jive (03:32)
4. Get Ready (03:47)
5. I Shot The Sheriff (04:27)
6. I Can't Hold Out (04:14)
7. Please Be With Me (03:26)
8. Let It Grow (05:01)
9. Steady Rollin' Man (03:15)
10. Mainline Florida (04:08)
11. Ain't That Lovin' You (05:33)
12. Meet Me (Down At The Bottom) (06:58)
13. Lonesone Road Blues (Walkin' Down The Road) (05:16)
14. Getting Acquainted (06:27)
15. Getting Acquainted 2 (Too Late) (04:19)
16. Eric After Hours Blues (04:24)
17. Please Be With Me (Acoustic) (03:25)
18. Give Me Strength (Dobro 1) (03:29)

Disc 2 (01:11:01)
1. We've Been Told (Jesus Is Coming Soon) (04:29)
2. Swing Low Sweet Chariot (03:33)
3. Little Rachel (04:07)
4. Don't Blame Me (03:35)
5. The Sky Is Crying (04:00)
6. Singin' The Blues (03:25)
7. Better Make It Through Today (04:24)
8. Pretty Blue Eyes (04:48)
9. High (03:32)
10. Opposites (04:50)
11. Burial (04:02)
12. Whatcha Gonna Do (02:44)
13. I Found A Love (03:41)
14. (When Things Go Wrong) It Hurts Me Too (05:48)
15. Fools Like Me (05:09)
16. Knockin' On Heaven's Door (04:24)
17. Someone Like You (04:30)

Disc 3 (01:04:09)
1. Smile (03:35)
2. Have You Ever Loved A Woman (07:41)
3. Presence Of The Lord (08:47)
4. Crossroads (04:38)
5. I Shot The Sheriff (07:35)
6. Layla (06:00)
7. Little Wing (08:57)
8. Can’t Find My Way Home (05:18)
9. Driftin’ Blues / Ramblin’ On My Mind (11:38)

Disc 4 (01:16:10)
1. Ramblin’ On My Mind / Have You Ever Loved A Woman (08:15)
2. Willie And The Hand Jive / Get Ready (11:27)
3. The Sky Is Crying / Have You Ever Loved A Woman / Ramblin’ On My Mind (07:25)
4. Badge (10:43)
5. Driftin’ Blues (06:55)
6. Eyesight To The Blind / Why Does Love Got To Be So Sad (23:50)
7. Further On Up The Road (07:35)

Disc 5 (35:28)
1. Sugar Sweet (04:06)
2. TV Mama (04:06)
3. Boogie Funk (05:32)
4. Gambling Woman Blues (21:44)

Exact Audio Copy V1.0 beta 3 from 29. August 2011

EAC extraction logfile from 2. January 2014, 13:48

Eric Clapton / Give Me Strength. The `74/'75 Studio Recordings CD1 - 461 Ocean Boulevard

Used drive : ATAPI iHAS124 B Adapter: 2 ID: 0

Read mode : Secure
Utilize accurate stream : Yes
Defeat audio cache : Yes
Make use of C2 pointers : No

Read offset correction : 6
Overread into Lead-In and Lead-Out : No
Fill up missing offset samples with silence : Yes
Delete leading and trailing silent blocks : No
Null samples used in CRC calculations : Yes
Used interface : Native Win32 interface for Win NT & 2000

Used output format : User Defined Encoder
Selected bitrate : 1024 kBit/s
Quality : High
Add ID3 tag : No
Command line compressor : C:\Program Files (x86)\Exact Audio Copy\FLAC\FLAC.EXE
Additional command line options : -8 -V -T "ARTIST=%artist%" -T "TITLE=%title%" -T "ALBUM=%albumtitle%" -T "DATE=%year%" -T "TRACKNUMBER=%tracknr%" -T "GENRE=%genre%" -T "PERFORMER=%albuminterpret%" -T "COMPOSER=%composer%" %haslyrics%–tag-from-file=LYRICS="%lyricsfile%"%haslyrics% -T "ALBUMARTIST=%albumartist%" -T "DISCNUMBER=%cdnumber%" -T "TOTALDISCS=%totalcds%" -T "TOTALTRACKS=%numtracks%" -T "COMMENT=%comment%" %source% -o %dest%


TOC of the extracted CD

Track | Start | Length | Start sector | End sector
––––––––––––––––––––––––––––-
1 | 0:00.00 | 4:53.31 | 0 | 22005
2 | 4:53.31 | 2:53.62 | 22006 | 35042
3 | 7:47.18 | 3:31.55 | 35043 | 50922
4 | 11:18.73 | 3:47.41 | 50923 | 67988
5 | 15:06.39 | 4:26.52 | 67989 | 87990
6 | 19:33.16 | 4:14.23 | 87991 | 107063
7 | 23:47.39 | 3:26.21 | 107064 | 122534
8 | 27:13.60 | 5:00.65 | 122535 | 145099
9 | 32:14.50 | 3:14.58 | 145100 | 159707
10 | 35:29.33 | 4:08.25 | 159708 | 178332
11 | 39:37.58 | 5:32.74 | 178333 | 203306
12 | 45:10.57 | 6:58.02 | 203307 | 234658
13 | 52:08.59 | 5:16.37 | 234659 | 258395
14 | 57:25.21 | 6:27.47 | 258396 | 287467
15 | 63:52.68 | 4:19.40 | 287468 | 306932
16 | 68:12.33 | 4:24.02 | 306933 | 326734
17 | 72:36.35 | 3:25.44 | 326735 | 342153
18 | 76:02.04 | 3:29.41 | 342154 | 357869


Range status and errors

Selected range

Filename G:\CD\Eric Clapton - Give Me Strength CD1.wav

Peak level 100.0 %
Extraction speed 6.9 X
Range quality 100.0 %
Test CRC 689ED2DE
Copy CRC 689ED2DE
Copy OK

No errors occurred


AccurateRip summary

Track 1 not present in database
Track 2 not present in database
Track 3 not present in database
Track 4 not present in database
Track 5 not present in database
Track 6 not present in database
Track 7 not present in database
Track 8 not present in database
Track 9 not present in database
Track 10 not present in database
Track 11 not present in database
Track 12 not present in database
Track 13 not present in database
Track 14 not present in database
Track 15 not present in database
Track 16 not present in database
Track 17 not present in database
Track 18 not present in database

None of the tracks are present in the AccurateRip database

End of status report

==== Log checksum 661E7284065186207D81F835D74FCF1B9ABB8F78D251173ED560D34DF9DC43AC ====
Exact Audio Copy V1.0 beta 3 from 29. August 2011

EAC extraction logfile from 2. January 2014, 17:37

Eric Clapton / Give Me Strength. The `74/'75 Studio Recordings CD2 - There's One in Every Crowd

Used drive : ATAPI iHAS124 B Adapter: 2 ID: 0

Read mode : Secure
Utilize accurate stream : Yes
Defeat audio cache : Yes
Make use of C2 pointers : No

Read offset correction : 6
Overread into Lead-In and Lead-Out : No
Fill up missing offset samples with silence : Yes
Delete leading and trailing silent blocks : No
Null samples used in CRC calculations : Yes
Used interface : Native Win32 interface for Win NT & 2000

Used output format : User Defined Encoder
Selected bitrate : 1024 kBit/s
Quality : High
Add ID3 tag : No
Command line compressor : C:\Program Files (x86)\Exact Audio Copy\FLAC\FLAC.EXE
Additional command line options : -8 -V -T "ARTIST=%artist%" -T "TITLE=%title%" -T "ALBUM=%albumtitle%" -T "DATE=%year%" -T "TRACKNUMBER=%tracknr%" -T "GENRE=%genre%" -T "PERFORMER=%albuminterpret%" -T "COMPOSER=%composer%" %haslyrics%–tag-from-file=LYRICS="%lyricsfile%"%haslyrics% -T "ALBUMARTIST=%albumartist%" -T "DISCNUMBER=%cdnumber%" -T "TOTALDISCS=%totalcds%" -T "TOTALTRACKS=%numtracks%" -T "COMMENT=%comment%" %source% -o %dest%


TOC of the extracted CD

Track | Start | Length | Start sector | End sector
––––––––––––––––––––––––––––-
1 | 0:00.00 | 4:28.74 | 0 | 20173
2 | 4:28.74 | 3:33.37 | 20174 | 36185
3 | 8:02.36 | 4:06.73 | 36186 | 54708
4 | 12:09.34 | 3:35.46 | 54709 | 70879
5 | 15:45.05 | 4:00.27 | 70880 | 88906
6 | 19:45.32 | 3:25.24 | 88907 | 104305
7 | 23:10.56 | 4:24.15 | 104306 | 124120
8 | 27:34.71 | 4:48.06 | 124121 | 145726
9 | 32:23.02 | 3:32.08 | 145727 | 161634
10 | 35:55.10 | 4:49.60 | 161635 | 183369
11 | 40:44.70 | 4:02.33 | 183370 | 201552
12 | 44:47.28 | 2:44.46 | 201553 | 213898
13 | 47:31.74 | 3:40.59 | 213899 | 230457
14 | 51:12.58 | 5:47.54 | 230458 | 256536
15 | 57:00.37 | 5:09.39 | 256537 | 279750
16 | 62:10.01 | 4:24.06 | 279751 | 299556
17 | 66:34.07 | 4:29.72 | 299557 | 319803


Range status and errors

Selected range

Filename G:\CD\Eric Clapton - Give Me Strength CD2.wav

Peak level 100.0 %
Extraction speed 6.7 X
Range quality 100.0 %
Test CRC E5BC9F1A
Copy CRC E5BC9F1A
Copy OK

No errors occurred


AccurateRip summary

Track 1 not present in database
Track 2 not present in database
Track 3 not present in database
Track 4 not present in database
Track 5 not present in database
Track 6 not present in database
Track 7 not present in database
Track 8 not present in database
Track 9 not present in database
Track 10 not present in database
Track 11 not present in database
Track 12 not present in database
Track 13 not present in database
Track 14 not present in database
Track 15 not present in database
Track 16 not present in database
Track 17 not present in database

None of the tracks are present in the AccurateRip database

End of status report

==== Log checksum 8D077844B93AA920F0C10CB137D07D8325C09B160D2E0969DFA584B4905BED32 ====
Exact Audio Copy V1.0 beta 3 from 29. August 2011

EAC extraction logfile from 2. January 2014, 21:34

Eric Clapton / Give Me Strength. The '74/'75 Recordings CD3 - E.C. Was Here Part1

Used drive : ATAPI iHAS124 B Adapter: 2 ID: 0

Read mode : Secure
Utilize accurate stream : Yes
Defeat audio cache : Yes
Make use of C2 pointers : No

Read offset correction : 6
Overread into Lead-In and Lead-Out : No
Fill up missing offset samples with silence : Yes
Delete leading and trailing silent blocks : No
Null samples used in CRC calculations : Yes
Used interface : Native Win32 interface for Win NT & 2000

Used output format : User Defined Encoder
Selected bitrate : 1024 kBit/s
Quality : High
Add ID3 tag : No
Command line compressor : C:\Program Files (x86)\Exact Audio Copy\FLAC\FLAC.EXE
Additional command line options : -8 -V -T "ARTIST=%artist%" -T "TITLE=%title%" -T "ALBUM=%albumtitle%" -T "DATE=%year%" -T "TRACKNUMBER=%tracknr%" -T "GENRE=%genre%" -T "PERFORMER=%albuminterpret%" -T "COMPOSER=%composer%" %haslyrics%–tag-from-file=LYRICS="%lyricsfile%"%haslyrics% -T "ALBUMARTIST=%albumartist%" -T "DISCNUMBER=%cdnumber%" -T "TOTALDISCS=%totalcds%" -T "TOTALTRACKS=%numtracks%" -T "COMMENT=%comment%" %source% -o %dest%


TOC of the extracted CD

Track | Start | Length | Start sector | End sector
––––––––––––––––––––––––––––-
1 | 0:00.00 | 3:35.38 | 0 | 16162
2 | 3:35.38 | 7:40.63 | 16163 | 50725
3 | 11:16.26 | 8:47.07 | 50726 | 90257
4 | 20:03.33 | 4:38.43 | 90258 | 111150
5 | 24:42.01 | 7:35.04 | 111151 | 145279
6 | 32:17.05 | 6:00.26 | 145280 | 172305
7 | 38:17.31 | 8:57.05 | 172306 | 212585
8 | 47:14.36 | 5:18.26 | 212586 | 236461
9 | 52:32.62 | 11:38.07 | 236462 | 288818


Range status and errors

Selected range

Filename G:\CD\Eric Clapton - Give Me Strength CD3.wav

Peak level 100.0 %
Extraction speed 6.1 X
Range quality 100.0 %
Test CRC 5AC652BE
Copy CRC 5AC652BE
Copy OK

No errors occurred


AccurateRip summary

Track 1 not present in database
Track 2 not present in database
Track 3 not present in database
Track 4 not present in database
Track 5 not present in database
Track 6 not present in database
Track 7 not present in database
Track 8 not present in database
Track 9 not present in database

None of the tracks are present in the AccurateRip database

End of status report

==== Log checksum C32B15CA3E316EA95D5F52B1BED948DAB26A0F53C47354B539046FB6865E56B3 ====
Exact Audio Copy V1.0 beta 3 from 29. August 2011

EAC extraction logfile from 2. January 2014, 20:29

Eric Clapton / Give Me Strength. The '74/75 Recordings CD4 - E.C. Was Here Part2

Used drive : ATAPI iHAS124 B Adapter: 2 ID: 0

Read mode : Secure
Utilize accurate stream : Yes
Defeat audio cache : Yes
Make use of C2 pointers : No

Read offset correction : 6
Overread into Lead-In and Lead-Out : No
Fill up missing offset samples with silence : Yes
Delete leading and trailing silent blocks : No
Null samples used in CRC calculations : Yes
Used interface : Native Win32 interface for Win NT & 2000

Used output format : User Defined Encoder
Selected bitrate : 1024 kBit/s
Quality : High
Add ID3 tag : No
Command line compressor : C:\Program Files (x86)\Exact Audio Copy\FLAC\FLAC.EXE
Additional command line options : -8 -V -T "ARTIST=%artist%" -T "TITLE=%title%" -T "ALBUM=%albumtitle%" -T "DATE=%year%" -T "TRACKNUMBER=%tracknr%" -T "GENRE=%genre%" -T "PERFORMER=%albuminterpret%" -T "COMPOSER=%composer%" %haslyrics%–tag-from-file=LYRICS="%lyricsfile%"%haslyrics% -T "ALBUMARTIST=%albumartist%" -T "DISCNUMBER=%cdnumber%" -T "TOTALDISCS=%totalcds%" -T "TOTALTRACKS=%numtracks%" -T "COMMENT=%comment%" %source% -o %dest%


TOC of the extracted CD

Track | Start | Length | Start sector | End sector
––––––––––––––––––––––––––––-
1 | 0:00.00 | 8:15.14 | 0 | 37138
2 | 8:15.14 | 11:27.24 | 37139 | 88687
3 | 19:42.38 | 7:25.47 | 88688 | 122109
4 | 27:08.10 | 10:43.44 | 122110 | 170378
5 | 37:51.54 | 6:54.65 | 170379 | 201493
6 | 44:46.44 | 23:50.17 | 201494 | 308760
7 | 68:36.61 | 7:35.06 | 308761 | 342891


Range status and errors

Selected range

Filename G:\CD\Eric Clapton - Give Me Strength CD4.wav

Peak level 100.0 %
Extraction speed 6.7 X
Range quality 100.0 %
Test CRC A0CE2B93
Copy CRC A0CE2B93
Copy OK

No errors occurred


AccurateRip summary

Track 1 not present in database
Track 2 not present in database
Track 3 not present in database
Track 4 not present in database
Track 5 not present in database
Track 6 not present in database
Track 7 not present in database

None of the tracks are present in the AccurateRip database

End of status report

==== Log checksum E0D51173CC816F49DF4A8E7077171D3D1CD785CAF167B84408F97F03983D434C ====
Exact Audio Copy V1.0 beta 3 from 29. August 2011

EAC extraction logfile from 2. January 2014, 22:18

Eric Clapton With Freddie King / Give Me Strength. The `74/'75 Studio Recordings CD5 - The Freddie King Criteria Studios Sessions

Used drive : ATAPI iHAS124 B Adapter: 2 ID: 0

Read mode : Secure
Utilize accurate stream : Yes
Defeat audio cache : Yes
Make use of C2 pointers : No

Read offset correction : 6
Overread into Lead-In and Lead-Out : No
Fill up missing offset samples with silence : Yes
Delete leading and trailing silent blocks : No
Null samples used in CRC calculations : Yes
Used interface : Native Win32 interface for Win NT & 2000

Used output format : User Defined Encoder
Selected bitrate : 1024 kBit/s
Quality : High
Add ID3 tag : No
Command line compressor : C:\Program Files (x86)\Exact Audio Copy\FLAC\FLAC.EXE
Additional command line options : -8 -V -T "ARTIST=%artist%" -T "TITLE=%title%" -T "ALBUM=%albumtitle%" -T "DATE=%year%" -T "TRACKNUMBER=%tracknr%" -T "GENRE=%genre%" -T "PERFORMER=%albuminterpret%" -T "COMPOSER=%composer%" %haslyrics%–tag-from-file=LYRICS="%lyricsfile%"%haslyrics% -T "ALBUMARTIST=%albumartist%" -T "DISCNUMBER=%cdnumber%" -T "TOTALDISCS=%totalcds%" -T "TOTALTRACKS=%numtracks%" -T "COMMENT=%comment%" %source% -o %dest%


TOC of the extracted CD

Track | Start | Length | Start sector | End sector
––––––––––––––––––––––––––––-
1 | 0:00.00 | 4:06.01 | 0 | 18450
2 | 4:06.01 | 4:06.42 | 18451 | 36942
3 | 8:12.43 | 5:32.03 | 36943 | 61845
4 | 13:44.46 | 21:44.33 | 61846 | 159678


Range status and errors

Selected range

Filename G:\CD\Eric Clapton With Freddie King - Give Me Strength CD5.wav

Peak level 100.0 %
Extraction speed 5.2 X
Range quality 100.0 %
Test CRC B9299DD2
Copy CRC B9299DD2
Copy OK

No errors occurred


AccurateRip summary

Track 1 not present in database
Track 2 not present in database
Track 3 not present in database
Track 4 not present in database

None of the tracks are present in the AccurateRip database

End of status report

==== Log checksum 2C46278E869B671051345858DC7D39A17D25E90601B723AA3B2A2C53F8F7D2D0 ====

Thanks to the Original ripper !