Subcategories
Tags
Language
Tags

Franco Battiato - Universi Paralleli (2018)

Posted By: delpotro
Franco Battiato - Universi Paralleli (2018)

Franco Battiato - Universi Paralleli (2018)
EAC Rip | FLAC (tracks+log+.cue) - 1,6 Gb | MP3 CBR 320 kbps - 591 Mb | Covers - 4 Mb| 04:18:15
Pop, Pop Rock, Electronic | Label: RCA Records

Franco Battiato's new collection that traces the history of this artist in 63 tracks was released in 2018 via RCA Records.

Four discs for four major themes and repertoires: the first disc narrates the great pieces in their live versions from "Strani giorni" to "La Cura" to "Centro di gravità permanente" to "La stagione dell’amore". The second disc is dedicated to the covers of Italian and foreign songs made by the artist such as "Hey Joe" or "Impressioni di Settembre". The third focuses on the very rich production of the 2000s which includes pieces such as "Tra sesso e castità" or "Sarcophagia". The fourth includes the pieces closest to the progressive rock and experimental world of the seventies taken from his records such as Fetus, Pollution, Sulle Corde di Aries.

Artist Biography by Ned Raggett
Longtime Italian superstar Franco Battiato developed from a prog-psych singer/songwriter in the early '70s to one of the biggest pop stars in Europe, even as he pursued his recording interests in a variety of genres including but not limited to pop electronic, and opera in which rock and classical music connect. In addition, he is a visual artist and filmmaker who works under the pseudonym Süphan Barzani to keep his film work separate from his musical persona.

Born in 1945 in the village of Ionia in Sicily and moving first to Rome, and then Milan in 1964, Battiato's initial stabs into musical work in the '60s amounted to the single "La Torre," which he performed on TV. He did better at radio with the romantic follow-up "È L'amore." But after more covers of pop songs went nowhere, he met the experimental musician Juri Camisasca in 1970 and collaborated with Osage Tribe, an Italian psychedelic-progressive rock band. As a solo artist, he released the science-fiction single "La Convenzione" (The Convention), one of the finest Italian prog rock songs of the '70s. He began recording a series of albums for the underground label Bla Bla. Starting with Fetus in 1971 (named one of the most important records of the decade by Julian Cope) and concluding with L'Egitto Prima Delle Sabbie (Egypt Before the Sands) in 1978, he staked out his own claim in the high-fermented world of Italian prog rock. Musically accomplished if sometimes poorly recorded, and unafraid to indulge in more than a little whimsy, these records ran the gamut from extreme experimentalism to more song-focused efforts; the two most notable were 1972's Pollution and 1973's Sulle Corde Di Aries (On the Ropes of Aries). Compared to other bands like Area and PFM, however, Battiato and his band were cult figures loved more abroad than at home. They opened for Brian Eno and Nico in France and Germany and were welcomed by audiences. Battiato's often extravagant appearance at this time made him something of an Italian Peter Gabriel, while his lyrics eschewed then-fashionable Maoist/terrorist posing in favor of a deep but humorous combination of Asian philosophies and literary reflection.

Switching labels to EMI's Italian branch, his fortunes in the Italian improved (also in an uncanny parallel with Gabriel) in the '80s, specifically with 1981's La Voce del Padrone (The Voice of the Master). Embracing a more direct, synth-pop style – not too surprising given that keyboards were always his primary musical instrument – Battiato found himself rewarded with an Italian smash, enabling his star to rise both at home and elsewhere in Europe. Since then, while he has not specifically revisited that style in full, but has continued to explore any number of musical directions and approaches in the present day. His first opera, Genisi, was released in 1987. A number of collaborations with orchestras and multimedia touring followed – notably a visit with Virtuosi Italiani in 1993 to Baghdad to collaborate with Iraq's national orchestra – as well as works commissioned by his native Sicily to celebrate that island's rich history. His second opera, Gilgamesh, appeared in 1992, followed almost immediately by Messa Arcaica. In 1994, Battiato began collaborating with Sicilian philosopher Manlio Sgalambro, who would eventually write almost all the lyrics on his following albums. After the tentative L'ombrello e la Macchina da Cucire of 1995, the duo published what is considered their masterpiece, L'imboscata, in 1996, containing the romantic hit "La Cura" (The Care), which was chosen as best Italian song of the year. 1998's Gommalacca shocked fans with its reliance on hard rock and even metal. It was followed by the softer, more focused Fleurs, a chart-topping smash. At the turn of the millennium, Battiato issued Ferro Battuto (2000) and the opera Campi Magnetici, followed by the rock album Dieci Stratagemmi in 2004. All three of these recordings used conventional pop and rock forms as jumping-off points for sometimes radical experimentation.

In 2003, Battiato released his first feature film, Perduto Amor, under the Süphan Barzani moniker. Battiato (under his own name) also composed the soundtrack. The movie won the Silver Ribbon for best new director. His second cinematic effort, Musikanten, a rather experimental work about Beethoven's last four years of life, didn't fare as well with critics. In fact, it was panned as much as for casting Chilean director Alejandro Jodorowsky in the lead role as the strange pace of the narrative. His next two films, Niente è Come Sembra (2007) and the controversial Auguri Don Gesualdo (2010), both received critical acclaim and did well at art house box offices. Between the two, Battiato released Fleurs 2 in 2008; the sequel attained triple-platinum status in Italy. The following year, Inneres Auge: Il Tutto è Più Della Somma Delle Sue Parti, another experimental pop album, topped the charts and achieved platinum sales status. In 2011, Battiato issued another opera, Telesio, inspired by the work of the Cosenza philosopher Bernardino Telesio, one of Italy's greatest naturalists from the 16th century. It was commissioned by the city of Cosenza on the occasion of the 500th anniversary of the birth of the opera's namesake and was performed at the Teatro Rendano of Cosenza on May 6, 7, and 8, 2011, and released at the end of the year.

In November of 2012, Battiato accepted an offer from newly elected Sicilian regional president Rosario Crocetta to become the new Regional Minister for Tourism and Culture, and announced he would not take a salary. Unfortunately, he was dismissed from the position soon after for controversial comments about Parliament.

Telesis Sesamo was released during his government tenure. The following year, Battiato collaborated with Antony Hegarty (now Anohni) on Del Suo Veloce Volo. In 2014, another collaboration was released, this one with Italian sound engineer Pinaxa (Pino Pischetola) and titled Joe Patti's Experimental Group. In 2016, he cut a live album with singer/songwriter Alice (Carla Bissi, a longtime friend, contemporary, and occasional collaborator since the '80s) and Tuscany's Ensemble Symphony Orchestra for Universal. Since that time, Battiato has overseen a comprehensive remastering and reissue program of his catalog. In 2019, after releasing Torneremo ancora with the Royal Philharmonic, he announced that he would be retiring from music for health reasons.
Tracklist:
Disc 1 (01:05:11)
1. Franco Battiato – Atlantide (Live 2003) (03:10)
2. Franco Battiato – Strani Giorni (Live 2003) (03:44)
3. Franco Battiato – Shock In My Town (Live 2003) (03:56)
4. Franco Battiato – E ti vengo a cercare (Live 2003) (03:46)
5. Franco Battiato – La cura (Live 2003) (04:07)
6. Franco Battiato – Mesopotamia (Live 2003) (04:21)
7. Franco Battiato – Lode All'Inviolato (Live 2003) (03:10)
8. Franco Battiato – Stranizza D'Amuri (Live 2003) (02:13)
9. Franco Battiato – La stagione dell'amore (Live 2003) (02:50)
10. Franco Battiato – Povera Patria (Live 2003) (03:46)
11. Franco Battiato – Medley Last Summer Dance (Live 2003) (08:23)
12. Franco Battiato – L'animale (Live 2003) (02:54)
13. Franco Battiato – L'era del cinghiale bianco (Live 2003) (03:02)
14. Franco Battiato – Cuccuruccuccu (Live 2003) (04:11)
15. Franco Battiato – Centro di gravità permanente (Live 2003) (04:15)
16. Franco Battiato – Auto Da Fé (live) (03:56)
17. Franco Battiato – Voglio vederti danzare (live) (03:27)

Disc 2 (45:54)
1. Franco Battiato – Insieme a te non ci sto piu' (03:12)
2. Franco Battiato – Perduto amore (03:17)
3. Franco Battiato – Il cielo in una stanza (03:11)
4. Franco Battiato – Se mai (03:06)
5. Franco Battiato – Ritornerai (03:25)
6. Franco Battiato – Col tempo sai (03:34)
7. Franco Battiato – Impressioni di settembre (03:40)
8. Franco Battiato – Le tue radici (03:20)
9. Franco Battiato – Hey Joe (03:34)
10. Franco Battiato – Se tu sapessi (03:17)
11. Franco Battiato – Sigillata con un bacio (Sealed with a Kiss) [Italian Version] (03:20)
12. Franco Battiato – Come un sigillo (03:04)
13. Franco Battiato – Beim schlafengehen (02:54)
14. Manlio Sgalambro – La Mer (03:00)

Disc 3 (01:14:49)
1. Franco Battiato – Prologo (02:26)
2. Franco Battiato – Running Against The Grain (03:42)
3. Franco Battiato – Bist Du Bei Mir (04:19)
4. Franco Battiato – La quiete dopo un addio (03:54)
5. Franco Battiato – Personalità Empirica (03:34)
6. Franco Battiato – Il cammino interminabile (03:44)
7. Franco Battiato – Lontananze D'Azzurro (03:29)
8. Franco Battiato – Sarcofagia (03:42)
9. Franco Battiato – Scherzo in minore (03:21)
10. Franco Battiato – Il Potere Del Canto (04:03)
11. Franco Battiato – Tra sesso e castità (03:25)
12. Franco Battiato – Le aquile non volano a stormi (03:26)
13. Franco Battiato – Ermeneutica (03:34)
14. Franco Battiato – Fortezza Bastiani (03:20)
15. Franco Battiato – Odore di polvere da sparo (03:28)
16. Franco Battiato – I'm that (03:32)
17. Franco Battiato – Conforto alla vita (03:22)
18. Franco Battiato – 23 coppie di cromosomi (03:33)
19. Franco Battiato – Apparenza e realtà (03:38)
20. Franco Battiato – La porta dello spavento supremo (03:48)
21. Franco Battiato – L'incantesimo (Live 2003) (03:29)

Disc 4 (01:11:18)
1. Franco Battiato – Beta (07:24)
2. Franco Battiato – Plancton (05:03)
3. Franco Battiato – Fetus (02:36)
4. Franco Battiato – Fenomenologia (03:51)
5. Franco Battiato – Meccanica (06:11)
6. Franco Battiato – Aries (05:27)
7. Franco Battiato – Aria di rivoluzione (05:02)
8. Franco Battiato – Da oriente a occidente (06:33)
9. Franco Battiato – No U Turn (04:53)
10. Franco Battiato – Propiedad Prohibida (05:22)
11. Franco Battiato – Cafè Table Musik (18:56)

Exact Audio Copy V1.3 from 2. September 2016

EAC extraction logfile from 29. September 2018, 0:11

Franco Battiato / Universi paralleli (cd1)

Used drive : ASUS BC-12D2HT Adapter: 0 ID: 0

Read mode : Secure
Utilize accurate stream : Yes
Defeat audio cache : Yes
Make use of C2 pointers : No

Read offset correction : 6
Overread into Lead-In and Lead-Out : No
Fill up missing offset samples with silence : Yes
Delete leading and trailing silent blocks : No
Null samples used in CRC calculations : Yes
Used interface : Installed external ASPI interface
Gap handling : Appended to previous track

Used output format : User Defined Encoder
Selected bitrate : 1024 kBit/s
Quality : High
Add ID3 tag : No
Command line compressor : C:\Program Files (x86)\Exact Audio Copy\FLAC\FLAC.EXE
Additional command line options : -8 -V -T "Artist=%artist%" -T "Title=%title%" -T "Album=%albumtitle%" -T "DATE=%year%" -T "TRACKNUMBER=%tracknr%" -T "Genre=%genre%" -T "ALBUMARTIST=%albumartist%" -T "ALBUM ARTIST=%albumartist%" -T "COMMENT=EAC Secure Mode, Test & Copy, AccurateRip, FLAC -8" %source%


TOC of the extracted CD

Track | Start | Length | Start sector | End sector
––––––––––––––––––––––––––––-
1 | 0:00.00 | 3:10.48 | 0 | 14297
2 | 3:10.48 | 3:44.74 | 14298 | 31171
3 | 6:55.47 | 3:56.53 | 31172 | 48924
4 | 10:52.25 | 3:46.21 | 48925 | 65895
5 | 14:38.46 | 4:07.70 | 65896 | 84490
6 | 18:46.41 | 4:21.26 | 84491 | 104091
7 | 23:07.67 | 3:10.45 | 104092 | 118386
8 | 26:18.37 | 2:13.35 | 118387 | 128396
9 | 28:31.72 | 2:50.28 | 128397 | 141174
10 | 31:22.25 | 3:46.40 | 141175 | 158164
11 | 35:08.65 | 8:23.59 | 158165 | 195948
12 | 43:32.49 | 2:54.06 | 195949 | 209004
13 | 46:26.55 | 3:02.64 | 209005 | 222718
14 | 49:29.44 | 4:11.07 | 222719 | 241550
15 | 53:40.51 | 4:15.18 | 241551 | 260693
16 | 57:55.69 | 3:56.23 | 260694 | 278416
17 | 61:52.17 | 3:27.31 | 278417 | 293972


Track 1

Filename C:\EAC\01. Franco Battiato - Atlantide (live 2003).wav

Pre-gap length 0:00:02.00

Peak level 99.9 %
Extraction speed 4.2 X
Track quality 100.0 %
Test CRC 3B50FA7E
Copy CRC 3B50FA7E
Track not present in AccurateRip database
Copy OK

Track 2

Filename C:\EAC\02. Franco Battiato - Strani giorni (live 2003).wav

Peak level 99.9 %
Extraction speed 4.7 X
Track quality 100.0 %
Test CRC 68E3DE15
Copy CRC 68E3DE15
Track not present in AccurateRip database
Copy OK

Track 3

Filename C:\EAC\03. Franco Battiato - Shock in my town (live 2003).wav

Peak level 99.9 %
Extraction speed 4.3 X
Track quality 99.9 %
Test CRC 1F791359
Copy CRC 1F791359
Track not present in AccurateRip database
Copy OK

Track 4

Filename C:\EAC\04. Franco Battiato - E ti vengo a cercare (live 2003).wav

Peak level 99.9 %
Extraction speed 5.5 X
Track quality 100.0 %
Test CRC B37D5D3E
Copy CRC B37D5D3E
Track not present in AccurateRip database
Copy OK

Track 5

Filename C:\EAC\05. Franco Battiato - La cura (live 2003).wav

Peak level 99.9 %
Extraction speed 5.9 X
Track quality 100.0 %
Test CRC 06E24F52
Copy CRC 06E24F52
Track not present in AccurateRip database
Copy OK

Track 6

Filename C:\EAC\06. Franco Battiato - Mesopotamia (live 2003).wav

Peak level 99.9 %
Extraction speed 6.4 X
Track quality 100.0 %
Test CRC 8AB02A2C
Copy CRC 8AB02A2C
Track not present in AccurateRip database
Copy OK

Track 7

Filename C:\EAC\07. Franco Battiato - Lode all'inviolato (live 2003).wav

Peak level 99.9 %
Extraction speed 6.3 X
Track quality 100.0 %
Test CRC 0F6D149D
Copy CRC 0F6D149D
Track not present in AccurateRip database
Copy OK

Track 8

Filename C:\EAC\08. Franco Battiato - Stranizza d'amuri (live 2003).wav

Peak level 99.9 %
Extraction speed 4.7 X
Track quality 99.9 %
Test CRC 580E4A01
Copy CRC 580E4A01
Track not present in AccurateRip database
Copy OK

Track 9

Filename C:\EAC\09. Franco Battiato - La stagione dell'amore (live 2003).wav

Peak level 99.9 %
Extraction speed 6.6 X
Track quality 100.0 %
Test CRC 6A3566F5
Copy CRC 6A3566F5
Track not present in AccurateRip database
Copy OK

Track 10

Filename C:\EAC\10. Franco Battiato - Povera patria (live 2003).wav

Peak level 99.9 %
Extraction speed 7.1 X
Track quality 100.0 %
Test CRC 4DE7907F
Copy CRC 4DE7907F
Track not present in AccurateRip database
Copy OK

Track 11

Filename C:\EAC\11. Franco Battiato - Medley last summer dance (live 2003) - Bandiera bianca medley - Segnali di vita medley - Sentimento nuevo medley - Gli uccelli medley.wav

Peak level 99.9 %
Extraction speed 8.1 X
Track quality 100.0 %
Test CRC 84A99865
Copy CRC 84A99865
Track not present in AccurateRip database
Copy OK

Track 12

Filename C:\EAC\12. Franco Battiato - L'animale (live 2003).wav

Peak level 99.9 %
Extraction speed 7.5 X
Track quality 100.0 %
Test CRC B6C06BAC
Copy CRC B6C06BAC
Track not present in AccurateRip database
Copy OK

Track 13

Filename C:\EAC\13. Franco Battiato - L'era del cinghiale bianco (live 2003).wav

Peak level 99.9 %
Extraction speed 7.7 X
Track quality 100.0 %
Test CRC 77CB5D8C
Copy CRC 77CB5D8C
Track not present in AccurateRip database
Copy OK

Track 14

Filename C:\EAC\14. Franco Battiato - Cuccuruccuccu (live 2003).wav

Peak level 99.9 %
Extraction speed 8.3 X
Track quality 100.0 %
Test CRC D6B71621
Copy CRC D6B71621
Track not present in AccurateRip database
Copy OK

Track 15

Filename C:\EAC\15. Franco Battiato - Centro di gravità permanente (live 2003).wav

Peak level 99.9 %
Extraction speed 5.5 X
Track quality 100.0 %
Test CRC 69E07240
Copy CRC 69E07240
Track not present in AccurateRip database
Copy OK

Track 16

Filename C:\EAC\16. Franco Battiato - Auto da fè (live).wav

Peak level 100.0 %
Extraction speed 5.6 X
Track quality 100.0 %
Test CRC 9CBAD19B
Copy CRC 9CBAD19B
Track not present in AccurateRip database
Copy OK

Track 17

Filename C:\EAC\17. Franco Battiato - Voglio vederti danzare (live).wav

Peak level 100.0 %
Extraction speed 5.4 X
Track quality 100.0 %
Test CRC 16156649
Copy CRC 16156649
Track not present in AccurateRip database
Copy OK


None of the tracks are present in the AccurateRip database

No errors occurred

End of status report

–– CUETools DB Plugin V2.1.6

[CTDB TOCID: QrpQWRfn5N5tVjyBaEJlmwDwlss-] disk not present in database
Submit result: QrpQWRfn5N5tVjyBaEJlmwDwlss- has been uploaded


==== Log checksum E1C94E7F0BEBEA877EB3A0290F040FE0ECB74F50FFE75B485A45B00137A1B445 ====
Exact Audio Copy V1.3 from 2. September 2016

EAC extraction logfile from 29. September 2018, 9:33

Franco Battiato / Universi paralleli

Used drive : ASUS BC-12D2HT Adapter: 0 ID: 0

Read mode : Secure
Utilize accurate stream : Yes
Defeat audio cache : Yes
Make use of C2 pointers : No

Read offset correction : 6
Overread into Lead-In and Lead-Out : No
Fill up missing offset samples with silence : Yes
Delete leading and trailing silent blocks : No
Null samples used in CRC calculations : Yes
Used interface : Installed external ASPI interface
Gap handling : Appended to previous track

Used output format : User Defined Encoder
Selected bitrate : 1024 kBit/s
Quality : High
Add ID3 tag : No
Command line compressor : C:\Program Files (x86)\Exact Audio Copy\FLAC\FLAC.EXE
Additional command line options : -8 -V -T "Artist=%artist%" -T "Title=%title%" -T "Album=%albumtitle%" -T "DATE=%year%" -T "TRACKNUMBER=%tracknr%" -T "Genre=%genre%" -T "ALBUMARTIST=%albumartist%" -T "ALBUM ARTIST=%albumartist%" -T "COMMENT=EAC Secure Mode, Test & Copy, AccurateRip, FLAC -8" %source%


TOC of the extracted CD

Track | Start | Length | Start sector | End sector
––––––––––––––––––––––––––––-
1 | 0:00.00 | 3:12.62 | 0 | 14461
2 | 3:12.62 | 3:18.13 | 14462 | 29324
3 | 6:31.00 | 3:12.18 | 29325 | 43742
4 | 9:43.18 | 3:06.43 | 43743 | 57735
5 | 12:49.61 | 3:25.57 | 57736 | 73167
6 | 16:15.43 | 3:35.64 | 73168 | 89356
7 | 19:51.32 | 3:41.52 | 89357 | 105983
8 | 23:33.09 | 3:21.50 | 105984 | 121108
9 | 26:54.59 | 3:36.07 | 121109 | 137315
10 | 30:30.66 | 3:18.30 | 137316 | 152195
11 | 33:49.21 | 3:22.23 | 152196 | 167368
12 | 37:11.44 | 3:05.08 | 167369 | 181251
13 | 40:16.52 | 2:54.36 | 181252 | 194337
14 | 43:11.13 | 3:00.34 | 194338 | 207871


Track 1

Filename C:\EAC\01. Franco Battiato - Insieme a te non ci sto Più.wav

Pre-gap length 0:00:02.00

Peak level 100.0 %
Extraction speed 4.3 X
Track quality 100.0 %
Test CRC E9EF73A4
Copy CRC E9EF73A4
Track not present in AccurateRip database
Copy OK

Track 2

Filename C:\EAC\02. Franco Battiato - Perduto amore.wav

Peak level 100.0 %
Extraction speed 3.7 X
Track quality 99.9 %
Test CRC 17EF4836
Copy CRC 17EF4836
Track not present in AccurateRip database
Copy OK

Track 3

Filename C:\EAC\03. Franco Battiato - Il cielo in una stanza.wav

Pre-gap length 0:00:01.00

Peak level 100.0 %
Extraction speed 4.0 X
Track quality 99.9 %
Test CRC 0AE701EF
Copy CRC 0AE701EF
Track not present in AccurateRip database
Copy OK

Track 4

Filename C:\EAC\04. Franco Battiato - Se mai.wav

Pre-gap length 0:00:01.00

Peak level 100.0 %
Extraction speed 4.3 X
Track quality 99.9 %
Test CRC 175F250F
Copy CRC 175F250F
Track not present in AccurateRip database
Copy OK

Track 5

Filename C:\EAC\05. Franco Battiato - Ritornerai.wav

Peak level 100.0 %
Extraction speed 5.7 X
Track quality 100.0 %
Test CRC C3D742EA
Copy CRC C3D742EA
Track not present in AccurateRip database
Copy OK

Track 6

Filename C:\EAC\06. Franco Battiato - Col tempo sai.wav

Peak level 100.0 %
Extraction speed 5.9 X
Track quality 100.0 %
Test CRC 6CFFFCB8
Copy CRC 6CFFFCB8
Track not present in AccurateRip database
Copy OK

Track 7

Filename C:\EAC\07. Franco Battiato - Impressioni di settembre.wav

Pre-gap length 0:00:01.00

Peak level 100.0 %
Extraction speed 6.3 X
Track quality 100.0 %
Test CRC 82FEE536
Copy CRC 82FEE536
Track not present in AccurateRip database
Copy OK

Track 8

Filename C:\EAC\08. Franco Battiato - Le tue radici.wav

Pre-gap length 0:00:01.00

Peak level 100.0 %
Extraction speed 6.4 X
Track quality 100.0 %
Test CRC 9DD7EED2
Copy CRC 9DD7EED2
Track not present in AccurateRip database
Copy OK

Track 9

Filename C:\EAC\09. Franco Battiato - Hey Joe.wav

Pre-gap length 0:00:01.00

Peak level 100.0 %
Extraction speed 5.7 X
Track quality 99.9 %
Test CRC A5502AAF
Copy CRC A5502AAF
Track not present in AccurateRip database
Copy OK

Track 10

Filename C:\EAC\10. Franco Battiato - Se tu sapessi.wav

Pre-gap length 0:00:02.00

Peak level 100.0 %
Extraction speed 6.9 X
Track quality 100.0 %
Test CRC F82A7143
Copy CRC F82A7143
Track not present in AccurateRip database
Copy OK

Track 11

Filename C:\EAC\11. Franco Battiato - Sigillata con un bacio (Sealed with a kiss) (Italian version).wav

Pre-gap length 0:00:01.00

Peak level 100.0 %
Extraction speed 7.1 X
Track quality 100.0 %
Test CRC 130F6640
Copy CRC 130F6640
Track not present in AccurateRip database
Copy OK

Track 12

Filename C:\EAC\12. Franco Battiato - Come un sigillo (con Alice).wav

Pre-gap length 0:00:02.00

Peak level 98.2 %
Extraction speed 7.2 X
Track quality 100.0 %
Test CRC F5ED1C17
Copy CRC F5ED1C17
Track not present in AccurateRip database
Copy OK

Track 13

Filename C:\EAC\13. Franco Battiato - Beim schlafengehen.wav

Pre-gap length 0:00:01.00

Peak level 100.0 %
Extraction speed 7.2 X
Track quality 100.0 %
Test CRC C549D52A
Copy CRC C549D52A
Track not present in AccurateRip database
Copy OK

Track 14

Filename C:\EAC\14. Manlio Sgalambro - La mer (con Manlio Sgambaro).wav

Peak level 98.8 %
Extraction speed 7.6 X
Track quality 100.0 %
Test CRC 84AC0675
Copy CRC 84AC0675
Track not present in AccurateRip database
Copy OK


None of the tracks are present in the AccurateRip database

No errors occurred

End of status report

–– CUETools DB Plugin V2.1.6

[CTDB TOCID: u.d37t6NAPjP7Hypr.U_kqWxGBA-] disk not present in database
Submit result: u.d37t6NAPjP7Hypr.U_kqWxGBA- has been uploaded


==== Log checksum FB9657F067718DFF4DBD37AEB6E67C440A6443A22CAB0189BF494698EC5D0030 ====
Exact Audio Copy V1.3 from 2. September 2016

EAC extraction logfile from 29. September 2018, 10:51

Franco Battiato / Universi paralleli

Used drive : ASUS BC-12D2HT Adapter: 0 ID: 0

Read mode : Secure
Utilize accurate stream : Yes
Defeat audio cache : Yes
Make use of C2 pointers : No

Read offset correction : 6
Overread into Lead-In and Lead-Out : No
Fill up missing offset samples with silence : Yes
Delete leading and trailing silent blocks : No
Null samples used in CRC calculations : Yes
Used interface : Installed external ASPI interface
Gap handling : Appended to previous track

Used output format : User Defined Encoder
Selected bitrate : 1024 kBit/s
Quality : High
Add ID3 tag : No
Command line compressor : C:\Program Files (x86)\Exact Audio Copy\FLAC\FLAC.EXE
Additional command line options : -8 -V -T "Artist=%artist%" -T "Title=%title%" -T "Album=%albumtitle%" -T "DATE=%year%" -T "TRACKNUMBER=%tracknr%" -T "Genre=%genre%" -T "ALBUMARTIST=%albumartist%" -T "ALBUM ARTIST=%albumartist%" -T "COMMENT=EAC Secure Mode, Test & Copy, AccurateRip, FLAC -8" %source%


TOC of the extracted CD

Track | Start | Length | Start sector | End sector
––––––––––––––––––––––––––––-
1 | 0:00.00 | 2:27.41 | 0 | 11065
2 | 2:27.41 | 3:42.08 | 11066 | 27723
3 | 6:09.49 | 4:19.54 | 27724 | 47202
4 | 10:29.28 | 3:54.16 | 47203 | 64768
5 | 14:23.44 | 3:36.19 | 64769 | 80987
6 | 17:59.63 | 3:46.10 | 80988 | 97947
7 | 21:45.73 | 3:31.05 | 97948 | 113777
8 | 25:17.03 | 3:44.49 | 113778 | 130626
9 | 29:01.52 | 3:23.53 | 130627 | 145904
10 | 32:25.30 | 4:04.73 | 145905 | 164277
11 | 36:30.28 | 3:27.34 | 164278 | 179836
12 | 39:57.62 | 3:26.42 | 179837 | 195328
13 | 43:24.29 | 3:34.16 | 195329 | 211394
14 | 46:58.45 | 3:20.68 | 211395 | 226462
15 | 50:19.38 | 3:28.71 | 226463 | 242133
16 | 53:48.34 | 3:32.60 | 242134 | 258093
17 | 57:21.19 | 3:22.62 | 258094 | 273305
18 | 60:44.06 | 3:34.74 | 273306 | 289429
19 | 64:19.05 | 3:38.66 | 289430 | 305845
20 | 67:57.71 | 3:48.20 | 305846 | 322965
21 | 71:46.16 | 3:29.68 | 322966 | 338708


Track 1

Filename C:\EAC\01. Franco Battiato - Prologo.wav

Pre-gap length 0:00:02.00

Peak level 99.5 %
Extraction speed 4.2 X
Track quality 100.0 %
Test CRC C23A40E8
Copy CRC C23A40E8
Track not present in AccurateRip database
Copy OK

Track 2

Filename C:\EAC\02. Franco Battiato - Running against the grain.wav

Pre-gap length 0:00:01.00

Peak level 99.9 %
Extraction speed 4.0 X
Track quality 99.9 %
Test CRC C7269DDE
Copy CRC C7269DDE
Track not present in AccurateRip database
Copy OK

Track 3

Filename C:\EAC\03. Franco Battiato - Bist du bei mir.wav

Peak level 99.1 %
Extraction speed 5.3 X
Track quality 100.0 %
Test CRC FAB30150
Copy CRC FAB30150
Track not present in AccurateRip database
Copy OK

Track 4

Filename C:\EAC\04. Franco Battiato - La quiete dopo un addio.wav

Peak level 99.0 %
Extraction speed 5.6 X
Track quality 100.0 %
Test CRC 49563222
Copy CRC 49563222
Track not present in AccurateRip database
Copy OK

Track 5

Filename C:\EAC\05. Franco Battiato - Personalità empirica.wav

Peak level 99.9 %
Extraction speed 5.8 X
Track quality 100.0 %
Test CRC 374EF276
Copy CRC 374EF276
Track not present in AccurateRip database
Copy OK

Track 6

Filename C:\EAC\06. Franco Battiato - Il cammino interminabile.wav

Pre-gap length 0:00:02.00

Peak level 99.9 %
Extraction speed 6.1 X
Track quality 100.0 %
Test CRC CE6ECB9A
Copy CRC CE6ECB9A
Track not present in AccurateRip database
Copy OK

Track 7

Filename C:\EAC\07. Franco Battiato - Lontananze d'azzurro.wav

Pre-gap length 0:00:02.00

Peak level 99.9 %
Extraction speed 6.2 X
Track quality 100.0 %
Test CRC 3A61E309
Copy CRC 3A61E309
Track not present in AccurateRip database
Copy OK

Track 8

Filename C:\EAC\08. Franco Battiato - Sarcofagia.wav

Pre-gap length 0:00:02.00

Peak level 99.9 %
Extraction speed 6.7 X
Track quality 100.0 %
Test CRC A1380248
Copy CRC A1380248
Track not present in AccurateRip database
Copy OK

Track 9

Filename C:\EAC\09. Franco Battiato - Scherzo in minore.wav

Pre-gap length 0:00:02.00

Peak level 99.9 %
Extraction speed 6.8 X
Track quality 100.0 %
Test CRC C74D0787
Copy CRC C74D0787
Track not present in AccurateRip database
Copy OK

Track 10

Filename C:\EAC\10. Franco Battiato - Il potere del canto.wav

Pre-gap length 0:00:02.00

Peak level 99.9 %
Extraction speed 7.2 X
Track quality 100.0 %
Test CRC 77ACC719
Copy CRC 77ACC719
Track not present in AccurateRip database
Copy OK

Track 11

Filename C:\EAC\11. Franco Battiato - Tra sesso e castità.wav

Pre-gap length 0:00:01.00

Peak level 94.3 %
Extraction speed 6.0 X
Track quality 99.9 %
Test CRC BE03A94F
Copy CRC BE03A94F
Track not present in AccurateRip database
Copy OK

Track 12

Filename C:\EAC\12. Franco Battiato - Le aquile non volano a stormi.wav

Pre-gap length 0:00:02.00

Peak level 99.9 %
Extraction speed 7.3 X
Track quality 100.0 %
Test CRC F19E069E
Copy CRC F19E069E
Track not present in AccurateRip database
Copy OK

Track 13

Filename C:\EAC\13. Franco Battiato - Ermeneutica.wav

Peak level 99.9 %
Extraction speed 7.7 X
Track quality 100.0 %
Test CRC 59D4840B
Copy CRC 59D4840B
Track not present in AccurateRip database
Copy OK

Track 14

Filename C:\EAC\14. Franco Battiato - Fortezza bastiani.wav

Peak level 99.9 %
Extraction speed 7.8 X
Track quality 100.0 %
Test CRC CDA16D28
Copy CRC CDA16D28
Track not present in AccurateRip database
Copy OK

Track 15

Filename C:\EAC\15. Franco Battiato - Odore di polvere da sparo.wav

Peak level 99.9 %
Extraction speed 7.8 X
Track quality 100.0 %
Test CRC BC63F561
Copy CRC BC63F561
Track not present in AccurateRip database
Copy OK

Track 16

Filename C:\EAC\16. Franco Battiato - I'm that.wav

Peak level 100.0 %
Extraction speed 6.8 X
Track quality 99.9 %
Test CRC EFE8A79F
Copy CRC EFE8A79F
Track not present in AccurateRip database
Copy OK

Track 17

Filename C:\EAC\17. Franco Battiato - Conforto alla vita.wav

Peak level 99.9 %
Extraction speed 6.8 X
Track quality 99.9 %
Test CRC DD02D62B
Copy CRC DD02D62B
Track not present in AccurateRip database
Copy OK

Track 18

Filename C:\EAC\18. Franco Battiato - 23 coppie di cromosomi.wav

Peak level 99.9 %
Extraction speed 1.8 X
Track quality 99.5 %
Test CRC 98551090
Copy CRC 98551090
Track not present in AccurateRip database
Copy OK

Track 19

Filename C:\EAC\19. Franco Battiato - Apparenza e realtà.wav

Pre-gap length 0:00:01.00

Peak level 99.9 %
Extraction speed 6.0 X
Track quality 99.9 %
Test CRC 1AF22190
Copy CRC 1AF22190
Track not present in AccurateRip database
Copy OK

Track 20

Filename C:\EAC\20. Franco Battiato - La porta dello spavento supremo.wav

Peak level 99.9 %
Extraction speed 1.5 X
Track quality 99.5 %
Test CRC C633EE6A
Copy CRC C633EE6A
Track not present in AccurateRip database
Copy OK

Track 21

Filename C:\EAC\21. Franco Battiato - L'incantesimo (Live 2003).wav

Peak level 98.8 %
Extraction speed 5.9 X
Track quality 100.0 %
Test CRC 80E7214A
Copy CRC 80E7214A
Track not present in AccurateRip database
Copy OK


None of the tracks are present in the AccurateRip database

No errors occurred

End of status report

–– CUETools DB Plugin V2.1.6

[CTDB TOCID: RQ5XeueddPMJzyh4s1WT8rzfomk-] disk not present in database
Submit result: RQ5XeueddPMJzyh4s1WT8rzfomk- has been uploaded


==== Log checksum C0AF295725B886E3AD9F00CD085410E207AEBD43AEC8BF08BEB933FBF229B1C1 ====
Exact Audio Copy V1.3 from 2. September 2016

EAC extraction logfile from 29. September 2018, 11:24

Franco Battiato / Universi paralleli

Used drive : ASUS BC-12D2HT Adapter: 0 ID: 0

Read mode : Secure
Utilize accurate stream : Yes
Defeat audio cache : Yes
Make use of C2 pointers : No

Read offset correction : 6
Overread into Lead-In and Lead-Out : No
Fill up missing offset samples with silence : Yes
Delete leading and trailing silent blocks : No
Null samples used in CRC calculations : Yes
Used interface : Installed external ASPI interface
Gap handling : Appended to previous track

Used output format : User Defined Encoder
Selected bitrate : 1024 kBit/s
Quality : High
Add ID3 tag : No
Command line compressor : C:\Program Files (x86)\Exact Audio Copy\FLAC\FLAC.EXE
Additional command line options : -8 -V -T "Artist=%artist%" -T "Title=%title%" -T "Album=%albumtitle%" -T "DATE=%year%" -T "TRACKNUMBER=%tracknr%" -T "Genre=%genre%" -T "ALBUMARTIST=%albumartist%" -T "ALBUM ARTIST=%albumartist%" -T "COMMENT=EAC Secure Mode, Test & Copy, AccurateRip, FLAC -8" %source%


TOC of the extracted CD

Track | Start | Length | Start sector | End sector
––––––––––––––––––––––––––––-
1 | 0:00.00 | 7:26.55 | 0 | 33504
2 | 7:26.55 | 5:05.17 | 33505 | 56396
3 | 12:31.72 | 2:36.54 | 56397 | 68150
4 | 15:08.51 | 3:51.10 | 68151 | 85485
5 | 18:59.61 | 6:11.10 | 85486 | 113320
6 | 25:10.71 | 5:27.10 | 113321 | 137855
7 | 30:38.06 | 5:03.10 | 137856 | 160590
8 | 35:41.16 | 6:35.10 | 160591 | 190225
9 | 42:16.26 | 4:53.10 | 190226 | 212210
10 | 47:09.36 | 5:22.10 | 212211 | 236370
11 | 52:31.46 | 18:56.10 | 236371 | 321580


Track 1

Filename C:\EAC\01. Franco Battiato - Beta.wav

Pre-gap length 0:00:02.00

Peak level 98.8 %
Extraction speed 4.9 X
Track quality 100.0 %
Test CRC C5014223
Copy CRC C5014223
Track not present in AccurateRip database
Copy OK

Track 2

Filename C:\EAC\02. Franco Battiato - Plancton.wav

Pre-gap length 0:00:02.00

Peak level 98.8 %
Extraction speed 5.4 X
Track quality 100.0 %
Test CRC AB1C8291
Copy CRC AB1C8291
Track not present in AccurateRip database
Copy OK

Track 3

Filename C:\EAC\03. Franco Battiato - Fetus.wav

Pre-gap length 0:00:02.00

Peak level 98.8 %
Extraction speed 4.3 X
Track quality 99.9 %
Test CRC B2FBE8BC
Copy CRC B2FBE8BC
Track not present in AccurateRip database
Copy OK

Track 4

Filename C:\EAC\04. Franco Battiato - Fenomenologia.wav

Peak level 98.8 %
Extraction speed 5.8 X
Track quality 100.0 %
Test CRC BC5D8550
Copy CRC BC5D8550
Track not present in AccurateRip database
Copy OK

Track 5

Filename C:\EAC\05. Franco Battiato - Meccanica.wav

Peak level 98.8 %
Extraction speed 6.5 X
Track quality 100.0 %
Test CRC EDEB4CA4
Copy CRC EDEB4CA4
Track not present in AccurateRip database
Copy OK

Track 6

Filename C:\EAC\06. Franco Battiato - Aries.wav

Peak level 98.8 %
Extraction speed 6.8 X
Track quality 100.0 %
Test CRC 1C7EA516
Copy CRC 1C7EA516
Track not present in AccurateRip database
Copy OK

Track 7

Filename C:\EAC\07. Franco Battiato - Aria di rivoluzione.wav

Peak level 98.8 %
Extraction speed 6.3 X
Track quality 99.9 %
Test CRC 9B4313DB
Copy CRC 9B4313DB
Track not present in AccurateRip database
Copy OK

Track 8

Filename C:\EAC\08. Franco Battiato - Da oriente a occidente.wav

Pre-gap length 0:00:01.00

Peak level 98.8 %
Extraction speed 7.7 X
Track quality 100.0 %
Test CRC 2E77E15C
Copy CRC 2E77E15C
Track not present in AccurateRip database
Copy OK

Track 9

Filename C:\EAC\09. Franco Battiato - No u turn.wav

Pre-gap length 0:00:02.00

Peak level 98.8 %
Extraction speed 6.6 X
Track quality 99.9 %
Test CRC 0A693DA3
Copy CRC 0A693DA3
Track not present in AccurateRip database
Copy OK

Track 10

Filename C:\EAC\10. Franco Battiato - Propiedad prohibida.wav

Peak level 98.8 %
Extraction speed 8.1 X
Track quality 100.0 %
Test CRC A5186C30
Copy CRC A5186C30
Track not present in AccurateRip database
Copy OK

Track 11

Filename C:\EAC\11. Franco Battiato - Cafè table musik.wav

Peak level 98.8 %
Extraction speed 6.1 X
Track quality 100.0 %
Test CRC 3F0E6E4D
Copy CRC 3F0E6E4D
Track not present in AccurateRip database
Copy OK


None of the tracks are present in the AccurateRip database

No errors occurred

End of status report

–– CUETools DB Plugin V2.1.6

[CTDB TOCID: cT.oTLwl.RCtm2y4JQp0BNvrQUA-] disk not present in database
Submit result: cT.oTLwl.RCtm2y4JQp0BNvrQUA- has been uploaded


==== Log checksum BEED0B9E9A108B5B23FD791585223BCB35E97DC31C245424492E73B4346D8DF9 ====

Thanks to the Original ripper !