Tags
Language
Tags

Gato Barbieri - 20th Century Masters - The Millennium Collection: The Best of Gato Barbieri (2004)

Posted By: delpotro
Gato Barbieri - 20th Century Masters - The Millennium Collection: The Best of Gato Barbieri (2004)

Gato Barbieri - 20th Century Masters - The Millennium Collection: The Best of Gato Barbieri (2004)
XLD Rip | FLAC (tracks+log+.cue) - 372 Mb | MP3 CBR 320 kbps - 141 Mb | 01:01:43
Smooth Jazz, Latin Jazz | Label: A&M Records, Hip-O Records

Charming & romantic. There's no better way to describe Gato Barbieri's late-'70s recordings for A&M, a chapter in the Argentinian saxophonist's varied career that carried him from Lalo Schifrin's orchestra to stepping out on his own playing everything from traditional South American forms to avant-garde jazz to Latin/jazz/pop fusion & back again. Hip-O Records & The Verve Group are proud to feature Gato Barbieri in the 20th Century Masters/The Millennium Collection series, gathering 10 evergreens from one of Gato's most beloved periods. Featured are the full album versions of "Europa (Earth's Cry Heaven's Smile)," "Behind The Rain," "Sunride" & "I Am Singing."
Tracklist:
1. Ngiculela-Es una Historia-I Am Singing (05:44)
2. Europa (Earth's Cry, Heaven's Smile) (04:18)
3. Sunride (05:51)
4. I Want You (05:58)
5. Poinciana (07:49)
6. Fiesta (05:06)
7. She Is Michelle (06:13)
8. Behind the Rain (05:37)
9. Ruby (06:29)
10. Latin Lady (08:25)

X Lossless Decoder version 20161007 (149.3)

XLD extraction logfile from 2017-04-30 12:53:20 -0700

Gato Barbieri / The Best of Gato Barbieri: 20th Century Masters - The Millennium Collection

Used drive : TSSTcorp BDDVDW SE-506BB (revision TS00)
Media type : Pressed CD

Ripper mode : XLD Secure Ripper
Disable audio cache : OK for the drive with a cache less than 1375KiB
Make use of C2 pointers : NO
Read offset correction : 6
Max retry count : 100
Gap status : Analyzed, Appended (except HTOA)

TOC of the extracted CD
Track | Start | Length | Start sector | End sector
––––––––––––––––––––––––––––-
1 | 00:00:00 | 05:45:62 | 0 | 25936
2 | 05:45:62 | 04:19:60 | 25937 | 45421
3 | 10:05:47 | 05:52:45 | 45422 | 71866
4 | 15:58:17 | 06:00:50 | 71867 | 98916
5 | 21:58:67 | 07:50:38 | 98917 | 134204
6 | 29:49:30 | 05:06:25 | 134205 | 157179
7 | 34:55:55 | 06:15:00 | 157180 | 185304
8 | 41:10:55 | 05:37:00 | 185305 | 210579
9 | 46:47:55 | 06:30:37 | 210580 | 239866
10 | 53:18:17 | 08:25:25 | 239867 | 277766

List of alternate offset correction values
# | Absolute | Relative | Confidence
–––––––––––––––––––––
1 | 128 | 122 | 5

AccurateRip Summary (DiscID: 00161487-00b2a43b-7d0e770a)
Track 01 : OK (v1+v2, confidence 5/5, with different offset)
Track 02 : OK (v1+v2, confidence 5/5, with different offset)
Track 03 : OK (v1+v2, confidence 5/5, with different offset)
Track 04 : OK (v1+v2, confidence 5/5, with different offset)
Track 05 : OK (v1+v2, confidence 5/5, with different offset)
Track 06 : OK (v1+v2, confidence 5/5, with different offset)
Track 07 : OK (v1+v2, confidence 5/5, with different offset)
Track 08 : OK (v1+v2, confidence 5/5, with different offset)
Track 09 : OK (v1+v2, confidence 4/4, with different offset)
Track 10 : OK (v1+v2, confidence 5/5, with different offset)
->All tracks accurately ripped.

All Tracks
Album gain : -6.05 dB
Peak : 0.988708
Statistics
Read error : 0
Jitter error (maybe fixed) : 2
Retry sector count : 627
Damaged sector count : 0

Track 01
Filename : /Volumes/Hollywood and Vine/Rips/Gato Barbieri - The Best of Gato Barbieri: 20th Century Masters - The Millennium Collection (2004) [FLAC]/01 Ngiculela - Es una Historia (I Am Singing) .flac
Pre-gap length : 00:02:00

Track gain : -5.13 dB
Peak : 0.988708
CRC32 hash (test run) : 999A3002
CRC32 hash : 999A3002
CRC32 hash (skip zero) : 73418514
AccurateRip v1 signature : 6B188295 (92BA8C85 w/correction)
AccurateRip v2 signature : B6A0C17E (A7D1B3B7 w/correction)
->Accurately ripped with different offset (v1+v2, confidence 2+3/5, offset +122)
Statistics
Read error : 0
Jitter error (maybe fixed) : 0
Retry sector count : 0
Damaged sector count : 0

Track 02
Filename : /Volumes/Hollywood and Vine/Rips/Gato Barbieri - The Best of Gato Barbieri: 20th Century Masters - The Millennium Collection (2004) [FLAC]/02 Europa (Earth's Cry, Heaven's Smile).flac
Pre-gap length : 00:01:47

Track gain : -3.84 dB
Peak : 0.988495
CRC32 hash (test run) : 8637AC75
CRC32 hash : 8637AC75
CRC32 hash (skip zero) : 459F75F4
AccurateRip v1 signature : FDA9165A (1E93BE24 w/correction)
AccurateRip v2 signature : 7E45EC9E (7566F8B5 w/correction)
->Accurately ripped with different offset (v1+v2, confidence 2+3/5, offset +122)
Statistics
Read error : 0
Jitter error (maybe fixed) : 0
Retry sector count : 0
Damaged sector count : 0

Track 03
Filename : /Volumes/Hollywood and Vine/Rips/Gato Barbieri - The Best of Gato Barbieri: 20th Century Masters - The Millennium Collection (2004) [FLAC]/03 Sunride.flac
Pre-gap length : 00:01:10

Track gain : -6.40 dB
Peak : 0.988708
CRC32 hash (test run) : 52028C22
CRC32 hash : 52028C22
CRC32 hash (skip zero) : 0948B148
AccurateRip v1 signature : F267B51D (8A1DB3AF w/correction)
AccurateRip v2 signature : 5743FC9A (B710D7BC w/correction)
->Accurately ripped with different offset (v1+v2, confidence 2+3/5, offset +122)
Statistics
Read error : 0
Jitter error (maybe fixed) : 0
Retry sector count : 177
Damaged sector count : 0

Track 04
Filename : /Volumes/Hollywood and Vine/Rips/Gato Barbieri - The Best of Gato Barbieri: 20th Century Masters - The Millennium Collection (2004) [FLAC]/04 I Want You.flac
Pre-gap length : 00:01:02

Track gain : -6.44 dB
Peak : 0.988708
CRC32 hash (test run) : 1F153E5F
CRC32 hash : 1F153E5F
CRC32 hash (skip zero) : 84A70A87
AccurateRip v1 signature : 16BD3860 (970A4C98 w/correction)
AccurateRip v2 signature : 4FFC23AE (978993F1 w/correction)
->Accurately ripped with different offset (v1+v2, confidence 2+3/5, offset +122)
Statistics
Read error : 0
Jitter error (maybe fixed) : 0
Retry sector count : 0
Damaged sector count : 0

Track 05
Filename : /Volumes/Hollywood and Vine/Rips/Gato Barbieri - The Best of Gato Barbieri: 20th Century Masters - The Millennium Collection (2004) [FLAC]/05 Poinciana.flac
Pre-gap length : 00:02:17

Track gain : -6.09 dB
Peak : 0.988678
CRC32 hash (test run) : B7E47B2A
CRC32 hash : B7E47B2A
CRC32 hash (skip zero) : 4E318E25
AccurateRip v1 signature : 4B63B1AE (DE32913E w/correction)
AccurateRip v2 signature : 8F7F1D75 (D6942073 w/correction)
->Accurately ripped with different offset (v1+v2, confidence 2+3/5, offset +122)
Statistics
Read error : 0
Jitter error (maybe fixed) : 0
Retry sector count : 0
Damaged sector count : 0

Track 06
Filename : /Volumes/Hollywood and Vine/Rips/Gato Barbieri - The Best of Gato Barbieri: 20th Century Masters - The Millennium Collection (2004) [FLAC]/06 Fiesta.flac
Pre-gap length : 00:01:03

Track gain : -7.55 dB
Peak : 0.988708
CRC32 hash (test run) : 9BB49D61
CRC32 hash : 9BB49D61
CRC32 hash (skip zero) : ACDFCB9B
AccurateRip v1 signature : F8978833 (528D89EF w/correction)
AccurateRip v2 signature : 500BE569 (794B3220 w/correction)
->Accurately ripped with different offset (v1+v2, confidence 2+3/5, offset +122)
Statistics
Read error : 0
Jitter error (maybe fixed) : 0
Retry sector count : 0
Damaged sector count : 0

Track 07
Filename : /Volumes/Hollywood and Vine/Rips/Gato Barbieri - The Best of Gato Barbieri: 20th Century Masters - The Millennium Collection (2004) [FLAC]/07 She Is Michelle.flac

Track gain : -4.71 dB
Peak : 0.988708
CRC32 hash (test run) : 3F7FFE74
CRC32 hash : 3F7FFE74
CRC32 hash (skip zero) : 8FB07066
AccurateRip v1 signature : D354C575 (03C12DCF w/correction)
AccurateRip v2 signature : 598B295A (4E59135E w/correction)
->Accurately ripped with different offset (v1+v2, confidence 2+3/5, offset +122)
Statistics
Read error : 0
Jitter error (maybe fixed) : 0
Retry sector count : 0
Damaged sector count : 0

Track 08
Filename : /Volumes/Hollywood and Vine/Rips/Gato Barbieri - The Best of Gato Barbieri: 20th Century Masters - The Millennium Collection (2004) [FLAC]/08 Behind the Rain.flac
Pre-gap length : 00:01:08

Track gain : -5.49 dB
Peak : 0.988708
CRC32 hash (test run) : C7987E38
CRC32 hash : C7987E38
CRC32 hash (skip zero) : 48D236EB
AccurateRip v1 signature : DE0FF89A (DDF23E3C w/correction)
AccurateRip v2 signature : 889DD02C (52D7E989 w/correction)
->Accurately ripped with different offset (v1+v2, confidence 2+3/5, offset +122)
Statistics
Read error : 0
Jitter error (maybe fixed) : 2
Retry sector count : 450
Damaged sector count : 0

Track 09
Filename : /Volumes/Hollywood and Vine/Rips/Gato Barbieri - The Best of Gato Barbieri: 20th Century Masters - The Millennium Collection (2004) [FLAC]/09 Ruby.flac

Track gain : -4.83 dB
Peak : 0.988708
CRC32 hash (test run) : EDE7CDF0
CRC32 hash : EDE7CDF0
CRC32 hash (skip zero) : 0148FEA9
AccurateRip v1 signature : 2F2F5DCC (7D5FDAE2 w/correction)
AccurateRip v2 signature : 84D93A8F (943222D8 w/correction)
->Accurately ripped with different offset (v1+v2, confidence 2+2/4, offset +122)
Statistics
Read error : 0
Jitter error (maybe fixed) : 0
Retry sector count : 0
Damaged sector count : 0

Track 10
Filename : /Volumes/Hollywood and Vine/Rips/Gato Barbieri - The Best of Gato Barbieri: 20th Century Masters - The Millennium Collection (2004) [FLAC]/10 Latin Lady.flac
Pre-gap length : 00:01:05

Track gain : -6.49 dB
Peak : 0.988708
CRC32 hash (test run) : 224BF93F
CRC32 hash : 224BF93F
CRC32 hash (skip zero) : 21174AC4
AccurateRip v1 signature : D5262CCF (1222DEF9 w/correction)
AccurateRip v2 signature : 0CD4F39B (F83D4FC7 w/correction)
->Accurately ripped with different offset (v1+v2, confidence 2+3/5, offset +122)
Statistics
Read error : 0
Jitter error (maybe fixed) : 0
Retry sector count : 0
Damaged sector count : 0

No errors occurred

End of status report

––-BEGIN XLD SIGNATURE––-
lSZId7oXM917mAcI4C.2IRqFylQ_rHEFWSV4QZ9IVSdtMPXUiaxG7qLRdvMhwUXBnc539N6yG3.m9bx43N4WuaOl7JnIBSgpEPRz7ZW
––-END XLD SIGNATURE––-

Thanks to the Original ripper !