Subcategories

Grateful Dead - Road Trips Vol. 4 No. 1: Big Rock Pow Wow '69 (Reissue, HDCD) (2010/2018)

Posted By: delpotro
Grateful Dead - Road Trips Vol. 4 No. 1: Big Rock Pow Wow '69 (Reissue, HDCD) (2010/2018)

Grateful Dead - Road Trips Vol. 4 No. 1: Big Rock Pow Wow '69 (Reissue) (2010/2018)
EAC Rip | FLAC (tracks+log+.cue) - 1 Gb | MP3 CBR 320 kbps - 423 Mb | Covers - 466 Mb | 03:04:49
Psychedelic Rock, Jam Band | Label: Grateful Dead Records, Real Gone Music

Road Trips Volume 4 Number 1 is a live album by the rock band the Grateful Dead. The 13th of the Road Trips series of archival releases, it contains two complete performances by the band, recorded on May 23 and 24, 1969. It was released as a three-disc CD on November 16, 2010. Road Trips Volume 4 Number 1 is subtitled Big Rock Pow-Wow '69. It was recorded at a rock festival called the Big Rock Pow-Wow, which took place on Friday, Saturday, and Sunday, May 23, 24, and 25, 1969, at the Hollywood Seminole Indian Reservation in West Hollywood, Florida. Other artists who performed at the festival included Johnny Winter, Sweetwater, Joe South, Aum, NRBQ, Rhinoceros, Muddy Waters, and the Youngbloods. At the end of the Saturday night concert, Timothy Leary spoke from the stage.

As Live Dead so eloquently attests, the Grateful Dead just might have been the best live band in the world during the year of 1969, so any release of material from that period is a (Dead) head turner. This release captures two complete concerts held at the Seminole Indian reservation in Florida on May 23 and 24, 1969, three months after Live Dead and a month after the Midwest shows immortalized on Dick’s Picks Vol. 26. With both Bear (who recorded this show in his usual meticulous fashion) and Timothy Leary in attendance, it’s safe to say that there was something in the air at both shows; Jerry Garcia’s riffage is about as raw as it ever got, and the trademark period sequence of “Dark Star”/”St. Stephen”/”The Eleven”/”Turn on Your Lovelight” is particularly charged, with a nearly half-hour “Lovelight” shining very brightly indeed. Show two starts with another half-hour but very different “Lovelight,” as Pigpen slowly turns up the heat, followed by the rare “He Was a Friend of Mine,” “Alligator,” and another “St. Stephen” (flying out of “Drums” for the only time during its 1968-1971 incarnation) among other treats. Great graphics, too, with notes by Blair Jackson and a reminiscence by Tom Constanten. Never before available at retail!
Tracklist:
Disc 1 (01:15:21)
1. Hard To Handle (05:47)
2. Dark Star (18:56)
3. St. Stephen (09:01)
4. The Eleven (10:38)
5. Turn On Your Lovelight (30:59)

Disc 2 (01:08:05)
1. Introduction (04:27)
2. Turn On Your Lovelight (27:25)
3. Doin' That Rag (06:43)
4. He Was A Friend Of Mine (Just A Hand To Hold) (08:49)
5. China Cat Sunflower (05:24)
6. The Eleven (08:17)
7. Death Don't Have No Mercy (07:00)

Disc 3 (41:23)
1. Morning Dew (09:44)
2. Me And My Uncle (03:17)
3. Yellow Dog Story (03:12)
4. Alligator (04:00)
5. Drums (07:33)
6. St. Stephen (05:58)
7. Feedback (04:17)
8. We Bid You Goodnight (03:22)

Exact Audio Copy V1.3 from 2. September 2016

EAC extraction logfile from 19. March 2020, 9:02

Grateful Dead / Road Trips Vol. 4 No. 1 Big Pow Wow, Hollywood, Florida

Used drive : PLDS DVD+-RW DU-8A5LH Adapter: 1 ID: 0

Read mode : Secure
Utilize accurate stream : Yes
Defeat audio cache : Yes
Make use of C2 pointers : No

Read offset correction : 6
Overread into Lead-In and Lead-Out : No
Fill up missing offset samples with silence : Yes
Delete leading and trailing silent blocks : No
Null samples used in CRC calculations : Yes
Used interface : Native Win32 interface for Win NT & 2000
Gap handling : Appended to previous track

Used output format : User Defined Encoder
Selected bitrate : 1024 kBit/s
Quality : High
Add ID3 tag : No
Command line compressor : C:/Program Files (x86)/Exact Audio Copy/Flac/flac.exe
Additional command line options : -8 -e -p -V -T "ARTIST=%artist%" -T "TITLE=%title%" -T "ALBUM=%albumtitle%" -T "DATE=%year%" -T "TRACKNUMBER=%tracknr%" -T "GENRE=%genre%" -T "PERFORMER=%albuminterpret%" -T "COMPOSER=%composer%" %haslyrics%–tag-from-file=LYRICS="%lyricsfile%"%haslyrics% -T "ALBUMARTIST=%albumartist%" -T "DISCNUMBER=%cdnumber%" -T "TOTALDISCS=%totalcds%" -T "TOTALTRACKS=%numtracks%" -T "COMMENT=%comment%" %source% -o %dest%


TOC of the extracted CD

Track | Start | Length | Start sector | End sector
––––––––––––––––––––––––––––-
1 | 0:00.00 | 5:46.41 | 0 | 25990
2 | 5:46.41 | 18:55.73 | 25991 | 111188
3 | 24:42.39 | 9:00.38 | 111189 | 151726
4 | 33:43.02 | 10:38.02 | 151727 | 199578
5 | 44:21.04 | 30:58.43 | 199579 | 338971


Track 1

Filename C:\Users\onean\Desktop\Grateful Dead - Road Trips Vol. 4 No. 1 (2018) [Flac] {RGM-0762}\01 - Hard To Handle - Grateful Dead.wav

Pre-gap length 0:00:02.00

Peak level 96.6 %
Extraction speed 3.1 X
Track quality 100.0 %
Test CRC 6F2354CA
Copy CRC 6F2354CA
Accurately ripped (confidence 8) [8B1E0405] (AR v2)
Copy OK

Track 2

Filename C:\Users\onean\Desktop\Grateful Dead - Road Trips Vol. 4 No. 1 (2018) [Flac] {RGM-0762}\02 - Dark Star - Grateful Dead.wav

Peak level 96.6 %
Extraction speed 4.1 X
Track quality 100.0 %
Test CRC 4D616753
Copy CRC 4D616753
Accurately ripped (confidence 8) [FDD5E901] (AR v2)
Copy OK

Track 3

Filename C:\Users\onean\Desktop\Grateful Dead - Road Trips Vol. 4 No. 1 (2018) [Flac] {RGM-0762}\03 - St. Stephen - Grateful Dead.wav

Peak level 96.6 %
Extraction speed 4.4 X
Track quality 99.9 %
Test CRC 162E067C
Copy CRC 162E067C
Accurately ripped (confidence 8) [19FD7648] (AR v2)
Copy OK

Track 4

Filename C:\Users\onean\Desktop\Grateful Dead - Road Trips Vol. 4 No. 1 (2018) [Flac] {RGM-0762}\04 - The Eleven - Grateful Dead.wav

Peak level 96.6 %
Extraction speed 5.3 X
Track quality 100.0 %
Test CRC 719FB03F
Copy CRC 719FB03F
Accurately ripped (confidence 8) [4DF1C1C1] (AR v2)
Copy OK

Track 5

Filename C:\Users\onean\Desktop\Grateful Dead - Road Trips Vol. 4 No. 1 (2018) [Flac] {RGM-0762}\05 - Turn On Your Lovelight - Grateful Dead.wav

Peak level 96.6 %
Extraction speed 6.2 X
Track quality 99.9 %
Test CRC AE4CD3B1
Copy CRC AE4CD3B1
Accurately ripped (confidence 8) [A5F89091] (AR v2)
Copy OK


All tracks accurately ripped

No errors occurred

End of status report

–– CUETools DB Plugin V2.1.6

[CTDB TOCID: cOisuN5_3gSm1ug4gP1s77yMIJA-] found
Submit result: already submitted
Track | CTDB Status
1 | (53/53) Accurately ripped
2 | (53/53) Accurately ripped
3 | (53/53) Accurately ripped
4 | (21/53) Accurately ripped, or (31/53) differs in 3543 samples @01:11:04-01:11:10
5 | (21/53) Accurately ripped, or (31/53) differs in 18 samples @30:05:46,30:29:46-30:29:47,30:45:41,30:56:21
If you are sure that your rip contains errors, you can use CUETools to repair it.


==== Log checksum 1A0AC2B0BC202C167AF61B615703AF8B8FDBF1814A07F1AF5400453202347E97 ====
Exact Audio Copy V1.3 from 2. September 2016

EAC extraction logfile from 19. March 2020, 10:27

Grateful Dead / Road Trips Vol. 4 No. 1 Big Rock Pow Wow, FL (Disc 2)

Used drive : PLDS DVD+-RW DU-8A5LH Adapter: 1 ID: 0

Read mode : Secure
Utilize accurate stream : Yes
Defeat audio cache : Yes
Make use of C2 pointers : No

Read offset correction : 6
Overread into Lead-In and Lead-Out : No
Fill up missing offset samples with silence : Yes
Delete leading and trailing silent blocks : No
Null samples used in CRC calculations : Yes
Used interface : Native Win32 interface for Win NT & 2000
Gap handling : Appended to previous track

Used output format : User Defined Encoder
Selected bitrate : 1024 kBit/s
Quality : High
Add ID3 tag : No
Command line compressor : C:/Program Files (x86)/Exact Audio Copy/Flac/flac.exe
Additional command line options : -8 -e -p -V -T "ARTIST=%artist%" -T "TITLE=%title%" -T "ALBUM=%albumtitle%" -T "DATE=%year%" -T "TRACKNUMBER=%tracknr%" -T "GENRE=%genre%" -T "PERFORMER=%albuminterpret%" -T "COMPOSER=%composer%" %haslyrics%–tag-from-file=LYRICS="%lyricsfile%"%haslyrics% -T "ALBUMARTIST=%albumartist%" -T "DISCNUMBER=%cdnumber%" -T "TOTALDISCS=%totalcds%" -T "TOTALTRACKS=%numtracks%" -T "COMMENT=%comment%" %source% -o %dest%


TOC of the extracted CD

Track | Start | Length | Start sector | End sector
––––––––––––––––––––––––––––-
1 | 0:00.00 | 4:26.72 | 0 | 20021
2 | 4:26.72 | 27:25.18 | 20022 | 143414
3 | 31:52.15 | 6:43.20 | 143415 | 173659
4 | 38:35.35 | 8:49.15 | 173660 | 213349
5 | 47:24.50 | 5:24.18 | 213350 | 237667
6 | 52:48.68 | 8:17.24 | 237668 | 274966
7 | 61:06.17 | 6:59.46 | 274967 | 306437


Track 1

Filename C:\Users\onean\Desktop\Grateful Dead - Road Trips Vol. 4 No. 1 (2018) [Flac] {RGM-0762}\Disc 2\01 - Introduction.wav

Pre-gap length 0:00:02.00

Peak level 92.5 %
Extraction speed 1.1 X
Track quality 100.0 %
Test CRC 42BF083F
Copy CRC 42BF083F
Accurately ripped (confidence 8) [F372EDB8] (AR v2)
Copy OK

Track 2

Filename C:\Users\onean\Desktop\Grateful Dead - Road Trips Vol. 4 No. 1 (2018) [Flac] {RGM-0762}\Disc 2\02 - Turn On Your Lovelight.wav

Peak level 96.6 %
Extraction speed 1.7 X
Track quality 100.0 %
Test CRC 6FBF7936
Copy CRC 6FBF7936
Accurately ripped (confidence 8) [4B14EF08] (AR v2)
Copy OK

Track 3

Filename C:\Users\onean\Desktop\Grateful Dead - Road Trips Vol. 4 No. 1 (2018) [Flac] {RGM-0762}\Disc 2\03 - Doin' That Rag.wav

Peak level 96.6 %
Extraction speed 2.0 X
Track quality 100.0 %
Test CRC F5816316
Copy CRC F5816316
Accurately ripped (confidence 8) [8F1260F6] (AR v2)
Copy OK

Track 4

Filename C:\Users\onean\Desktop\Grateful Dead - Road Trips Vol. 4 No. 1 (2018) [Flac] {RGM-0762}\Disc 2\04 - He Was A Friend Of Mine.wav

Peak level 96.6 %
Extraction speed 2.0 X
Track quality 99.9 %
Test CRC 12DFDB7C
Copy CRC 12DFDB7C
Accurately ripped (confidence 8) [1D176DE5] (AR v2)
Copy OK

Track 5

Filename C:\Users\onean\Desktop\Grateful Dead - Road Trips Vol. 4 No. 1 (2018) [Flac] {RGM-0762}\Disc 2\05 - China Cat Sunflower.wav

Peak level 96.6 %
Extraction speed 2.2 X
Track quality 100.0 %
Test CRC E3770687
Copy CRC E3770687
Accurately ripped (confidence 8) [CA149263] (AR v2)
Copy OK

Track 6

Filename C:\Users\onean\Desktop\Grateful Dead - Road Trips Vol. 4 No. 1 (2018) [Flac] {RGM-0762}\Disc 2\06 - The Eleven.wav

Peak level 96.6 %
Extraction speed 2.3 X
Track quality 99.9 %
Test CRC 487837A6
Copy CRC 487837A6
Accurately ripped (confidence 8) [8105EE51] (AR v2)
Copy OK

Track 7

Filename C:\Users\onean\Desktop\Grateful Dead - Road Trips Vol. 4 No. 1 (2018) [Flac] {RGM-0762}\Disc 2\07 - Death Don't Have No Mercy.wav

Peak level 96.6 %
Extraction speed 2.3 X
Track quality 99.9 %
Test CRC 4EEC0F95
Copy CRC 4EEC0F95
Accurately ripped (confidence 8) [C8370B18] (AR v2)
Copy OK


All tracks accurately ripped

No errors occurred

End of status report

–– CUETools DB Plugin V2.1.6

[CTDB TOCID: wBTQwLIWHt4L75KH_U1TFS9.YTs-] found
Submit result: already submitted
Track | CTDB Status
1 | (55/55) Accurately ripped
2 | (55/55) Accurately ripped
3 | (55/55) Accurately ripped
4 | (55/55) Accurately ripped
5 | (22/55) Accurately ripped, or (33/55) differs in 10133 samples @00:18:05-00:18:20
6 | (55/55) Accurately ripped
7 | (55/55) Accurately ripped
If you are sure that your rip contains errors, you can use CUETools to repair it.


==== Log checksum 244EA8AA9F0F507B0D628C3C3FFCB9E6F99E93733196636352BE31C0268A6D8E ====
Exact Audio Copy V1.3 from 2. September 2016

EAC extraction logfile from 19. March 2020, 11:55

Grateful Dead / Road Trips Vol. 4 No. 1 Big Rock Pow Wow, FL (Disc 3)

Used drive : PLDS DVD+-RW DU-8A5LH Adapter: 1 ID: 0

Read mode : Secure
Utilize accurate stream : Yes
Defeat audio cache : Yes
Make use of C2 pointers : No

Read offset correction : 6
Overread into Lead-In and Lead-Out : No
Fill up missing offset samples with silence : Yes
Delete leading and trailing silent blocks : No
Null samples used in CRC calculations : Yes
Used interface : Native Win32 interface for Win NT & 2000
Gap handling : Appended to previous track

Used output format : User Defined Encoder
Selected bitrate : 1024 kBit/s
Quality : High
Add ID3 tag : No
Command line compressor : C:/Program Files (x86)/Exact Audio Copy/Flac/flac.exe
Additional command line options : -8 -e -p -V -T "ARTIST=%artist%" -T "TITLE=%title%" -T "ALBUM=%albumtitle%" -T "DATE=%year%" -T "TRACKNUMBER=%tracknr%" -T "GENRE=%genre%" -T "PERFORMER=%albuminterpret%" -T "COMPOSER=%composer%" %haslyrics%–tag-from-file=LYRICS="%lyricsfile%"%haslyrics% -T "ALBUMARTIST=%albumartist%" -T "DISCNUMBER=%cdnumber%" -T "TOTALDISCS=%totalcds%" -T "TOTALTRACKS=%numtracks%" -T "COMMENT=%comment%" %source% -o %dest%


TOC of the extracted CD

Track | Start | Length | Start sector | End sector
––––––––––––––––––––––––––––-
1 | 0:00.00 | 9:43.73 | 0 | 43797
2 | 9:43.73 | 3:17.49 | 43798 | 58621
3 | 13:01.47 | 3:11.61 | 58622 | 73007
4 | 16:13.33 | 3:59.69 | 73008 | 91001
5 | 20:13.27 | 7:33.21 | 91002 | 124997
6 | 27:46.48 | 5:58.11 | 124998 | 151858
7 | 33:44.59 | 4:17.13 | 151859 | 171146
8 | 38:01.72 | 3:21.65 | 171147 | 186286


Track 1

Filename C:\Users\onean\Desktop\Grateful Dead - Road Trips Vol. 4 No. 1 (2018) [Flac] {RGM-0762}\New folder\01 - Morning Dew.wav

Pre-gap length 0:00:02.00

Peak level 96.6 %
Extraction speed 1.2 X
Track quality 99.9 %
Test CRC 5B896640
Copy CRC 5B896640
Accurately ripped (confidence 8) [4667CB3C] (AR v2)
Copy OK

Track 2

Filename C:\Users\onean\Desktop\Grateful Dead - Road Trips Vol. 4 No. 1 (2018) [Flac] {RGM-0762}\New folder\02 - Me And My Uncle.wav

Peak level 96.6 %
Extraction speed 1.3 X
Track quality 100.0 %
Test CRC FBA7D400
Copy CRC FBA7D400
Accurately ripped (confidence 8) [19E3580E] (AR v2)
Copy OK

Track 3

Filename C:\Users\onean\Desktop\Grateful Dead - Road Trips Vol. 4 No. 1 (2018) [Flac] {RGM-0762}\New folder\03 - Yellow Dog Story.wav

Peak level 96.6 %
Extraction speed 1.4 X
Track quality 100.0 %
Test CRC DDF6141B
Copy CRC DDF6141B
Accurately ripped (confidence 8) [5459C81B] (AR v2)
Copy OK

Track 4

Filename C:\Users\onean\Desktop\Grateful Dead - Road Trips Vol. 4 No. 1 (2018) [Flac] {RGM-0762}\New folder\04 - Alligator }.wav

Peak level 96.6 %
Extraction speed 1.5 X
Track quality 100.0 %
Test CRC 45804D07
Copy CRC 45804D07
Accurately ripped (confidence 8) [88D858E5] (AR v2)
Copy OK

Track 5

Filename C:\Users\onean\Desktop\Grateful Dead - Road Trips Vol. 4 No. 1 (2018) [Flac] {RGM-0762}\New folder\05 - Drums }.wav

Peak level 96.6 %
Extraction speed 1.8 X
Track quality 100.0 %
Test CRC 2DE517A8
Copy CRC 2DE517A8
Accurately ripped (confidence 8) [6A4F49BD] (AR v2)
Copy OK

Track 6

Filename C:\Users\onean\Desktop\Grateful Dead - Road Trips Vol. 4 No. 1 (2018) [Flac] {RGM-0762}\New folder\06 - St. Stephen }.wav

Peak level 96.6 %
Extraction speed 1.9 X
Track quality 100.0 %
Test CRC 0A82B5C2
Copy CRC 0A82B5C2
Accurately ripped (confidence 8) [689383E6] (AR v2)
Copy OK

Track 7

Filename C:\Users\onean\Desktop\Grateful Dead - Road Trips Vol. 4 No. 1 (2018) [Flac] {RGM-0762}\New folder\07 - Feedback }.wav

Peak level 96.6 %
Extraction speed 1.9 X
Track quality 100.0 %
Test CRC 43EFE28C
Copy CRC 43EFE28C
Accurately ripped (confidence 8) [103459A1] (AR v2)
Copy OK

Track 8

Filename C:\Users\onean\Desktop\Grateful Dead - Road Trips Vol. 4 No. 1 (2018) [Flac] {RGM-0762}\New folder\08 - We Bid You Goodnight.wav

Peak level 88.6 %
Extraction speed 1.7 X
Track quality 99.9 %
Test CRC 249D72DF
Copy CRC 249D72DF
Accurately ripped (confidence 8) [BE21AFD0] (AR v2)
Copy OK


All tracks accurately ripped

No errors occurred

End of status report

–– CUETools DB Plugin V2.1.6

[CTDB TOCID: h8uW5qNSbLvzrEwE6jKfDCF5tEk-] found
Submit result: h8uW5qNSbLvzrEwE6jKfDCF5tEk- has been confirmed
Track | CTDB Status
1 | (48/48) Accurately ripped
2 | (48/48) Accurately ripped
3 | (48/48) Accurately ripped
4 | (48/48) Accurately ripped
5 | (48/48) Accurately ripped
6 | (48/48) Accurately ripped
7 | (48/48) Accurately ripped
8 | (48/48) Accurately ripped


==== Log checksum 70445E2959EB76F5E99DD294BC70E87ABD32C9FC5E9EDE6439C073B0405A474E ====

Thanks to the Original ripper !