Subcategories

Grover Washington Jr - Sacred Kind Of Love: The Columbia Recordings (2019)

Posted By: delpotro
Grover Washington Jr - Sacred Kind Of Love: The Columbia Recordings (2019)

Grover Washington Jr - Sacred Kind Of Love: The Columbia Recordings (2019)
EAC Rip | FLAC (tracks+log+.cue) - 2 Gb | MP3 CBR 320 kbps - 787 Mb | Covers included | 05:43:41
Soul-Jazz, Jazz-Funk, Smooth Jazz | Label: SoulMusic Records, Cherry Red Records

SoulMusic Records is very proud to present “Sacred Kind Of Love: The Columbia Recordings,” a 5-disc deluxe box set of six stellar albums, spanning nine years (1987-1996) by legendary saxophonist Grover Washington, Jr., justifiably considered an influential pioneer in fusing jazz, soul, R&B and pop and bringing his distinctive sound to mainstream audiences globally.

After he signed with Columbia Records in 1986, Washington had already established himself as a leader in the genre known as ‘jazz/funk’ thanks to a series of ground breaking albums for Kudu Records (including “Mister Magic” and “Feels So Good”) in the mid-‘70s. The 1980 release of “Winelight,” Washington’s million-selling debut for Elektra Records (which contained the mega-hit ‘Just The Two Of Us’, featuring Bill Withers) marked a state change in the crossover appeal of what became known worldwide as ‘smooth jazz.’

Four of the six albums –STRAWBERRY MOON (1987), TIME OUT OF MIND (1989), NEXT EXIT (1992) and SOULFUL STRUT (1996), his final LP for Columbia – achieved success on the U.S. R&B, jazz and pop charts, while two albums, 1988’s THEN AND NOW (with guest players such as Herbie Hancock, Ron Carter and Grady Tate) and 1994’s ALL MY TOMORROWS (featuring Eddie Henderson, Bobby Watson, Hank Jones, Robin Eubanks and Billy Hart) were both critically acclaimed by audiences demonstrating Grover’s skill as a ‘straight ahead’ jazz musician of the first order.

Various special guest vocal performances by Jean Carne (‘The Look Of Love’, ‘Keep In Touch’), Phyllis Hyman (‘Sacred Kind Of Love’), B.B. King (‘Caught A Touch Of Your Love’), Nancy Wilson (‘Your Love’), Lalah Hathaway (‘Love Like This’) and The Four Tops’ Levi Stubbs (‘Till You Return To Me’) are among the many highlights of Grover’s tenure with Columbia Records along with bonus tracks, ‘Protect The Dream’ (originally released on the CD version of TIME OUT MIND); ‘Every Day A Little Death’, (from the 1995 Sony album, “Color And Light: Jazz Sketches On Sondheim”); ‘Heat Index’ and ‘The Night Fantastic’, both originally included on “Prime Cuts,” a Columbia Records’ compilation released in 1999, the year Grover passed away at the age of 56.
Tracklist:
CD 1
Strawberry Moon
01. Strawberry Moon
02. The Look Of Love
03. Shivaree Ride
04. Caught A Touch Of Your Love
05. Maddie's Blues
06. I Will Be Here For You
07. Monte Carlo Nights
08. Keep In Touch
09. Summer Nights

Then & Now
10. Blues For Dp
11. Just Enough
12. French Connections
13. Something Borrowed, Something Blue
14. Lullaby For Shana Bly

CD 2
Then & Now (Continued)
01. Stolen Moments
02. In A Sentimental Mood
03. Stella By Starlight

Time Out Of Mind
04. Jamaica
05. Gramercy Park
06. Sacred Kind Of Love
07. Brand New Age
08. Fly Away
09. Don't Take You Love From Me
10. Time Out Of Mind
11. Split Second
12. Nice N Easy
13. Unspoken Love
14. Protect The Dream

CD 3
Next Exit
01. Take Five
02. Your Love
03. Only For You (Siempre Para D'sera)
04. Greene Street
05. Next Exit
06. I Miss Home
07. Love Like This
08. Summer Chill
09. Till You Return To Me
10. Get On Up
11. Check Out Grover

All My Tomorrows
12. E Preciso Perdoar
13. When I Fall In Love
14. I'm Glad There Is You
15. Happenstance

CD 4
All My Tomorrows (Continued)
01. All My Tomorrows
02. Nature Boy
03. Please Send Me Someone To Love
04. Overjoyed
05. Flamingo
06. For Heavens Sake
07. Estate
08. Every Day A Little Death

CD 5
Soulful Strut
01. Soulful Strut
02. Can You Stop The Rain
03. Play That Groove For Me
04. Bordertown
05. I Can Count The Times
06. Village Groove
07. Headman's Haunt
08. Poacher Man
09. Mystical Force
10. Uptown
11. Heat Index
12. The Night Fantastic

Exact Audio Copy V1.3 from 2. September 2016

EAC extraction logfile from 21. August 2019, 14:32

Grover Washington Jr. / Sacred Kind Of Love : The Columbia Recordings

Used drive : PLEXTOR PX-891SAF Adapter: 1 ID: 0

Read mode : Secure
Utilize accurate stream : Yes
Defeat audio cache : Yes
Make use of C2 pointers : No

Read offset correction : 6
Overread into Lead-In and Lead-Out : No
Fill up missing offset samples with silence : Yes
Delete leading and trailing silent blocks : No
Null samples used in CRC calculations : Yes
Used interface : Native Win32 interface for Win NT & 2000
Gap handling : Appended to previous track

Used output format : User Defined Encoder
Selected bitrate : 1024 kBit/s
Quality : High
Add ID3 tag : No
Command line compressor : C:\Program Files (x86)\Exact Audio Copy\Flac\flac.exe
Additional command line options : -8 -V -T "ARTIST=%artist%" -T "TITLE=%title%" -T "ALBUM=%albumtitle%" -T "DATE=%year%" -T "TRACKNUMBER=%tracknr%" -T "GENRE=%genre%" -T "PERFORMER=%albuminterpret%" -T "COMPOSER=%composer%" %haslyrics%–tag-from-file=LYRICS="%lyricsfile%"%haslyrics% -T "ALBUMARTIST=%albumartist%" -T "DISCNUMBER=%cdnumber%" -T "TOTALDISCS=%totalcds%" -T "TOTALTRACKS=%numtracks%" -T "COMMENT=%comment%" %source% -o %dest%


TOC of the extracted CD

Track | Start | Length | Start sector | End sector
––––––––––––––––––––––––––––-
1 | 0:00.00 | 4:21.50 | 0 | 19624
2 | 4:21.50 | 4:38.16 | 19625 | 40490
3 | 8:59.66 | 4:43.04 | 40491 | 61719
4 | 13:42.70 | 5:08.72 | 61720 | 84891
5 | 18:51.67 | 2:46.17 | 84892 | 97358
6 | 21:38.09 | 5:30.59 | 97359 | 122167
7 | 27:08.68 | 5:50.21 | 122168 | 148438
8 | 32:59.14 | 4:25.37 | 148439 | 168350
9 | 37:24.51 | 6:14.22 | 168351 | 196422
10 | 43:38.73 | 8:28.41 | 196423 | 234563
11 | 52:07.39 | 5:42.41 | 234564 | 260254
12 | 57:50.05 | 7:01.58 | 260255 | 291887
13 | 64:51.63 | 7:57.33 | 291888 | 327695
14 | 72:49.21 | 6:09.15 | 327696 | 355385


Track 1

Filename D:\#New Wav + flac\#cdr\Grover Washington Jr. - Sacred Kind Of Love - The Columbia Recordings\cd 1 Grover Washington Jr - Strawberry Moon ; Then & Now (1)\01. Grover Washington Jr. - Strawberry Moon.wav

Pre-gap length 0:00:02.00

Peak level 95.4 %
Extraction speed 5.8 X
Track quality 100.0 %
Test CRC 83DE393E
Copy CRC 83DE393E
Track not present in AccurateRip database
Copy OK

Track 2

Filename D:\#New Wav + flac\#cdr\Grover Washington Jr. - Sacred Kind Of Love - The Columbia Recordings\cd 1 Grover Washington Jr - Strawberry Moon ; Then & Now (1)\02. Grover Washington Jr. feat. Jean Carne - The Look Of Love.wav

Pre-gap length 0:00:01.60

Peak level 95.5 %
Extraction speed 5.5 X
Track quality 99.9 %
Test CRC 0FFB5D9B
Copy CRC 0FFB5D9B
Track not present in AccurateRip database
Copy OK

Track 3

Filename D:\#New Wav + flac\#cdr\Grover Washington Jr. - Sacred Kind Of Love - The Columbia Recordings\cd 1 Grover Washington Jr - Strawberry Moon ; Then & Now (1)\03. Grover Washington Jr. - Shivaree Ride.wav

Pre-gap length 0:00:02.25

Peak level 95.4 %
Extraction speed 7.1 X
Track quality 100.0 %
Test CRC 6D0000CA
Copy CRC 6D0000CA
Track not present in AccurateRip database
Copy OK

Track 4

Filename D:\#New Wav + flac\#cdr\Grover Washington Jr. - Sacred Kind Of Love - The Columbia Recordings\cd 1 Grover Washington Jr - Strawberry Moon ; Then & Now (1)\04. Grover Washington Jr. feat. BB King - Caught A Touch Of Your Love.wav

Pre-gap length 0:00:01.92

Peak level 95.5 %
Extraction speed 7.7 X
Track quality 100.0 %
Test CRC 9C2F1477
Copy CRC 9C2F1477
Track not present in AccurateRip database
Copy OK

Track 5

Filename D:\#New Wav + flac\#cdr\Grover Washington Jr. - Sacred Kind Of Love - The Columbia Recordings\cd 1 Grover Washington Jr - Strawberry Moon ; Then & Now (1)\05. Grover Washington Jr. - Maddie's Blues.wav

Pre-gap length 0:00:02.32

Peak level 95.4 %
Extraction speed 7.5 X
Track quality 100.0 %
Test CRC 6F6C5006
Copy CRC 6F6C5006
Track not present in AccurateRip database
Copy OK

Track 6

Filename D:\#New Wav + flac\#cdr\Grover Washington Jr. - Sacred Kind Of Love - The Columbia Recordings\cd 1 Grover Washington Jr - Strawberry Moon ; Then & Now (1)\06. Grover Washington Jr. - I Will Be Here For You.wav

Pre-gap length 0:00:02.06

Peak level 95.5 %
Extraction speed 8.6 X
Track quality 100.0 %
Test CRC F218400A
Copy CRC F218400A
Track not present in AccurateRip database
Copy OK

Track 7

Filename D:\#New Wav + flac\#cdr\Grover Washington Jr. - Sacred Kind Of Love - The Columbia Recordings\cd 1 Grover Washington Jr - Strawberry Moon ; Then & Now (1)\07. Grover Washington Jr. feat. Spencer Harrison - Monte Carlo Nights.wav

Pre-gap length 0:00:02.09

Peak level 95.5 %
Extraction speed 8.0 X
Track quality 99.9 %
Test CRC AB7F88AC
Copy CRC AB7F88AC
Track not present in AccurateRip database
Copy OK

Track 8

Filename D:\#New Wav + flac\#cdr\Grover Washington Jr. - Sacred Kind Of Love - The Columbia Recordings\cd 1 Grover Washington Jr - Strawberry Moon ; Then & Now (1)\08. Grover Washington Jr. - Keep In Touch.wav

Pre-gap length 0:00:02.26

Peak level 95.4 %
Extraction speed 9.4 X
Track quality 100.0 %
Test CRC E4C9DB1B
Copy CRC E4C9DB1B
Track not present in AccurateRip database
Copy OK

Track 9

Filename D:\#New Wav + flac\#cdr\Grover Washington Jr. - Sacred Kind Of Love - The Columbia Recordings\cd 1 Grover Washington Jr - Strawberry Moon ; Then & Now (1)\09. Grover Washington Jr. - Summer Nights.wav

Pre-gap length 0:00:01.57

Peak level 95.4 %
Extraction speed 10.1 X
Track quality 100.0 %
Test CRC 063F96A1
Copy CRC 063F96A1
Track not present in AccurateRip database
Copy OK

Track 10

Filename D:\#New Wav + flac\#cdr\Grover Washington Jr. - Sacred Kind Of Love - The Columbia Recordings\cd 1 Grover Washington Jr - Strawberry Moon ; Then & Now (1)\10. Grover Washington Jr. - Blues For DP.wav

Pre-gap length 0:00:01.86

Peak level 95.5 %
Extraction speed 10.9 X
Track quality 100.0 %
Test CRC 86FB288D
Copy CRC 86FB288D
Track not present in AccurateRip database
Copy OK

Track 11

Filename D:\#New Wav + flac\#cdr\Grover Washington Jr. - Sacred Kind Of Love - The Columbia Recordings\cd 1 Grover Washington Jr - Strawberry Moon ; Then & Now (1)\11. Grover Washington Jr. - Just Enough.wav

Pre-gap length 0:00:02.10

Peak level 95.4 %
Extraction speed 11.1 X
Track quality 100.0 %
Test CRC B18A481D
Copy CRC B18A481D
Track not present in AccurateRip database
Copy OK

Track 12

Filename D:\#New Wav + flac\#cdr\Grover Washington Jr. - Sacred Kind Of Love - The Columbia Recordings\cd 1 Grover Washington Jr - Strawberry Moon ; Then & Now (1)\12. Grover Washington Jr. - French Connections.wav

Pre-gap length 0:00:02.16

Peak level 95.4 %
Extraction speed 11.7 X
Track quality 100.0 %
Test CRC C3AC73AE
Copy CRC C3AC73AE
Track not present in AccurateRip database
Copy OK

Track 13

Filename D:\#New Wav + flac\#cdr\Grover Washington Jr. - Sacred Kind Of Love - The Columbia Recordings\cd 1 Grover Washington Jr - Strawberry Moon ; Then & Now (1)\13. Grover Washington Jr. - Something Borrowed, Something Blue.wav

Pre-gap length 0:00:02.25

Peak level 95.5 %
Extraction speed 10.0 X
Track quality 99.9 %
Test CRC 2F0401BB
Copy CRC 2F0401BB
Track not present in AccurateRip database
Copy OK

Track 14

Filename D:\#New Wav + flac\#cdr\Grover Washington Jr. - Sacred Kind Of Love - The Columbia Recordings\cd 1 Grover Washington Jr - Strawberry Moon ; Then & Now (1)\14. Grover Washington Jr. - Lullaby For Shana Bly.wav

Pre-gap length 0:00:02.40

Peak level 95.5 %
Extraction speed 10.4 X
Track quality 99.9 %
Test CRC 286288C5
Copy CRC 286288C5
Track not present in AccurateRip database
Copy OK


None of the tracks are present in the AccurateRip database

No errors occurred

End of status report

–– CUETools DB Plugin V2.1.6

[CTDB TOCID: 5z32TgepWgCh.v3sXqB7WX12ZoE-] disk not present in database
Submit result: 5z32TgepWgCh.v3sXqB7WX12ZoE- has been uploaded


==== Log checksum 79508F6DFAFFA0D036757F68BD2955A93D6979A7A661A92ED5843C0A9E465963 ====

––––––––––––––––––––––––––––––

Exact Audio Copy V1.3 from 2. September 2016

EAC extraction logfile from 21. August 2019, 14:32

Grover Washington Jr. / Sacred Kind Of Love : The Columbia Recordings

Used drive : PLEXTOR PX-891SAF Adapter: 1 ID: 0

Read mode : Secure
Utilize accurate stream : Yes
Defeat audio cache : Yes
Make use of C2 pointers : No

Read offset correction : 6
Overread into Lead-In and Lead-Out : No
Fill up missing offset samples with silence : Yes
Delete leading and trailing silent blocks : No
Null samples used in CRC calculations : Yes
Used interface : Native Win32 interface for Win NT & 2000
Gap handling : Appended to previous track

Used output format : User Defined Encoder
Selected bitrate : 1024 kBit/s
Quality : High
Add ID3 tag : No
Command line compressor : C:\Program Files (x86)\Exact Audio Copy\Flac\flac.exe
Additional command line options : -8 -V -T "ARTIST=%artist%" -T "TITLE=%title%" -T "ALBUM=%albumtitle%" -T "DATE=%year%" -T "TRACKNUMBER=%tracknr%" -T "GENRE=%genre%" -T "PERFORMER=%albuminterpret%" -T "COMPOSER=%composer%" %haslyrics%–tag-from-file=LYRICS="%lyricsfile%"%haslyrics% -T "ALBUMARTIST=%albumartist%" -T "DISCNUMBER=%cdnumber%" -T "TOTALDISCS=%totalcds%" -T "TOTALTRACKS=%numtracks%" -T "COMMENT=%comment%" %source% -o %dest%


TOC of the extracted CD

Track | Start | Length | Start sector | End sector
––––––––––––––––––––––––––––-
1 | 0:00.00 | 4:21.50 | 0 | 19624
2 | 4:21.50 | 4:38.16 | 19625 | 40490
3 | 8:59.66 | 4:43.04 | 40491 | 61719
4 | 13:42.70 | 5:08.72 | 61720 | 84891
5 | 18:51.67 | 2:46.17 | 84892 | 97358
6 | 21:38.09 | 5:30.59 | 97359 | 122167
7 | 27:08.68 | 5:50.21 | 122168 | 148438
8 | 32:59.14 | 4:25.37 | 148439 | 168350
9 | 37:24.51 | 6:14.22 | 168351 | 196422
10 | 43:38.73 | 8:28.41 | 196423 | 234563
11 | 52:07.39 | 5:42.41 | 234564 | 260254
12 | 57:50.05 | 7:01.58 | 260255 | 291887
13 | 64:51.63 | 7:57.33 | 291888 | 327695
14 | 72:49.21 | 6:09.15 | 327696 | 355385


Track 1

Filename D:\#New Wav + flac\#cdr\Grover Washington Jr. - Sacred Kind Of Love - The Columbia Recordings\cd 1 Grover Washington Jr - Strawberry Moon ; Then & Now (1)\01. Grover Washington Jr. - Strawberry Moon.wav

Pre-gap length 0:00:02.00

Peak level 95.4 %
Extraction speed 5.8 X
Track quality 100.0 %
Test CRC 83DE393E
Copy CRC 83DE393E
Track not present in AccurateRip database
Copy OK

Track 2

Filename D:\#New Wav + flac\#cdr\Grover Washington Jr. - Sacred Kind Of Love - The Columbia Recordings\cd 1 Grover Washington Jr - Strawberry Moon ; Then & Now (1)\02. Grover Washington Jr. feat. Jean Carne - The Look Of Love.wav

Pre-gap length 0:00:01.60

Peak level 95.5 %
Extraction speed 5.5 X
Track quality 99.9 %
Test CRC 0FFB5D9B
Copy CRC 0FFB5D9B
Track not present in AccurateRip database
Copy OK

Track 3

Filename D:\#New Wav + flac\#cdr\Grover Washington Jr. - Sacred Kind Of Love - The Columbia Recordings\cd 1 Grover Washington Jr - Strawberry Moon ; Then & Now (1)\03. Grover Washington Jr. - Shivaree Ride.wav

Pre-gap length 0:00:02.25

Peak level 95.4 %
Extraction speed 7.1 X
Track quality 100.0 %
Test CRC 6D0000CA
Copy CRC 6D0000CA
Track not present in AccurateRip database
Copy OK

Track 4

Filename D:\#New Wav + flac\#cdr\Grover Washington Jr. - Sacred Kind Of Love - The Columbia Recordings\cd 1 Grover Washington Jr - Strawberry Moon ; Then & Now (1)\04. Grover Washington Jr. feat. BB King - Caught A Touch Of Your Love.wav

Pre-gap length 0:00:01.92

Peak level 95.5 %
Extraction speed 7.7 X
Track quality 100.0 %
Test CRC 9C2F1477
Copy CRC 9C2F1477
Track not present in AccurateRip database
Copy OK

Track 5

Filename D:\#New Wav + flac\#cdr\Grover Washington Jr. - Sacred Kind Of Love - The Columbia Recordings\cd 1 Grover Washington Jr - Strawberry Moon ; Then & Now (1)\05. Grover Washington Jr. - Maddie's Blues.wav

Pre-gap length 0:00:02.32

Peak level 95.4 %
Extraction speed 7.5 X
Track quality 100.0 %
Test CRC 6F6C5006
Copy CRC 6F6C5006
Track not present in AccurateRip database
Copy OK

Track 6

Filename D:\#New Wav + flac\#cdr\Grover Washington Jr. - Sacred Kind Of Love - The Columbia Recordings\cd 1 Grover Washington Jr - Strawberry Moon ; Then & Now (1)\06. Grover Washington Jr. - I Will Be Here For You.wav

Pre-gap length 0:00:02.06

Peak level 95.5 %
Extraction speed 8.6 X
Track quality 100.0 %
Test CRC F218400A
Copy CRC F218400A
Track not present in AccurateRip database
Copy OK

Track 7

Filename D:\#New Wav + flac\#cdr\Grover Washington Jr. - Sacred Kind Of Love - The Columbia Recordings\cd 1 Grover Washington Jr - Strawberry Moon ; Then & Now (1)\07. Grover Washington Jr. feat. Spencer Harrison - Monte Carlo Nights.wav

Pre-gap length 0:00:02.09

Peak level 95.5 %
Extraction speed 8.0 X
Track quality 99.9 %
Test CRC AB7F88AC
Copy CRC AB7F88AC
Track not present in AccurateRip database
Copy OK

Track 8

Filename D:\#New Wav + flac\#cdr\Grover Washington Jr. - Sacred Kind Of Love - The Columbia Recordings\cd 1 Grover Washington Jr - Strawberry Moon ; Then & Now (1)\08. Grover Washington Jr. - Keep In Touch.wav

Pre-gap length 0:00:02.26

Peak level 95.4 %
Extraction speed 9.4 X
Track quality 100.0 %
Test CRC E4C9DB1B
Copy CRC E4C9DB1B
Track not present in AccurateRip database
Copy OK

Track 9

Filename D:\#New Wav + flac\#cdr\Grover Washington Jr. - Sacred Kind Of Love - The Columbia Recordings\cd 1 Grover Washington Jr - Strawberry Moon ; Then & Now (1)\09. Grover Washington Jr. - Summer Nights.wav

Pre-gap length 0:00:01.57

Peak level 95.4 %
Extraction speed 10.1 X
Track quality 100.0 %
Test CRC 063F96A1
Copy CRC 063F96A1
Track not present in AccurateRip database
Copy OK

Track 10

Filename D:\#New Wav + flac\#cdr\Grover Washington Jr. - Sacred Kind Of Love - The Columbia Recordings\cd 1 Grover Washington Jr - Strawberry Moon ; Then & Now (1)\10. Grover Washington Jr. - Blues For DP.wav

Pre-gap length 0:00:01.86

Peak level 95.5 %
Extraction speed 10.9 X
Track quality 100.0 %
Test CRC 86FB288D
Copy CRC 86FB288D
Track not present in AccurateRip database
Copy OK

Track 11

Filename D:\#New Wav + flac\#cdr\Grover Washington Jr. - Sacred Kind Of Love - The Columbia Recordings\cd 1 Grover Washington Jr - Strawberry Moon ; Then & Now (1)\11. Grover Washington Jr. - Just Enough.wav

Pre-gap length 0:00:02.10

Peak level 95.4 %
Extraction speed 11.1 X
Track quality 100.0 %
Test CRC B18A481D
Copy CRC B18A481D
Track not present in AccurateRip database
Copy OK

Track 12

Filename D:\#New Wav + flac\#cdr\Grover Washington Jr. - Sacred Kind Of Love - The Columbia Recordings\cd 1 Grover Washington Jr - Strawberry Moon ; Then & Now (1)\12. Grover Washington Jr. - French Connections.wav

Pre-gap length 0:00:02.16

Peak level 95.4 %
Extraction speed 11.7 X
Track quality 100.0 %
Test CRC C3AC73AE
Copy CRC C3AC73AE
Track not present in AccurateRip database
Copy OK

Track 13

Filename D:\#New Wav + flac\#cdr\Grover Washington Jr. - Sacred Kind Of Love - The Columbia Recordings\cd 1 Grover Washington Jr - Strawberry Moon ; Then & Now (1)\13. Grover Washington Jr. - Something Borrowed, Something Blue.wav

Pre-gap length 0:00:02.25

Peak level 95.5 %
Extraction speed 10.0 X
Track quality 99.9 %
Test CRC 2F0401BB
Copy CRC 2F0401BB
Track not present in AccurateRip database
Copy OK

Track 14

Filename D:\#New Wav + flac\#cdr\Grover Washington Jr. - Sacred Kind Of Love - The Columbia Recordings\cd 1 Grover Washington Jr - Strawberry Moon ; Then & Now (1)\14. Grover Washington Jr. - Lullaby For Shana Bly.wav

Pre-gap length 0:00:02.40

Peak level 95.5 %
Extraction speed 10.4 X
Track quality 99.9 %
Test CRC 286288C5
Copy CRC 286288C5
Track not present in AccurateRip database
Copy OK


None of the tracks are present in the AccurateRip database

No errors occurred

End of status report

–– CUETools DB Plugin V2.1.6

[CTDB TOCID: 5z32TgepWgCh.v3sXqB7WX12ZoE-] disk not present in database
Submit result: 5z32TgepWgCh.v3sXqB7WX12ZoE- has been uploaded


==== Log checksum 79508F6DFAFFA0D036757F68BD2955A93D6979A7A661A92ED5843C0A9E465963 ====
Exact Audio Copy V1.3 from 2. September 2016

EAC extraction logfile from 21. August 2019, 15:43

Grover Washington Jr. / Sacred Kind Of Love : The Columbia Recordings

Used drive : PLEXTOR PX-891SAF Adapter: 1 ID: 0

Read mode : Secure
Utilize accurate stream : Yes
Defeat audio cache : Yes
Make use of C2 pointers : No

Read offset correction : 6
Overread into Lead-In and Lead-Out : No
Fill up missing offset samples with silence : Yes
Delete leading and trailing silent blocks : No
Null samples used in CRC calculations : Yes
Used interface : Native Win32 interface for Win NT & 2000
Gap handling : Appended to previous track

Used output format : User Defined Encoder
Selected bitrate : 1024 kBit/s
Quality : High
Add ID3 tag : No
Command line compressor : C:\Program Files (x86)\Exact Audio Copy\Flac\flac.exe
Additional command line options : -8 -V -T "ARTIST=%artist%" -T "TITLE=%title%" -T "ALBUM=%albumtitle%" -T "DATE=%year%" -T "TRACKNUMBER=%tracknr%" -T "GENRE=%genre%" -T "PERFORMER=%albuminterpret%" -T "COMPOSER=%composer%" %haslyrics%–tag-from-file=LYRICS="%lyricsfile%"%haslyrics% -T "ALBUMARTIST=%albumartist%" -T "DISCNUMBER=%cdnumber%" -T "TOTALDISCS=%totalcds%" -T "TOTALTRACKS=%numtracks%" -T "COMMENT=%comment%" %source% -o %dest%


TOC of the extracted CD

Track | Start | Length | Start sector | End sector
––––––––––––––––––––––––––––-
1 | 0:00.00 | 7:23.08 | 0 | 33232
2 | 7:23.08 | 7:02.00 | 33233 | 64882
3 | 14:25.08 | 6:41.59 | 64883 | 95016
4 | 21:06.67 | 4:41.71 | 95017 | 116162
5 | 25:48.63 | 3:53.02 | 116163 | 133639
6 | 29:41.65 | 5:39.52 | 133640 | 159116
7 | 35:21.42 | 5:20.00 | 159117 | 183116
8 | 40:41.42 | 5:29.14 | 183117 | 207805
9 | 46:10.56 | 4:27.13 | 207806 | 227843
10 | 50:37.69 | 5:04.03 | 227844 | 250646
11 | 55:41.72 | 4:27.70 | 250647 | 270741
12 | 60:09.67 | 6:03.16 | 270742 | 297982
13 | 66:13.08 | 5:07.73 | 297983 | 321080
14 | 71:21.06 | 5:57.26 | 321081 | 347881


Track 1

Filename D:\#New Wav + flac\#cdr\Grover Washington Jr. - Sacred Kind Of Love - The Columbia Recordings\cd 2 Grover Washington Jr - Then & Now (2) ; Time Out Of Mind\01. Grover Washington Jr. - Stolen Moments.wav

Pre-gap length 0:00:02.00

Peak level 95.5 %
Extraction speed 6.1 X
Track quality 100.0 %
Test CRC 69C4DDDD
Copy CRC 69C4DDDD
Track not present in AccurateRip database
Copy OK

Track 2

Filename D:\#New Wav + flac\#cdr\Grover Washington Jr. - Sacred Kind Of Love - The Columbia Recordings\cd 2 Grover Washington Jr - Then & Now (2) ; Time Out Of Mind\02. Grover Washington Jr. - In A Sentimental Mood.wav

Pre-gap length 0:00:02.09

Peak level 95.5 %
Extraction speed 6.9 X
Track quality 100.0 %
Test CRC D913CEFB
Copy CRC D913CEFB
Track not present in AccurateRip database
Copy OK

Track 3

Filename D:\#New Wav + flac\#cdr\Grover Washington Jr. - Sacred Kind Of Love - The Columbia Recordings\cd 2 Grover Washington Jr - Then & Now (2) ; Time Out Of Mind\03. Grover Washington Jr. - Stella By Starlight.wav

Pre-gap length 0:00:02.13

Peak level 95.4 %
Extraction speed 7.7 X
Track quality 100.0 %
Test CRC E5E473E6
Copy CRC E5E473E6
Track not present in AccurateRip database
Copy OK

Track 4

Filename D:\#New Wav + flac\#cdr\Grover Washington Jr. - Sacred Kind Of Love - The Columbia Recordings\cd 2 Grover Washington Jr - Then & Now (2) ; Time Out Of Mind\04. Grover Washington Jr. - Jamaica.wav

Pre-gap length 0:00:02.17

Peak level 95.5 %
Extraction speed 7.9 X
Track quality 100.0 %
Test CRC 657F82DE
Copy CRC 657F82DE
Track not present in AccurateRip database
Copy OK

Track 5

Filename D:\#New Wav + flac\#cdr\Grover Washington Jr. - Sacred Kind Of Love - The Columbia Recordings\cd 2 Grover Washington Jr - Then & Now (2) ; Time Out Of Mind\05. Grover Washington Jr. - Gramercy Park.wav

Pre-gap length 0:00:02.00

Peak level 95.4 %
Extraction speed 6.5 X
Track quality 99.9 %
Test CRC 02043C23
Copy CRC 02043C23
Track not present in AccurateRip database
Copy OK

Track 6

Filename D:\#New Wav + flac\#cdr\Grover Washington Jr. - Sacred Kind Of Love - The Columbia Recordings\cd 2 Grover Washington Jr - Then & Now (2) ; Time Out Of Mind\06. Grover Washington Jr. - Sacred Kind Of Love.wav

Pre-gap length 0:00:01.96

Peak level 86.4 %
Extraction speed 8.8 X
Track quality 100.0 %
Test CRC 681E0793
Copy CRC 681E0793
Track not present in AccurateRip database
Copy OK

Track 7

Filename D:\#New Wav + flac\#cdr\Grover Washington Jr. - Sacred Kind Of Love - The Columbia Recordings\cd 2 Grover Washington Jr - Then & Now (2) ; Time Out Of Mind\07. Grover Washington Jr. - Brand New Age.wav

Pre-gap length 0:00:01.97

Peak level 95.4 %
Extraction speed 7.9 X
Track quality 99.9 %
Test CRC 7D3B5FB7
Copy CRC 7D3B5FB7
Track not present in AccurateRip database
Copy OK

Track 8

Filename D:\#New Wav + flac\#cdr\Grover Washington Jr. - Sacred Kind Of Love - The Columbia Recordings\cd 2 Grover Washington Jr - Then & Now (2) ; Time Out Of Mind\08. Grover Washington Jr. - Fly Away.wav

Pre-gap length 0:00:01.97

Peak level 92.6 %
Extraction speed 9.5 X
Track quality 100.0 %
Test CRC E60D6E53
Copy CRC E60D6E53
Track not present in AccurateRip database
Copy OK

Track 9

Filename D:\#New Wav + flac\#cdr\Grover Washington Jr. - Sacred Kind Of Love - The Columbia Recordings\cd 2 Grover Washington Jr - Then & Now (2) ; Time Out Of Mind\09. Grover Washington Jr. - Don't Take You Love From Me.wav

Pre-gap length 0:00:01.97

Peak level 94.9 %
Extraction speed 9.6 X
Track quality 100.0 %
Test CRC CD85F5E7
Copy CRC CD85F5E7
Track not present in AccurateRip database
Copy OK

Track 10

Filename D:\#New Wav + flac\#cdr\Grover Washington Jr. - Sacred Kind Of Love - The Columbia Recordings\cd 2 Grover Washington Jr - Then & Now (2) ; Time Out Of Mind\10. Grover Washington Jr. - Time Out Of Mind.wav

Pre-gap length 0:00:02.13

Peak level 95.4 %
Extraction speed 10.2 X
Track quality 100.0 %
Test CRC CCAA4C6A
Copy CRC CCAA4C6A
Track not present in AccurateRip database
Copy OK

Track 11

Filename D:\#New Wav + flac\#cdr\Grover Washington Jr. - Sacred Kind Of Love - The Columbia Recordings\cd 2 Grover Washington Jr - Then & Now (2) ; Time Out Of Mind\11. Grover Washington Jr. - Split Second.wav

Pre-gap length 0:00:02.09

Peak level 95.4 %
Extraction speed 8.6 X
Track quality 99.9 %
Test CRC C7380151
Copy CRC C7380151
Track not present in AccurateRip database
Copy OK

Track 12

Filename D:\#New Wav + flac\#cdr\Grover Washington Jr. - Sacred Kind Of Love - The Columbia Recordings\cd 2 Grover Washington Jr - Then & Now (2) ; Time Out Of Mind\12. Grover Washington Jr. - Nice N Easy.wav

Pre-gap length 0:00:01.96

Peak level 87.2 %
Extraction speed 9.5 X
Track quality 99.9 %
Test CRC FCADBB65
Copy CRC FCADBB65
Track not present in AccurateRip database
Copy OK

Track 13

Filename D:\#New Wav + flac\#cdr\Grover Washington Jr. - Sacred Kind Of Love - The Columbia Recordings\cd 2 Grover Washington Jr - Then & Now (2) ; Time Out Of Mind\13. Grover Washington Jr. - Unspoken Love.wav

Pre-gap length 0:00:01.89

Peak level 95.3 %
Extraction speed 11.0 X
Track quality 100.0 %
Test CRC 34E71602
Copy CRC 34E71602
Track not present in AccurateRip database
Copy OK

Track 14

Filename D:\#New Wav + flac\#cdr\Grover Washington Jr. - Sacred Kind Of Love - The Columbia Recordings\cd 2 Grover Washington Jr - Then & Now (2) ; Time Out Of Mind\14. Grover Washington Jr. - Protect The Dream.wav

Pre-gap length 0:00:01.65

Peak level 95.2 %
Extraction speed 11.5 X
Track quality 100.0 %
Test CRC A8A551DE
Copy CRC A8A551DE
Track not present in AccurateRip database
Copy OK


None of the tracks are present in the AccurateRip database

No errors occurred

End of status report

–– CUETools DB Plugin V2.1.6

[CTDB TOCID: zgvJxvShuhpGMFx7yt8H86K04pc-] disk not present in database
Submit result: zgvJxvShuhpGMFx7yt8H86K04pc- has been uploaded


==== Log checksum 970322A3D0C9C01AA6C2BB6AF0D483400580AEF025484E9F3DB292664FF61B9E ====

––––––––––––––––––––––––––––––

Exact Audio Copy V1.3 from 2. September 2016

EAC extraction logfile from 21. August 2019, 15:43

Grover Washington Jr. / Sacred Kind Of Love : The Columbia Recordings

Used drive : PLEXTOR PX-891SAF Adapter: 1 ID: 0

Read mode : Secure
Utilize accurate stream : Yes
Defeat audio cache : Yes
Make use of C2 pointers : No

Read offset correction : 6
Overread into Lead-In and Lead-Out : No
Fill up missing offset samples with silence : Yes
Delete leading and trailing silent blocks : No
Null samples used in CRC calculations : Yes
Used interface : Native Win32 interface for Win NT & 2000
Gap handling : Appended to previous track

Used output format : User Defined Encoder
Selected bitrate : 1024 kBit/s
Quality : High
Add ID3 tag : No
Command line compressor : C:\Program Files (x86)\Exact Audio Copy\Flac\flac.exe
Additional command line options : -8 -V -T "ARTIST=%artist%" -T "TITLE=%title%" -T "ALBUM=%albumtitle%" -T "DATE=%year%" -T "TRACKNUMBER=%tracknr%" -T "GENRE=%genre%" -T "PERFORMER=%albuminterpret%" -T "COMPOSER=%composer%" %haslyrics%–tag-from-file=LYRICS="%lyricsfile%"%haslyrics% -T "ALBUMARTIST=%albumartist%" -T "DISCNUMBER=%cdnumber%" -T "TOTALDISCS=%totalcds%" -T "TOTALTRACKS=%numtracks%" -T "COMMENT=%comment%" %source% -o %dest%


TOC of the extracted CD

Track | Start | Length | Start sector | End sector
––––––––––––––––––––––––––––-
1 | 0:00.00 | 7:23.08 | 0 | 33232
2 | 7:23.08 | 7:02.00 | 33233 | 64882
3 | 14:25.08 | 6:41.59 | 64883 | 95016
4 | 21:06.67 | 4:41.71 | 95017 | 116162
5 | 25:48.63 | 3:53.02 | 116163 | 133639
6 | 29:41.65 | 5:39.52 | 133640 | 159116
7 | 35:21.42 | 5:20.00 | 159117 | 183116
8 | 40:41.42 | 5:29.14 | 183117 | 207805
9 | 46:10.56 | 4:27.13 | 207806 | 227843
10 | 50:37.69 | 5:04.03 | 227844 | 250646
11 | 55:41.72 | 4:27.70 | 250647 | 270741
12 | 60:09.67 | 6:03.16 | 270742 | 297982
13 | 66:13.08 | 5:07.73 | 297983 | 321080
14 | 71:21.06 | 5:57.26 | 321081 | 347881


Track 1

Filename D:\#New Wav + flac\#cdr\Grover Washington Jr. - Sacred Kind Of Love - The Columbia Recordings\cd 2 Grover Washington Jr - Then & Now (2) ; Time Out Of Mind\01. Grover Washington Jr. - Stolen Moments.wav

Pre-gap length 0:00:02.00

Peak level 95.5 %
Extraction speed 6.1 X
Track quality 100.0 %
Test CRC 69C4DDDD
Copy CRC 69C4DDDD
Track not present in AccurateRip database
Copy OK

Track 2

Filename D:\#New Wav + flac\#cdr\Grover Washington Jr. - Sacred Kind Of Love - The Columbia Recordings\cd 2 Grover Washington Jr - Then & Now (2) ; Time Out Of Mind\02. Grover Washington Jr. - In A Sentimental Mood.wav

Pre-gap length 0:00:02.09

Peak level 95.5 %
Extraction speed 6.9 X
Track quality 100.0 %
Test CRC D913CEFB
Copy CRC D913CEFB
Track not present in AccurateRip database
Copy OK

Track 3

Filename D:\#New Wav + flac\#cdr\Grover Washington Jr. - Sacred Kind Of Love - The Columbia Recordings\cd 2 Grover Washington Jr - Then & Now (2) ; Time Out Of Mind\03. Grover Washington Jr. - Stella By Starlight.wav

Pre-gap length 0:00:02.13

Peak level 95.4 %
Extraction speed 7.7 X
Track quality 100.0 %
Test CRC E5E473E6
Copy CRC E5E473E6
Track not present in AccurateRip database
Copy OK

Track 4

Filename D:\#New Wav + flac\#cdr\Grover Washington Jr. - Sacred Kind Of Love - The Columbia Recordings\cd 2 Grover Washington Jr - Then & Now (2) ; Time Out Of Mind\04. Grover Washington Jr. - Jamaica.wav

Pre-gap length 0:00:02.17

Peak level 95.5 %
Extraction speed 7.9 X
Track quality 100.0 %
Test CRC 657F82DE
Copy CRC 657F82DE
Track not present in AccurateRip database
Copy OK

Track 5

Filename D:\#New Wav + flac\#cdr\Grover Washington Jr. - Sacred Kind Of Love - The Columbia Recordings\cd 2 Grover Washington Jr - Then & Now (2) ; Time Out Of Mind\05. Grover Washington Jr. - Gramercy Park.wav

Pre-gap length 0:00:02.00

Peak level 95.4 %
Extraction speed 6.5 X
Track quality 99.9 %
Test CRC 02043C23
Copy CRC 02043C23
Track not present in AccurateRip database
Copy OK

Track 6

Filename D:\#New Wav + flac\#cdr\Grover Washington Jr. - Sacred Kind Of Love - The Columbia Recordings\cd 2 Grover Washington Jr - Then & Now (2) ; Time Out Of Mind\06. Grover Washington Jr. - Sacred Kind Of Love.wav

Pre-gap length 0:00:01.96

Peak level 86.4 %
Extraction speed 8.8 X
Track quality 100.0 %
Test CRC 681E0793
Copy CRC 681E0793
Track not present in AccurateRip database
Copy OK

Track 7

Filename D:\#New Wav + flac\#cdr\Grover Washington Jr. - Sacred Kind Of Love - The Columbia Recordings\cd 2 Grover Washington Jr - Then & Now (2) ; Time Out Of Mind\07. Grover Washington Jr. - Brand New Age.wav

Pre-gap length 0:00:01.97

Peak level 95.4 %
Extraction speed 7.9 X
Track quality 99.9 %
Test CRC 7D3B5FB7
Copy CRC 7D3B5FB7
Track not present in AccurateRip database
Copy OK

Track 8

Filename D:\#New Wav + flac\#cdr\Grover Washington Jr. - Sacred Kind Of Love - The Columbia Recordings\cd 2 Grover Washington Jr - Then & Now (2) ; Time Out Of Mind\08. Grover Washington Jr. - Fly Away.wav

Pre-gap length 0:00:01.97

Peak level 92.6 %
Extraction speed 9.5 X
Track quality 100.0 %
Test CRC E60D6E53
Copy CRC E60D6E53
Track not present in AccurateRip database
Copy OK

Track 9

Filename D:\#New Wav + flac\#cdr\Grover Washington Jr. - Sacred Kind Of Love - The Columbia Recordings\cd 2 Grover Washington Jr - Then & Now (2) ; Time Out Of Mind\09. Grover Washington Jr. - Don't Take You Love From Me.wav

Pre-gap length 0:00:01.97

Peak level 94.9 %
Extraction speed 9.6 X
Track quality 100.0 %
Test CRC CD85F5E7
Copy CRC CD85F5E7
Track not present in AccurateRip database
Copy OK

Track 10

Filename D:\#New Wav + flac\#cdr\Grover Washington Jr. - Sacred Kind Of Love - The Columbia Recordings\cd 2 Grover Washington Jr - Then & Now (2) ; Time Out Of Mind\10. Grover Washington Jr. - Time Out Of Mind.wav

Pre-gap length 0:00:02.13

Peak level 95.4 %
Extraction speed 10.2 X
Track quality 100.0 %
Test CRC CCAA4C6A
Copy CRC CCAA4C6A
Track not present in AccurateRip database
Copy OK

Track 11

Filename D:\#New Wav + flac\#cdr\Grover Washington Jr. - Sacred Kind Of Love - The Columbia Recordings\cd 2 Grover Washington Jr - Then & Now (2) ; Time Out Of Mind\11. Grover Washington Jr. - Split Second.wav

Pre-gap length 0:00:02.09

Peak level 95.4 %
Extraction speed 8.6 X
Track quality 99.9 %
Test CRC C7380151
Copy CRC C7380151
Track not present in AccurateRip database
Copy OK

Track 12

Filename D:\#New Wav + flac\#cdr\Grover Washington Jr. - Sacred Kind Of Love - The Columbia Recordings\cd 2 Grover Washington Jr - Then & Now (2) ; Time Out Of Mind\12. Grover Washington Jr. - Nice N Easy.wav

Pre-gap length 0:00:01.96

Peak level 87.2 %
Extraction speed 9.5 X
Track quality 99.9 %
Test CRC FCADBB65
Copy CRC FCADBB65
Track not present in AccurateRip database
Copy OK

Track 13

Filename D:\#New Wav + flac\#cdr\Grover Washington Jr. - Sacred Kind Of Love - The Columbia Recordings\cd 2 Grover Washington Jr - Then & Now (2) ; Time Out Of Mind\13. Grover Washington Jr. - Unspoken Love.wav

Pre-gap length 0:00:01.89

Peak level 95.3 %
Extraction speed 11.0 X
Track quality 100.0 %
Test CRC 34E71602
Copy CRC 34E71602
Track not present in AccurateRip database
Copy OK

Track 14

Filename D:\#New Wav + flac\#cdr\Grover Washington Jr. - Sacred Kind Of Love - The Columbia Recordings\cd 2 Grover Washington Jr - Then & Now (2) ; Time Out Of Mind\14. Grover Washington Jr. - Protect The Dream.wav

Pre-gap length 0:00:01.65

Peak level 95.2 %
Extraction speed 11.5 X
Track quality 100.0 %
Test CRC A8A551DE
Copy CRC A8A551DE
Track not present in AccurateRip database
Copy OK


None of the tracks are present in the AccurateRip database

No errors occurred

End of status report

–– CUETools DB Plugin V2.1.6

[CTDB TOCID: zgvJxvShuhpGMFx7yt8H86K04pc-] disk not present in database
Submit result: zgvJxvShuhpGMFx7yt8H86K04pc- has been uploaded


==== Log checksum 970322A3D0C9C01AA6C2BB6AF0D483400580AEF025484E9F3DB292664FF61B9E ====
Exact Audio Copy V1.3 from 2. September 2016

EAC extraction logfile from 21. August 2019, 16:07

Grover Washington Jr. / Sacred Kind Of Love : The Columbia Recordings

Used drive : PLEXTOR PX-891SAF Adapter: 1 ID: 0

Read mode : Secure
Utilize accurate stream : Yes
Defeat audio cache : Yes
Make use of C2 pointers : No

Read offset correction : 6
Overread into Lead-In and Lead-Out : No
Fill up missing offset samples with silence : Yes
Delete leading and trailing silent blocks : No
Null samples used in CRC calculations : Yes
Used interface : Native Win32 interface for Win NT & 2000
Gap handling : Appended to previous track

Used output format : User Defined Encoder
Selected bitrate : 1024 kBit/s
Quality : High
Add ID3 tag : No
Command line compressor : C:\Program Files (x86)\Exact Audio Copy\Flac\flac.exe
Additional command line options : -8 -V -T "ARTIST=%artist%" -T "TITLE=%title%" -T "ALBUM=%albumtitle%" -T "DATE=%year%" -T "TRACKNUMBER=%tracknr%" -T "GENRE=%genre%" -T "PERFORMER=%albuminterpret%" -T "COMPOSER=%composer%" %haslyrics%–tag-from-file=LYRICS="%lyricsfile%"%haslyrics% -T "ALBUMARTIST=%albumartist%" -T "DISCNUMBER=%cdnumber%" -T "TOTALDISCS=%totalcds%" -T "TOTALTRACKS=%numtracks%" -T "COMMENT=%comment%" %source% -o %dest%


TOC of the extracted CD

Track | Start | Length | Start sector | End sector
––––––––––––––––––––––––––––-
1 | 0:00.00 | 5:00.52 | 0 | 22551
2 | 5:00.52 | 4:59.28 | 22552 | 45004
3 | 10:00.05 | 5:14.05 | 45005 | 68559
4 | 15:14.10 | 4:50.44 | 68560 | 90353
5 | 20:04.54 | 5:08.27 | 90354 | 113480
6 | 25:13.06 | 3:55.63 | 113481 | 131168
7 | 29:08.69 | 4:51.15 | 131169 | 153008
8 | 34:00.09 | 4:39.35 | 153009 | 173968
9 | 38:39.44 | 4:05.16 | 173969 | 192359
10 | 42:44.60 | 4:14.72 | 192360 | 211481
11 | 46:59.57 | 4:11.72 | 211482 | 230378
12 | 51:11.54 | 8:56.08 | 230379 | 270586
13 | 60:07.62 | 6:18.49 | 270587 | 298985
14 | 66:26.36 | 6:56.50 | 298986 | 330235
15 | 73:23.11 | 4:53.27 | 330236 | 352237


Track 1

Filename D:\#New Wav + flac\#cdr\Grover Washington Jr. - Sacred Kind Of Love - The Columbia Recordings\cd 3 Grover Washington Jr - Next Exit ; All My Tomorrows (1)\01. Grover Washington Jr. - Take Five.wav

Pre-gap length 0:00:02.00

Peak level 95.4 %
Extraction speed 5.8 X
Track quality 100.0 %
Test CRC 06FE76C8
Copy CRC 06FE76C8
Track not present in AccurateRip database
Copy OK

Track 2

Filename D:\#New Wav + flac\#cdr\Grover Washington Jr. - Sacred Kind Of Love - The Columbia Recordings\cd 3 Grover Washington Jr - Next Exit ; All My Tomorrows (1)\02. Grover Washington Jr. feat. Nancy Wilson - Your Love.wav

Pre-gap length 0:00:02.22

Peak level 95.5 %
Extraction speed 6.4 X
Track quality 100.0 %
Test CRC 9740E76C
Copy CRC 9740E76C
Track not present in AccurateRip database
Copy OK

Track 3

Filename D:\#New Wav + flac\#cdr\Grover Washington Jr. - Sacred Kind Of Love - The Columbia Recordings\cd 3 Grover Washington Jr - Next Exit ; All My Tomorrows (1)\03. Grover Washington Jr. - Only For You (Siempre Para D'sera).wav

Pre-gap length 0:00:02.20

Peak level 95.4 %
Extraction speed 6.1 X
Track quality 99.9 %
Test CRC B65DFFD5
Copy CRC B65DFFD5
Track not present in AccurateRip database
Copy OK

Track 4

Filename D:\#New Wav + flac\#cdr\Grover Washington Jr. - Sacred Kind Of Love - The Columbia Recordings\cd 3 Grover Washington Jr - Next Exit ; All My Tomorrows (1)\04. Grover Washington Jr. - Greene Street.wav

Pre-gap length 0:00:01.70

Peak level 95.4 %
Extraction speed 7.5 X
Track quality 100.0 %
Test CRC B2247775
Copy CRC B2247775
Track not present in AccurateRip database
Copy OK

Track 5

Filename D:\#New Wav + flac\#cdr\Grover Washington Jr. - Sacred Kind Of Love - The Columbia Recordings\cd 3 Grover Washington Jr - Next Exit ; All My Tomorrows (1)\05. Grover Washington Jr. - Next Exit.wav

Pre-gap length 0:00:02.16

Peak level 95.4 %
Extraction speed 7.9 X
Track quality 100.0 %
Test CRC EB68CAD8
Copy CRC EB68CAD8
Track not present in AccurateRip database
Copy OK

Track 6

Filename D:\#New Wav + flac\#cdr\Grover Washington Jr. - Sacred Kind Of Love - The Columbia Recordings\cd 3 Grover Washington Jr - Next Exit ; All My Tomorrows (1)\06. Grover Washington Jr. - I Miss Home.wav

Pre-gap length 0:00:01.96

Peak level 95.4 %
Extraction speed 8.1 X
Track quality 100.0 %
Test CRC E043AECD
Copy CRC E043AECD
Track not present in AccurateRip database
Copy OK

Track 7

Filename D:\#New Wav + flac\#cdr\Grover Washington Jr. - Sacred Kind Of Love - The Columbia Recordings\cd 3 Grover Washington Jr - Next Exit ; All My Tomorrows (1)\07. Grover Washington Jr. feat. Lelah Hathaway - Love Like This.wav

Pre-gap length 0:00:01.74

Peak level 95.4 %
Extraction speed 8.7 X
Track quality 100.0 %
Test CRC FFE5193B
Copy CRC FFE5193B
Track not present in AccurateRip database
Copy OK

Track 8

Filename D:\#New Wav + flac\#cdr\Grover Washington Jr. - Sacred Kind Of Love - The Columbia Recordings\cd 3 Grover Washington Jr - Next Exit ; All My Tomorrows (1)\08. Grover Washington Jr. - Summer Chill.wav

Pre-gap length 0:00:01.42

Peak level 95.4 %
Extraction speed 8.9 X
Track quality 100.0 %
Test CRC 788834B1
Copy CRC 788834B1
Track not present in AccurateRip database
Copy OK

Track 9

Filename D:\#New Wav + flac\#cdr\Grover Washington Jr. - Sacred Kind Of Love - The Columbia Recordings\cd 3 Grover Washington Jr - Next Exit ; All My Tomorrows (1)\09. Grover Washington Jr. feat. Levy Stubbs - Till You Return To Me.wav

Pre-gap length 0:00:02.24

Peak level 95.4 %
Extraction speed 9.1 X
Track quality 100.0 %
Test CRC D9BED40B
Copy CRC D9BED40B
Track not present in AccurateRip database
Copy OK

Track 10

Filename D:\#New Wav + flac\#cdr\Grover Washington Jr. - Sacred Kind Of Love - The Columbia Recordings\cd 3 Grover Washington Jr - Next Exit ; All My Tomorrows (1)\10. Grover Washington Jr. - Get On Up.wav

Pre-gap length 0:00:01.77

Peak level 95.5 %
Extraction speed 7.8 X
Track quality 99.9 %
Test CRC 005F233C
Copy CRC 005F233C
Track not present in AccurateRip database
Copy OK

Track 11

Filename D:\#New Wav + flac\#cdr\Grover Washington Jr. - Sacred Kind Of Love - The Columbia Recordings\cd 3 Grover Washington Jr - Next Exit ; All My Tomorrows (1)\11. Grover Washington Jr. feat. Paula Holloway - Check Out Grover.wav

Pre-gap length 0:00:01.82

Peak level 95.5 %
Extraction speed 8.1 X
Track quality 99.9 %
Test CRC CEAC85A0
Copy CRC CEAC85A0
Track not present in AccurateRip database
Copy OK

Track 12

Filename D:\#New Wav + flac\#cdr\Grover Washington Jr. - Sacred Kind Of Love - The Columbia Recordings\cd 3 Grover Washington Jr - Next Exit ; All My Tomorrows (1)\12. Grover Washington Jr. - E Preciso Perdoar.wav

Pre-gap length 0:00:02.46

Peak level 95.5 %
Extraction speed 10.9 X
Track quality 100.0 %
Test CRC 89A20221
Copy CRC 89A20221
Track not present in AccurateRip database
Copy OK

Track 13

Filename D:\#New Wav + flac\#cdr\Grover Washington Jr. - Sacred Kind Of Love - The Columbia Recordings\cd 3 Grover Washington Jr - Next Exit ; All My Tomorrows (1)\13. Grover Washington Jr. - When I Fall In Love.wav

Pre-gap length 0:00:02.10

Peak level 95.4 %
Extraction speed 11.2 X
Track quality 100.0 %
Test CRC E7230207
Copy CRC E7230207
Track not present in AccurateRip database
Copy OK

Track 14

Filename D:\#New Wav + flac\#cdr\Grover Washington Jr. - Sacred Kind Of Love - The Columbia Recordings\cd 3 Grover Washington Jr - Next Exit ; All My Tomorrows (1)\14. Grover Washington Jr. feat. Freddy Cole - I'm Glad There Is You.wav

Pre-gap length 0:00:01.90

Peak level 95.5 %
Extraction speed 10.0 X
Track quality 99.9 %
Test CRC 3CF95DA9
Copy CRC 3CF95DA9
Track not present in AccurateRip database
Copy OK

Track 15

Filename D:\#New Wav + flac\#cdr\Grover Washington Jr. - Sacred Kind Of Love - The Columbia Recordings\cd 3 Grover Washington Jr - Next Exit ; All My Tomorrows (1)\15. Grover Washington Jr. - Happenstance.wav

Pre-gap length 0:00:01.97

Peak level 95.5 %
Extraction speed 11.4 X
Track quality 100.0 %
Test CRC FFB77DFA
Copy CRC FFB77DFA
Track not present in AccurateRip database
Copy OK


None of the tracks are present in the AccurateRip database

No errors occurred

End of status report

–– CUETools DB Plugin V2.1.6

[CTDB TOCID: LcIFP8qcTwEGF2ySvsVwgrOY3SU-] disk not present in database
Submit result: LcIFP8qcTwEGF2ySvsVwgrOY3SU- has been uploaded


==== Log checksum 54B2D55C0E12D80F2CCA207985CE695BAAF15415EE53C5E4944248A9059576D9 ====

––––––––––––––––––––––––––––––

Exact Audio Copy V1.3 from 2. September 2016

EAC extraction logfile from 21. August 2019, 16:08

Grover Washington Jr. / Sacred Kind Of Love : The Columbia Recordings

Used drive : PLEXTOR PX-891SAF Adapter: 1 ID: 0

Read mode : Secure
Utilize accurate stream : Yes
Defeat audio cache : Yes
Make use of C2 pointers : No

Read offset correction : 6
Overread into Lead-In and Lead-Out : No
Fill up missing offset samples with silence : Yes
Delete leading and trailing silent blocks : No
Null samples used in CRC calculations : Yes
Used interface : Native Win32 interface for Win NT & 2000
Gap handling : Appended to previous track

Used output format : User Defined Encoder
Selected bitrate : 1024 kBit/s
Quality : High
Add ID3 tag : No
Command line compressor : C:\Program Files (x86)\Exact Audio Copy\Flac\flac.exe
Additional command line options : -8 -V -T "ARTIST=%artist%" -T "TITLE=%title%" -T "ALBUM=%albumtitle%" -T "DATE=%year%" -T "TRACKNUMBER=%tracknr%" -T "GENRE=%genre%" -T "PERFORMER=%albuminterpret%" -T "COMPOSER=%composer%" %haslyrics%–tag-from-file=LYRICS="%lyricsfile%"%haslyrics% -T "ALBUMARTIST=%albumartist%" -T "DISCNUMBER=%cdnumber%" -T "TOTALDISCS=%totalcds%" -T "TOTALTRACKS=%numtracks%" -T "COMMENT=%comment%" %source% -o %dest%


TOC of the extracted CD

Track | Start | Length | Start sector | End sector
––––––––––––––––––––––––––––-
1 | 0:00.00 | 5:00.52 | 0 | 22551
2 | 5:00.52 | 4:59.28 | 22552 | 45004
3 | 10:00.05 | 5:14.05 | 45005 | 68559
4 | 15:14.10 | 4:50.44 | 68560 | 90353
5 | 20:04.54 | 5:08.27 | 90354 | 113480
6 | 25:13.06 | 3:55.63 | 113481 | 131168
7 | 29:08.69 | 4:51.15 | 131169 | 153008
8 | 34:00.09 | 4:39.35 | 153009 | 173968
9 | 38:39.44 | 4:05.16 | 173969 | 192359
10 | 42:44.60 | 4:14.72 | 192360 | 211481
11 | 46:59.57 | 4:11.72 | 211482 | 230378
12 | 51:11.54 | 8:56.08 | 230379 | 270586
13 | 60:07.62 | 6:18.49 | 270587 | 298985
14 | 66:26.36 | 6:56.50 | 298986 | 330235
15 | 73:23.11 | 4:53.27 | 330236 | 352237


Track 1

Filename D:\#New Wav + flac\#cdr\Grover Washington Jr. - Sacred Kind Of Love - The Columbia Recordings\cd 3 Grover Washington Jr - Next Exit ; All My Tomorrows (1)\01. Grover Washington Jr. - Take Five.wav

Pre-gap length 0:00:02.00

Peak level 95.4 %
Extraction speed 5.8 X
Track quality 100.0 %
Test CRC 06FE76C8
Copy CRC 06FE76C8
Track not present in AccurateRip database
Copy OK

Track 2

Filename D:\#New Wav + flac\#cdr\Grover Washington Jr. - Sacred Kind Of Love - The Columbia Recordings\cd 3 Grover Washington Jr - Next Exit ; All My Tomorrows (1)\02. Grover Washington Jr. feat. Nancy Wilson - Your Love.wav

Pre-gap length 0:00:02.22

Peak level 95.5 %
Extraction speed 6.4 X
Track quality 100.0 %
Test CRC 9740E76C
Copy CRC 9740E76C
Track not present in AccurateRip database
Copy OK

Track 3

Filename D:\#New Wav + flac\#cdr\Grover Washington Jr. - Sacred Kind Of Love - The Columbia Recordings\cd 3 Grover Washington Jr - Next Exit ; All My Tomorrows (1)\03. Grover Washington Jr. - Only For You (Siempre Para D'sera).wav

Pre-gap length 0:00:02.20

Peak level 95.4 %
Extraction speed 6.1 X
Track quality 99.9 %
Test CRC B65DFFD5
Copy CRC B65DFFD5
Track not present in AccurateRip database
Copy OK

Track 4

Filename D:\#New Wav + flac\#cdr\Grover Washington Jr. - Sacred Kind Of Love - The Columbia Recordings\cd 3 Grover Washington Jr - Next Exit ; All My Tomorrows (1)\04. Grover Washington Jr. - Greene Street.wav

Pre-gap length 0:00:01.70

Peak level 95.4 %
Extraction speed 7.5 X
Track quality 100.0 %
Test CRC B2247775
Copy CRC B2247775
Track not present in AccurateRip database
Copy OK

Track 5

Filename D:\#New Wav + flac\#cdr\Grover Washington Jr. - Sacred Kind Of Love - The Columbia Recordings\cd 3 Grover Washington Jr - Next Exit ; All My Tomorrows (1)\05. Grover Washington Jr. - Next Exit.wav

Pre-gap length 0:00:02.16

Peak level 95.4 %
Extraction speed 7.9 X
Track quality 100.0 %
Test CRC EB68CAD8
Copy CRC EB68CAD8
Track not present in AccurateRip database
Copy OK

Track 6

Filename D:\#New Wav + flac\#cdr\Grover Washington Jr. - Sacred Kind Of Love - The Columbia Recordings\cd 3 Grover Washington Jr - Next Exit ; All My Tomorrows (1)\06. Grover Washington Jr. - I Miss Home.wav

Pre-gap length 0:00:01.96

Peak level 95.4 %
Extraction speed 8.1 X
Track quality 100.0 %
Test CRC E043AECD
Copy CRC E043AECD
Track not present in AccurateRip database
Copy OK

Track 7

Filename D:\#New Wav + flac\#cdr\Grover Washington Jr. - Sacred Kind Of Love - The Columbia Recordings\cd 3 Grover Washington Jr - Next Exit ; All My Tomorrows (1)\07. Grover Washington Jr. feat. Lelah Hathaway - Love Like This.wav

Pre-gap length 0:00:01.74

Peak level 95.4 %
Extraction speed 8.7 X
Track quality 100.0 %
Test CRC FFE5193B
Copy CRC FFE5193B
Track not present in AccurateRip database
Copy OK

Track 8

Filename D:\#New Wav + flac\#cdr\Grover Washington Jr. - Sacred Kind Of Love - The Columbia Recordings\cd 3 Grover Washington Jr - Next Exit ; All My Tomorrows (1)\08. Grover Washington Jr. - Summer Chill.wav

Pre-gap length 0:00:01.42

Peak level 95.4 %
Extraction speed 8.9 X
Track quality 100.0 %
Test CRC 788834B1
Copy CRC 788834B1
Track not present in AccurateRip database
Copy OK

Track 9

Filename D:\#New Wav + flac\#cdr\Grover Washington Jr. - Sacred Kind Of Love - The Columbia Recordings\cd 3 Grover Washington Jr - Next Exit ; All My Tomorrows (1)\09. Grover Washington Jr. feat. Levy Stubbs - Till You Return To Me.wav

Pre-gap length 0:00:02.24

Peak level 95.4 %
Extraction speed 9.1 X
Track quality 100.0 %
Test CRC D9BED40B
Copy CRC D9BED40B
Track not present in AccurateRip database
Copy OK

Track 10

Filename D:\#New Wav + flac\#cdr\Grover Washington Jr. - Sacred Kind Of Love - The Columbia Recordings\cd 3 Grover Washington Jr - Next Exit ; All My Tomorrows (1)\10. Grover Washington Jr. - Get On Up.wav

Pre-gap length 0:00:01.77

Peak level 95.5 %
Extraction speed 7.8 X
Track quality 99.9 %
Test CRC 005F233C
Copy CRC 005F233C
Track not present in AccurateRip database
Copy OK

Track 11

Filename D:\#New Wav + flac\#cdr\Grover Washington Jr. - Sacred Kind Of Love - The Columbia Recordings\cd 3 Grover Washington Jr - Next Exit ; All My Tomorrows (1)\11. Grover Washington Jr. feat. Paula Holloway - Check Out Grover.wav

Pre-gap length 0:00:01.82

Peak level 95.5 %
Extraction speed 8.1 X
Track quality 99.9 %
Test CRC CEAC85A0
Copy CRC CEAC85A0
Track not present in AccurateRip database
Copy OK

Track 12

Filename D:\#New Wav + flac\#cdr\Grover Washington Jr. - Sacred Kind Of Love - The Columbia Recordings\cd 3 Grover Washington Jr - Next Exit ; All My Tomorrows (1)\12. Grover Washington Jr. - E Preciso Perdoar.wav

Pre-gap length 0:00:02.46

Peak level 95.5 %
Extraction speed 10.9 X
Track quality 100.0 %
Test CRC 89A20221
Copy CRC 89A20221
Track not present in AccurateRip database
Copy OK

Track 13

Filename D:\#New Wav + flac\#cdr\Grover Washington Jr. - Sacred Kind Of Love - The Columbia Recordings\cd 3 Grover Washington Jr - Next Exit ; All My Tomorrows (1)\13. Grover Washington Jr. - When I Fall In Love.wav

Pre-gap length 0:00:02.10

Peak level 95.4 %
Extraction speed 11.2 X
Track quality 100.0 %
Test CRC E7230207
Copy CRC E7230207
Track not present in AccurateRip database
Copy OK

Track 14

Filename D:\#New Wav + flac\#cdr\Grover Washington Jr. - Sacred Kind Of Love - The Columbia Recordings\cd 3 Grover Washington Jr - Next Exit ; All My Tomorrows (1)\14. Grover Washington Jr. feat. Freddy Cole - I'm Glad There Is You.wav

Pre-gap length 0:00:01.90

Peak level 95.5 %
Extraction speed 10.0 X
Track quality 99.9 %
Test CRC 3CF95DA9
Copy CRC 3CF95DA9
Track not present in AccurateRip database
Copy OK

Track 15

Filename D:\#New Wav + flac\#cdr\Grover Washington Jr. - Sacred Kind Of Love - The Columbia Recordings\cd 3 Grover Washington Jr - Next Exit ; All My Tomorrows (1)\15. Grover Washington Jr. - Happenstance.wav

Pre-gap length 0:00:01.97

Peak level 95.5 %
Extraction speed 11.4 X
Track quality 100.0 %
Test CRC FFB77DFA
Copy CRC FFB77DFA
Track not present in AccurateRip database
Copy OK


None of the tracks are present in the AccurateRip database

No errors occurred

End of status report

–– CUETools DB Plugin V2.1.6

[CTDB TOCID: LcIFP8qcTwEGF2ySvsVwgrOY3SU-] disk not present in database
Submit result: LcIFP8qcTwEGF2ySvsVwgrOY3SU- has been uploaded


==== Log checksum B040931DCC097B885769C1766AC60BCF0BE7BB7CD46799E69EA7AA22B002CC18 ====
Exact Audio Copy V1.3 from 2. September 2016

EAC extraction logfile from 21. August 2019, 16:29

Grover Washington Jr. / Sacred Kind Of Love : The Columbia Recordings

Used drive : PLEXTOR PX-891SAF Adapter: 1 ID: 0

Read mode : Secure
Utilize accurate stream : Yes
Defeat audio cache : Yes
Make use of C2 pointers : No

Read offset correction : 6
Overread into Lead-In and Lead-Out : No
Fill up missing offset samples with silence : Yes
Delete leading and trailing silent blocks : No
Null samples used in CRC calculations : Yes
Used interface : Native Win32 interface for Win NT & 2000
Gap handling : Appended to previous track

Used output format : User Defined Encoder
Selected bitrate : 1024 kBit/s
Quality : High
Add ID3 tag : No
Command line compressor : C:\Program Files (x86)\Exact Audio Copy\Flac\flac.exe
Additional command line options : -8 -V -T "ARTIST=%artist%" -T "TITLE=%title%" -T "ALBUM=%albumtitle%" -T "DATE=%year%" -T "TRACKNUMBER=%tracknr%" -T "GENRE=%genre%" -T "PERFORMER=%albuminterpret%" -T "COMPOSER=%composer%" %haslyrics%–tag-from-file=LYRICS="%lyricsfile%"%haslyrics% -T "ALBUMARTIST=%albumartist%" -T "DISCNUMBER=%cdnumber%" -T "TOTALDISCS=%totalcds%" -T "TOTALTRACKS=%numtracks%" -T "COMMENT=%comment%" %source% -o %dest%


TOC of the extracted CD

Track | Start | Length | Start sector | End sector
––––––––––––––––––––––––––––-
1 | 0:00.00 | 6:16.39 | 0 | 28238
2 | 6:16.39 | 8:08.57 | 28239 | 64895
3 | 14:25.21 | 4:01.64 | 64896 | 83034
4 | 18:27.10 | 7:30.20 | 83035 | 116804
5 | 25:57.30 | 5:00.19 | 116805 | 139323
6 | 30:57.49 | 7:13.47 | 139324 | 171845
7 | 38:11.21 | 8:56.44 | 171846 | 212089
8 | 47:07.65 | 4:16.52 | 212090 | 231341


Track 1

Filename D:\#New Wav + flac\#cdr\Grover Washington Jr. - Sacred Kind Of Love - The Columbia Recordings\cd 4 Grover Washington Jr - All My Tomorrows (2)\01. Grover Washington Jr. - All My Tomorrows.wav

Pre-gap length 0:00:02.00

Peak level 87.1 %
Extraction speed 4.5 X
Track quality 100.0 %
Test CRC 3D09734B
Copy CRC 3D09734B
Track not present in AccurateRip database
Copy OK

Track 2

Filename D:\#New Wav + flac\#cdr\Grover Washington Jr. - Sacred Kind Of Love - The Columbia Recordings\cd 4 Grover Washington Jr - All My Tomorrows (2)\02. Grover Washington Jr. - Nature Boy.wav

Pre-gap length 0:00:01.94

Peak level 95.4 %
Extraction speed 5.5 X
Track quality 100.0 %
Test CRC 42813314
Copy CRC 42813314
Track not present in AccurateRip database
Copy OK

Track 3

Filename D:\#New Wav + flac\#cdr\Grover Washington Jr. - Sacred Kind Of Love - The Columbia Recordings\cd 4 Grover Washington Jr - All My Tomorrows (2)\03. Grover Washington Jr. - Please Send Me Someone To Love.wav

Pre-gap length 0:00:01.70

Peak level 95.5 %
Extraction speed 5.7 X
Track quality 100.0 %
Test CRC 62AF28C9
Copy CRC 62AF28C9
Track not present in AccurateRip database
Copy OK

Track 4

Filename D:\#New Wav + flac\#cdr\Grover Washington Jr. - Sacred Kind Of Love - The Columbia Recordings\cd 4 Grover Washington Jr - All My Tomorrows (2)\04. Grover Washington Jr. feat. Freddy Cole - Overjoyed.wav

Pre-gap length 0:00:01.97

Peak level 95.4 %
Extraction speed 6.5 X
Track quality 100.0 %
Test CRC F78881D4
Copy CRC F78881D4
Track not present in AccurateRip database
Copy OK

Track 5

Filename D:\#New Wav + flac\#cdr\Grover Washington Jr. - Sacred Kind Of Love - The Columbia Recordings\cd 4 Grover Washington Jr - All My Tomorrows (2)\05. Grover Washington Jr. - Flamingo.wav

Pre-gap length 0:00:01.64

Peak level 95.5 %
Extraction speed 6.7 X
Track quality 100.0 %
Test CRC 5C2EFD57
Copy CRC 5C2EFD57
Track not present in AccurateRip database
Copy OK

Track 6

Filename D:\#New Wav + flac\#cdr\Grover Washington Jr. - Sacred Kind Of Love - The Columbia Recordings\cd 4 Grover Washington Jr - All My Tomorrows (2)\06. Grover Washington Jr. feat. Freddy Cole & Jeanie Bryson - For Heavens Sake.wav

Pre-gap length 0:00:01.97

Peak level 95.4 %
Extraction speed 7.5 X
Track quality 100.0 %
Test CRC 9AD5DE6D
Copy CRC 9AD5DE6D
Track not present in AccurateRip database
Copy OK

Track 7

Filename D:\#New Wav + flac\#cdr\Grover Washington Jr. - Sacred Kind Of Love - The Columbia Recordings\cd 4 Grover Washington Jr - All My Tomorrows (2)\07. Grover Washington Jr. - Estate.wav

Pre-gap length 0:00:01.28

Peak level 95.4 %
Extraction speed 8.1 X
Track quality 100.0 %
Test CRC B7B8A436
Copy CRC B7B8A436
Track not present in AccurateRip database
Copy OK

Track 8

Filename D:\#New Wav + flac\#cdr\Grover Washington Jr. - Sacred Kind Of Love - The Columbia Recordings\cd 4 Grover Washington Jr - All My Tomorrows (2)\08. Grover Washington Jr. - Every Day A Little Death.wav

Pre-gap length 0:00:01.82

Peak level 95.4 %
Extraction speed 8.0 X
Track quality 100.0 %
Test CRC 8A6DA9C4
Copy CRC 8A6DA9C4
Track not present in AccurateRip database
Copy OK


None of the tracks are present in the AccurateRip database

No errors occurred

End of status report

–– CUETools DB Plugin V2.1.6

[CTDB TOCID: 6vnencvZXR6ihB.8QLIDMhI0iqU-] disk not present in database
Submit result: 6vnencvZXR6ihB.8QLIDMhI0iqU- has been uploaded


==== Log checksum 5451FE8EA9F5A8C35CA2B23EF1328E9FF164785C7A8FE5A92801190D766E5715 ====

––––––––––––––––––––––––––––––

Exact Audio Copy V1.3 from 2. September 2016

EAC extraction logfile from 21. August 2019, 16:29

Grover Washington Jr. / Sacred Kind Of Love : The Columbia Recordings

Used drive : PLEXTOR PX-891SAF Adapter: 1 ID: 0

Read mode : Secure
Utilize accurate stream : Yes
Defeat audio cache : Yes
Make use of C2 pointers : No

Read offset correction : 6
Overread into Lead-In and Lead-Out : No
Fill up missing offset samples with silence : Yes
Delete leading and trailing silent blocks : No
Null samples used in CRC calculations : Yes
Used interface : Native Win32 interface for Win NT & 2000
Gap handling : Appended to previous track

Used output format : User Defined Encoder
Selected bitrate : 1024 kBit/s
Quality : High
Add ID3 tag : No
Command line compressor : C:\Program Files (x86)\Exact Audio Copy\Flac\flac.exe
Additional command line options : -8 -V -T "ARTIST=%artist%" -T "TITLE=%title%" -T "ALBUM=%albumtitle%" -T "DATE=%year%" -T "TRACKNUMBER=%tracknr%" -T "GENRE=%genre%" -T "PERFORMER=%albuminterpret%" -T "COMPOSER=%composer%" %haslyrics%–tag-from-file=LYRICS="%lyricsfile%"%haslyrics% -T "ALBUMARTIST=%albumartist%" -T "DISCNUMBER=%cdnumber%" -T "TOTALDISCS=%totalcds%" -T "TOTALTRACKS=%numtracks%" -T "COMMENT=%comment%" %source% -o %dest%


TOC of the extracted CD

Track | Start | Length | Start sector | End sector
––––––––––––––––––––––––––––-
1 | 0:00.00 | 6:16.39 | 0 | 28238
2 | 6:16.39 | 8:08.57 | 28239 | 64895
3 | 14:25.21 | 4:01.64 | 64896 | 83034
4 | 18:27.10 | 7:30.20 | 83035 | 116804
5 | 25:57.30 | 5:00.19 | 116805 | 139323
6 | 30:57.49 | 7:13.47 | 139324 | 171845
7 | 38:11.21 | 8:56.44 | 171846 | 212089
8 | 47:07.65 | 4:16.52 | 212090 | 231341


Track 1

Filename D:\#New Wav + flac\#cdr\Grover Washington Jr. - Sacred Kind Of Love - The Columbia Recordings\cd 4 Grover Washington Jr - All My Tomorrows (2)\01. Grover Washington Jr. - All My Tomorrows.wav

Pre-gap length 0:00:02.00

Peak level 87.1 %
Extraction speed 4.5 X
Track quality 100.0 %
Test CRC 3D09734B
Copy CRC 3D09734B
Track not present in AccurateRip database
Copy OK

Track 2

Filename D:\#New Wav + flac\#cdr\Grover Washington Jr. - Sacred Kind Of Love - The Columbia Recordings\cd 4 Grover Washington Jr - All My Tomorrows (2)\02. Grover Washington Jr. - Nature Boy.wav

Pre-gap length 0:00:01.94

Peak level 95.4 %
Extraction speed 5.5 X
Track quality 100.0 %
Test CRC 42813314
Copy CRC 42813314
Track not present in AccurateRip database
Copy OK

Track 3

Filename D:\#New Wav + flac\#cdr\Grover Washington Jr. - Sacred Kind Of Love - The Columbia Recordings\cd 4 Grover Washington Jr - All My Tomorrows (2)\03. Grover Washington Jr. - Please Send Me Someone To Love.wav

Pre-gap length 0:00:01.70

Peak level 95.5 %
Extraction speed 5.7 X
Track quality 100.0 %
Test CRC 62AF28C9
Copy CRC 62AF28C9
Track not present in AccurateRip database
Copy OK

Track 4

Filename D:\#New Wav + flac\#cdr\Grover Washington Jr. - Sacred Kind Of Love - The Columbia Recordings\cd 4 Grover Washington Jr - All My Tomorrows (2)\04. Grover Washington Jr. feat. Freddy Cole - Overjoyed.wav

Pre-gap length 0:00:01.97

Peak level 95.4 %
Extraction speed 6.5 X
Track quality 100.0 %
Test CRC F78881D4
Copy CRC F78881D4
Track not present in AccurateRip database
Copy OK

Track 5

Filename D:\#New Wav + flac\#cdr\Grover Washington Jr. - Sacred Kind Of Love - The Columbia Recordings\cd 4 Grover Washington Jr - All My Tomorrows (2)\05. Grover Washington Jr. - Flamingo.wav

Pre-gap length 0:00:01.64

Peak level 95.5 %
Extraction speed 6.7 X
Track quality 100.0 %
Test CRC 5C2EFD57
Copy CRC 5C2EFD57
Track not present in AccurateRip database
Copy OK

Track 6

Filename D:\#New Wav + flac\#cdr\Grover Washington Jr. - Sacred Kind Of Love - The Columbia Recordings\cd 4 Grover Washington Jr - All My Tomorrows (2)\06. Grover Washington Jr. feat. Freddy Cole & Jeanie Bryson - For Heavens Sake.wav

Pre-gap length 0:00:01.97

Peak level 95.4 %
Extraction speed 7.5 X
Track quality 100.0 %
Test CRC 9AD5DE6D
Copy CRC 9AD5DE6D
Track not present in AccurateRip database
Copy OK

Track 7

Filename D:\#New Wav + flac\#cdr\Grover Washington Jr. - Sacred Kind Of Love - The Columbia Recordings\cd 4 Grover Washington Jr - All My Tomorrows (2)\07. Grover Washington Jr. - Estate.wav

Pre-gap length 0:00:01.28

Peak level 95.4 %
Extraction speed 8.1 X
Track quality 100.0 %
Test CRC B7B8A436
Copy CRC B7B8A436
Track not present in AccurateRip database
Copy OK

Track 8

Filename D:\#New Wav + flac\#cdr\Grover Washington Jr. - Sacred Kind Of Love - The Columbia Recordings\cd 4 Grover Washington Jr - All My Tomorrows (2)\08. Grover Washington Jr. - Every Day A Little Death.wav

Pre-gap length 0:00:01.82

Peak level 95.4 %
Extraction speed 8.0 X
Track quality 100.0 %
Test CRC 8A6DA9C4
Copy CRC 8A6DA9C4
Track not present in AccurateRip database
Copy OK


None of the tracks are present in the AccurateRip database

No errors occurred

End of status report

–– CUETools DB Plugin V2.1.6

[CTDB TOCID: 6vnencvZXR6ihB.8QLIDMhI0iqU-] disk not present in database
Submit result: 6vnencvZXR6ihB.8QLIDMhI0iqU- has been uploaded


==== Log checksum 5451FE8EA9F5A8C35CA2B23EF1328E9FF164785C7A8FE5A92801190D766E5715 ====
Exact Audio Copy V1.3 from 2. September 2016

EAC extraction logfile from 21. August 2019, 16:53

Grover Washington Jr. / Sacred Kind Of Love : The Columbia Recordings

Used drive : PLEXTOR PX-891SAF Adapter: 1 ID: 0

Read mode : Secure
Utilize accurate stream : Yes
Defeat audio cache : Yes
Make use of C2 pointers : No

Read offset correction : 6
Overread into Lead-In and Lead-Out : No
Fill up missing offset samples with silence : Yes
Delete leading and trailing silent blocks : No
Null samples used in CRC calculations : Yes
Used interface : Native Win32 interface for Win NT & 2000
Gap handling : Appended to previous track

Used output format : User Defined Encoder
Selected bitrate : 1024 kBit/s
Quality : High
Add ID3 tag : No
Command line compressor : C:\Program Files (x86)\Exact Audio Copy\Flac\flac.exe
Additional command line options : -8 -V -T "ARTIST=%artist%" -T "TITLE=%title%" -T "ALBUM=%albumtitle%" -T "DATE=%year%" -T "TRACKNUMBER=%tracknr%" -T "GENRE=%genre%" -T "PERFORMER=%albuminterpret%" -T "COMPOSER=%composer%" %haslyrics%–tag-from-file=LYRICS="%lyricsfile%"%haslyrics% -T "ALBUMARTIST=%albumartist%" -T "DISCNUMBER=%cdnumber%" -T "TOTALDISCS=%totalcds%" -T "TOTALTRACKS=%numtracks%" -T "COMMENT=%comment%" %source% -o %dest%


TOC of the extracted CD

Track | Start | Length | Start sector | End sector
––––––––––––––––––––––––––––-
1 | 0:00.00 | 4:17.07 | 0 | 19281
2 | 4:17.07 | 6:36.12 | 19282 | 48993
3 | 10:53.19 | 5:02.42 | 48994 | 71685
4 | 15:55.61 | 4:21.25 | 71686 | 91285
5 | 20:17.11 | 5:12.70 | 91286 | 114755
6 | 25:30.06 | 5:06.53 | 114756 | 137758
7 | 30:36.59 | 4:42.56 | 137759 | 158964
8 | 35:19.40 | 5:07.17 | 158965 | 182006
9 | 40:26.57 | 5:01.58 | 182007 | 204639
10 | 45:28.40 | 5:37.37 | 204640 | 229951
11 | 51:06.02 | 3:32.49 | 229952 | 245900
12 | 54:38.51 | 3:04.41 | 245901 | 259741


Track 1

Filename D:\#New Wav + flac\#cdr\Grover Washington Jr. - Sacred Kind Of Love - The Columbia Recordings\cd 5 Grover Washington Jr - Soulful Strut\01. Grover Washington Jr. - Soulful Strut.wav

Pre-gap length 0:00:02.00

Peak level 95.4 %
Extraction speed 5.2 X
Track quality 100.0 %
Test CRC 24CA16B5
Copy CRC 24CA16B5
Track not present in AccurateRip database
Copy OK

Track 2

Filename D:\#New Wav + flac\#cdr\Grover Washington Jr. - Sacred Kind Of Love - The Columbia Recordings\cd 5 Grover Washington Jr - Soulful Strut\02. Grover Washington Jr. - Can You Stop The Rain.wav

Pre-gap length 0:00:01.89

Peak level 95.4 %
Extraction speed 6.3 X
Track quality 100.0 %
Test CRC 005D5BEB
Copy CRC 005D5BEB
Track not present in AccurateRip database
Copy OK

Track 3

Filename D:\#New Wav + flac\#cdr\Grover Washington Jr. - Sacred Kind Of Love - The Columbia Recordings\cd 5 Grover Washington Jr - Soulful Strut\03. Grover Washington Jr. feat. Amanda Homi, Roz Moorehead & Wayne Hernandez - Play That Groove For Me.wav

Pre-gap length 0:00:01.60

Peak level 95.4 %
Extraction speed 6.8 X
Track quality 100.0 %
Test CRC FEA4DB91
Copy CRC FEA4DB91
Track not present in AccurateRip database
Copy OK

Track 4

Filename D:\#New Wav + flac\#cdr\Grover Washington Jr. - Sacred Kind Of Love - The Columbia Recordings\cd 5 Grover Washington Jr - Soulful Strut\04. Grover Washington Jr. - Bordertown.wav

Pre-gap length 0:00:02.28

Peak level 95.4 %
Extraction speed 7.2 X
Track quality 100.0 %
Test CRC AD0DB903
Copy CRC AD0DB903
Track not present in AccurateRip database
Copy OK

Track 5

Filename D:\#New Wav + flac\#cdr\Grover Washington Jr. - Sacred Kind Of Love - The Columbia Recordings\cd 5 Grover Washington Jr - Soulful Strut\05. Grover Washington Jr. - I Can Count The Times.wav

Pre-gap length 0:00:01.85

Peak level 95.4 %
Extraction speed 7.8 X
Track quality 100.0 %
Test CRC 9E4A51AB
Copy CRC 9E4A51AB
Track not present in AccurateRip database
Copy OK

Track 6

Filename D:\#New Wav + flac\#cdr\Grover Washington Jr. - Sacred Kind Of Love - The Columbia Recordings\cd 5 Grover Washington Jr - Soulful Strut\06. Grover Washington Jr. - Village Groove.wav

Pre-gap length 0:00:02.52

Peak level 95.4 %
Extraction speed 8.4 X
Track quality 100.0 %
Test CRC 5631DC82
Copy CRC 5631DC82
Track not present in AccurateRip database
Copy OK

Track 7

Filename D:\#New Wav + flac\#cdr\Grover Washington Jr. - Sacred Kind Of Love - The Columbia Recordings\cd 5 Grover Washington Jr - Soulful Strut\07. Grover Washington Jr. - Headman's Haunt.wav

Pre-gap length 0:00:01.41

Peak level 95.5 %
Extraction speed 8.7 X
Track quality 100.0 %
Test CRC 401CB403
Copy CRC 401CB403
Track not present in AccurateRip database
Copy OK

Track 8

Filename D:\#New Wav + flac\#cdr\Grover Washington Jr. - Sacred Kind Of Love - The Columbia Recordings\cd 5 Grover Washington Jr - Soulful Strut\08. Grover Washington Jr. feat. Katherine Russel - Poacher Man.wav

Pre-gap length 0:00:02.40

Peak level 95.4 %
Extraction speed 9.2 X
Track quality 100.0 %
Test CRC 5B27D2E1
Copy CRC 5B27D2E1
Track not present in AccurateRip database
Copy OK

Track 9

Filename D:\#New Wav + flac\#cdr\Grover Washington Jr. - Sacred Kind Of Love - The Columbia Recordings\cd 5 Grover Washington Jr - Soulful Strut\09. Grover Washington Jr. - Mystical Force.wav

Pre-gap length 0:00:01.77

Peak level 95.4 %
Extraction speed 8.1 X
Track quality 99.9 %
Test CRC 769DA74C
Copy CRC 769DA74C
Track not present in AccurateRip database
Copy OK

Track 10

Filename D:\#New Wav + flac\#cdr\Grover Washington Jr. - Sacred Kind Of Love - The Columbia Recordings\cd 5 Grover Washington Jr - Soulful Strut\10. Grover Washington Jr. feat. Wincy Terry - Uptown.wav

Pre-gap length 0:00:02.29

Peak level 94.9 %
Extraction speed 10.1 X
Track quality 100.0 %
Test CRC 886F4B93
Copy CRC 886F4B93
Track not present in AccurateRip database
Copy OK

Track 11

Filename D:\#New Wav + flac\#cdr\Grover Washington Jr. - Sacred Kind Of Love - The Columbia Recordings\cd 5 Grover Washington Jr - Soulful Strut\11. Grover Washington Jr. - Heat Index.wav

Pre-gap length 0:00:01.08

Peak level 95.5 %
Extraction speed 9.9 X
Track quality 100.0 %
Test CRC 1EA49970
Copy CRC 1EA49970
Track not present in AccurateRip database
Copy OK

Track 12

Filename D:\#New Wav + flac\#cdr\Grover Washington Jr. - Sacred Kind Of Love - The Columbia Recordings\cd 5 Grover Washington Jr - Soulful Strut\12. Grover Washington Jr. - The Night Fantastic.wav

Pre-gap length 0:00:02.41

Peak level 95.4 %
Extraction speed 9.8 X
Track quality 100.0 %
Test CRC E499208B
Copy CRC E499208B
Track not present in AccurateRip database
Copy OK


None of the tracks are present in the AccurateRip database

No errors occurred

End of status report

–– CUETools DB Plugin V2.1.6

[CTDB TOCID: Kpal7LE9Yyfh5uKTWZ.KfTJ0WsQ-] disk not present in database
Submit result: Kpal7LE9Yyfh5uKTWZ.KfTJ0WsQ- has been uploaded


==== Log checksum DC5B02A8FBBF8E7758BF3202774E3CEA96ECE0C04070476DAF91568EB9F2B368 ====

––––––––––––––––––––––––––––––

Exact Audio Copy V1.3 from 2. September 2016

EAC extraction logfile from 21. August 2019, 16:53

Grover Washington Jr. / Sacred Kind Of Love : The Columbia Recordings

Used drive : PLEXTOR PX-891SAF Adapter: 1 ID: 0

Read mode : Secure
Utilize accurate stream : Yes
Defeat audio cache : Yes
Make use of C2 pointers : No

Read offset correction : 6
Overread into Lead-In and Lead-Out : No
Fill up missing offset samples with silence : Yes
Delete leading and trailing silent blocks : No
Null samples used in CRC calculations : Yes
Used interface : Native Win32 interface for Win NT & 2000
Gap handling : Appended to previous track

Used output format : User Defined Encoder
Selected bitrate : 1024 kBit/s
Quality : High
Add ID3 tag : No
Command line compressor : C:\Program Files (x86)\Exact Audio Copy\Flac\flac.exe
Additional command line options : -8 -V -T "ARTIST=%artist%" -T "TITLE=%title%" -T "ALBUM=%albumtitle%" -T "DATE=%year%" -T "TRACKNUMBER=%tracknr%" -T "GENRE=%genre%" -T "PERFORMER=%albuminterpret%" -T "COMPOSER=%composer%" %haslyrics%–tag-from-file=LYRICS="%lyricsfile%"%haslyrics% -T "ALBUMARTIST=%albumartist%" -T "DISCNUMBER=%cdnumber%" -T "TOTALDISCS=%totalcds%" -T "TOTALTRACKS=%numtracks%" -T "COMMENT=%comment%" %source% -o %dest%


TOC of the extracted CD

Track | Start | Length | Start sector | End sector
––––––––––––––––––––––––––––-
1 | 0:00.00 | 4:17.07 | 0 | 19281
2 | 4:17.07 | 6:36.12 | 19282 | 48993
3 | 10:53.19 | 5:02.42 | 48994 | 71685
4 | 15:55.61 | 4:21.25 | 71686 | 91285
5 | 20:17.11 | 5:12.70 | 91286 | 114755
6 | 25:30.06 | 5:06.53 | 114756 | 137758
7 | 30:36.59 | 4:42.56 | 137759 | 158964
8 | 35:19.40 | 5:07.17 | 158965 | 182006
9 | 40:26.57 | 5:01.58 | 182007 | 204639
10 | 45:28.40 | 5:37.37 | 204640 | 229951
11 | 51:06.02 | 3:32.49 | 229952 | 245900
12 | 54:38.51 | 3:04.41 | 245901 | 259741


Track 1

Filename D:\#New Wav + flac\#cdr\Grover Washington Jr. - Sacred Kind Of Love - The Columbia Recordings\cd 5 Grover Washington Jr - Soulful Strut\01. Grover Washington Jr. - Soulful Strut.wav

Pre-gap length 0:00:02.00

Peak level 95.4 %
Extraction speed 5.2 X
Track quality 100.0 %
Test CRC 24CA16B5
Copy CRC 24CA16B5
Track not present in AccurateRip database
Copy OK

Track 2

Filename D:\#New Wav + flac\#cdr\Grover Washington Jr. - Sacred Kind Of Love - The Columbia Recordings\cd 5 Grover Washington Jr - Soulful Strut\02. Grover Washington Jr. - Can You Stop The Rain.wav

Pre-gap length 0:00:01.89

Peak level 95.4 %
Extraction speed 6.3 X
Track quality 100.0 %
Test CRC 005D5BEB
Copy CRC 005D5BEB
Track not present in AccurateRip database
Copy OK

Track 3

Filename D:\#New Wav + flac\#cdr\Grover Washington Jr. - Sacred Kind Of Love - The Columbia Recordings\cd 5 Grover Washington Jr - Soulful Strut\03. Grover Washington Jr. feat. Amanda Homi, Roz Moorehead & Wayne Hernandez - Play That Groove For Me.wav

Pre-gap length 0:00:01.60

Peak level 95.4 %
Extraction speed 6.8 X
Track quality 100.0 %
Test CRC FEA4DB91
Copy CRC FEA4DB91
Track not present in AccurateRip database
Copy OK

Track 4

Filename D:\#New Wav + flac\#cdr\Grover Washington Jr. - Sacred Kind Of Love - The Columbia Recordings\cd 5 Grover Washington Jr - Soulful Strut\04. Grover Washington Jr. - Bordertown.wav

Pre-gap length 0:00:02.28

Peak level 95.4 %
Extraction speed 7.2 X
Track quality 100.0 %
Test CRC AD0DB903
Copy CRC AD0DB903
Track not present in AccurateRip database
Copy OK

Track 5

Filename D:\#New Wav + flac\#cdr\Grover Washington Jr. - Sacred Kind Of Love - The Columbia Recordings\cd 5 Grover Washington Jr - Soulful Strut\05. Grover Washington Jr. - I Can Count The Times.wav

Pre-gap length 0:00:01.85

Peak level 95.4 %
Extraction speed 7.8 X
Track quality 100.0 %
Test CRC 9E4A51AB
Copy CRC 9E4A51AB
Track not present in AccurateRip database
Copy OK

Track 6

Filename D:\#New Wav + flac\#cdr\Grover Washington Jr. - Sacred Kind Of Love - The Columbia Recordings\cd 5 Grover Washington Jr - Soulful Strut\06. Grover Washington Jr. - Village Groove.wav

Pre-gap length 0:00:02.52

Peak level 95.4 %
Extraction speed 8.4 X
Track quality 100.0 %
Test CRC 5631DC82
Copy CRC 5631DC82
Track not present in AccurateRip database
Copy OK

Track 7

Filename D:\#New Wav + flac\#cdr\Grover Washington Jr. - Sacred Kind Of Love - The Columbia Recordings\cd 5 Grover Washington Jr - Soulful Strut\07. Grover Washington Jr. - Headman's Haunt.wav

Pre-gap length 0:00:01.41

Peak level 95.5 %
Extraction speed 8.7 X
Track quality 100.0 %
Test CRC 401CB403
Copy CRC 401CB403
Track not present in AccurateRip database
Copy OK

Track 8

Filename D:\#New Wav + flac\#cdr\Grover Washington Jr. - Sacred Kind Of Love - The Columbia Recordings\cd 5 Grover Washington Jr - Soulful Strut\08. Grover Washington Jr. feat. Katherine Russel - Poacher Man.wav

Pre-gap length 0:00:02.40

Peak level 95.4 %
Extraction speed 9.2 X
Track quality 100.0 %
Test CRC 5B27D2E1
Copy CRC 5B27D2E1
Track not present in AccurateRip database
Copy OK

Track 9

Filename D:\#New Wav + flac\#cdr\Grover Washington Jr. - Sacred Kind Of Love - The Columbia Recordings\cd 5 Grover Washington Jr - Soulful Strut\09. Grover Washington Jr. - Mystical Force.wav

Pre-gap length 0:00:01.77

Peak level 95.4 %
Extraction speed 8.1 X
Track quality 99.9 %
Test CRC 769DA74C
Copy CRC 769DA74C
Track not present in AccurateRip database
Copy OK

Track 10

Filename D:\#New Wav + flac\#cdr\Grover Washington Jr. - Sacred Kind Of Love - The Columbia Recordings\cd 5 Grover Washington Jr - Soulful Strut\10. Grover Washington Jr. feat. Wincy Terry - Uptown.wav

Pre-gap length 0:00:02.29

Peak level 94.9 %
Extraction speed 10.1 X
Track quality 100.0 %
Test CRC 886F4B93
Copy CRC 886F4B93
Track not present in AccurateRip database
Copy OK

Track 11

Filename D:\#New Wav + flac\#cdr\Grover Washington Jr. - Sacred Kind Of Love - The Columbia Recordings\cd 5 Grover Washington Jr - Soulful Strut\11. Grover Washington Jr. - Heat Index.wav

Pre-gap length 0:00:01.08

Peak level 95.5 %
Extraction speed 9.9 X
Track quality 100.0 %
Test CRC 1EA49970
Copy CRC 1EA49970
Track not present in AccurateRip database
Copy OK

Track 12

Filename D:\#New Wav + flac\#cdr\Grover Washington Jr. - Sacred Kind Of Love - The Columbia Recordings\cd 5 Grover Washington Jr - Soulful Strut\12. Grover Washington Jr. - The Night Fantastic.wav

Pre-gap length 0:00:02.41

Peak level 95.4 %
Extraction speed 9.8 X
Track quality 100.0 %
Test CRC E499208B
Copy CRC E499208B
Track not present in AccurateRip database
Copy OK


None of the tracks are present in the AccurateRip database

No errors occurred

End of status report

–– CUETools DB Plugin V2.1.6

[CTDB TOCID: Kpal7LE9Yyfh5uKTWZ.KfTJ0WsQ-] disk not present in database
Submit result: Kpal7LE9Yyfh5uKTWZ.KfTJ0WsQ- has been uploaded


==== Log checksum DC5B02A8FBBF8E7758BF3202774E3CEA96ECE0C04070476DAF91568EB9F2B368 ====

Thanks to the Original ripper !