Subcategories

John Prine - The Tree of Forgiveness (2018)

Posted By: delpotro
John Prine - The Tree of Forgiveness (2018)

John Prine - The Tree of Forgiveness (2018)
EAC Rip | FLAC (tracks+log+.cue) - 169 Mb | MP3 CBR 320 kbps - 75 Mb | 00:32:54
Folk, Country, Singer-Songwriter | Label: Oh Boy Records

John Prine has set April 13th as the release date for his first album of all-new material in more than 13 years. The Tree of Forgiveness, on the iconic singer-songwriter's own Oh Boy label, was produced by Dave Cobb, the Grammy winner who has helmed projects for Chris Stapleton, Jason Isbell and Mary Chapin Carpenter, among others.

Recorded at Nashville's RCA Studio A, the album features several Prine co-writes with such noted tunesmiths as Roger Cook (the pair previously co-wrote George Strait's 1998 chart-topper "I Just Want to Dance With You"), the Black Key's Dan Auerbach, Keith Sykes and Phil Spector. Special guests on the record include Brandi Carlile, Jason Isbell and Amanda Shires.

Beginning in April and running throughout the remainder of 2018, the reigning Americana Music Association's Artist of the Year will be on tour, with several special guests on various dates. Sturgill Simpson appears with Prine at his Radio City Music Hall concert in New York on the new album's release date. Every concert ticket sold will include a CD copy of The Tree of Forgiveness upon its release. Other special guests throughout the tour will include Milk Carton Kids, Tyler Childers, Sam Outlaw, Margo Price, Colter Wall, Amanda Shires, Valerie June and others.
Tracklist:
1. Knockin' on Your Screen Door (02:19)
2. I Have Met My Love Today (01:50)
3. Egg & Daughter Nite, Lincoln Nebraska, 1967 (Crazy Bone) (04:05)
4. Summer's End (03:29)
5. Caravan of Fools (02:28)
6. Lonesome Friends of Science (04:41)
7. No Ordinary Blue (02:56)
8. Boundless Love (03:35)
9. God Only Knows (03:46)
10. When I Get to Heaven (03:42)

Exact Audio Copy V1.3 from 2. September 2016

EAC extraction logfile from 21. April 2018, 10:45

John Prine / The Tree of Forgivenes

Used drive : TSSTcorpCDDVDW SU-208DB Adapter: 1 ID: 0

Read mode : Secure
Utilize accurate stream : Yes
Defeat audio cache : Yes
Make use of C2 pointers : No

Read offset correction : 48
Overread into Lead-In and Lead-Out : No
Fill up missing offset samples with silence : Yes
Delete leading and trailing silent blocks : No
Null samples used in CRC calculations : Yes
Used interface : Native Win32 interface for Win NT & 2000
Gap handling : Appended to previous track

Used output format : User Defined Encoder
Selected bitrate : 128 kBit/s
Quality : High
Add ID3 tag : No
Command line compressor : C:\Program Files (x86)\Exact Audio Copy\Flac\flac.exe
Additional command line options : -8 -V -T "ARTIST=%artist%" -T "TITLE=%title%" -T "ALBUM=%albumtitle%" -T "DATE=%year%" -T "TRACKNUMBER=%tracknr%" -T "GENRE=%genre%" -T "PERFORMER=%albuminterpret%" -T "COMPOSER=%composer%" %haslyrics%–tag-from-file=LYRICS="%lyricsfile%"%haslyrics% -T "ALBUMARTIST=%albumartist%" -T "DISCNUMBER=%cdnumber%" -T "TOTALDISCS=%totalcds%" -T "TOTALTRACKS=%numtracks%" -T "COMMENT=%comment%" %source% -o %dest%


TOC of the extracted CD

Track | Start | Length | Start sector | End sector
––––––––––––––––––––––––––––-
1 | 0:00.00 | 2:19.67 | 0 | 10491
2 | 2:19.67 | 1:50.55 | 10492 | 18796
3 | 4:10.47 | 4:05.17 | 18797 | 37188
4 | 8:15.64 | 3:29.04 | 37189 | 52867
5 | 11:44.68 | 2:28.22 | 52868 | 63989
6 | 14:13.15 | 4:41.23 | 63990 | 85087
7 | 18:54.38 | 2:56.20 | 85088 | 98307
8 | 21:50.58 | 3:35.01 | 98308 | 114433
9 | 25:25.59 | 3:46.21 | 114434 | 131404
10 | 29:12.05 | 3:42.43 | 131405 | 148097


Track 1

Filename C:\EAC Rips\John Prine - The Tree of Forgiveness (2018) [FLAC]\01. Knocking on Your Screen Door.wav

Pre-gap length 0:00:02.00

Peak level 97.8 %
Extraction speed 2.0 X
Track quality 100.0 %
Test CRC 5BC14D22
Copy CRC 5BC14D22
Track not present in AccurateRip database
Copy OK

Track 2

Filename C:\EAC Rips\John Prine - The Tree of Forgiveness (2018) [FLAC]\02. I Have Met My Love Today.wav

Peak level 97.7 %
Extraction speed 2.0 X
Track quality 100.0 %
Test CRC 157460B0
Copy CRC 157460B0
Track not present in AccurateRip database
Copy OK

Track 3

Filename C:\EAC Rips\John Prine - The Tree of Forgiveness (2018) [FLAC]\03. Egg & Daughter Nite, Lincoln Nebraska, 1967 (Crazy Bone).wav

Peak level 97.7 %
Extraction speed 2.5 X
Track quality 100.0 %
Test CRC E0E8437C
Copy CRC E0E8437C
Track not present in AccurateRip database
Copy OK

Track 4

Filename C:\EAC Rips\John Prine - The Tree of Forgiveness (2018) [FLAC]\04. Summer's End.wav

Peak level 97.7 %
Extraction speed 2.6 X
Track quality 100.0 %
Test CRC 8B4450FA
Copy CRC 8B4450FA
Track not present in AccurateRip database
Copy OK

Track 5

Filename C:\EAC Rips\John Prine - The Tree of Forgiveness (2018) [FLAC]\05. Caravan of Fools.wav

Peak level 97.7 %
Extraction speed 2.6 X
Track quality 100.0 %
Test CRC 06F6C726
Copy CRC 06F6C726
Track not present in AccurateRip database
Copy OK

Track 6

Filename C:\EAC Rips\John Prine - The Tree of Forgiveness (2018) [FLAC]\06. The Lonesome Friends of Science.wav

Peak level 97.7 %
Extraction speed 3.1 X
Track quality 100.0 %
Test CRC B992397F
Copy CRC B992397F
Track not present in AccurateRip database
Copy OK

Track 7

Filename C:\EAC Rips\John Prine - The Tree of Forgiveness (2018) [FLAC]\07. No Ordinary Blue.wav

Peak level 97.7 %
Extraction speed 2.6 X
Track quality 99.9 %
Test CRC 7DBB0F6A
Copy CRC 7DBB0F6A
Track not present in AccurateRip database
Copy OK

Track 8

Filename C:\EAC Rips\John Prine - The Tree of Forgiveness (2018) [FLAC]\08. Boundless Love.wav

Peak level 97.7 %
Extraction speed 3.3 X
Track quality 100.0 %
Test CRC C529C316
Copy CRC C529C316
Track not present in AccurateRip database
Copy OK

Track 9

Filename C:\EAC Rips\John Prine - The Tree of Forgiveness (2018) [FLAC]\09. God Only Knows.wav

Peak level 97.7 %
Extraction speed 3.4 X
Track quality 100.0 %
Test CRC D1821240
Copy CRC D1821240
Track not present in AccurateRip database
Copy OK

Track 10

Filename C:\EAC Rips\John Prine - The Tree of Forgiveness (2018) [FLAC]\10. When I Get to Heaven.wav

Peak level 97.7 %
Extraction speed 3.6 X
Track quality 100.0 %
Test CRC C3EE5C76
Copy CRC C3EE5C76
Track not present in AccurateRip database
Copy OK


None of the tracks are present in the AccurateRip database

No errors occurred

End of status report

–– CUETools DB Plugin V2.1.6

[CTDB TOCID: GiPRa9AjBLeXZvioVxBVX9.y_F8-] found
Submit result: GiPRa9AjBLeXZvioVxBVX9.y_F8- has been confirmed
Track | CTDB Status
1 | (26/26) Accurately ripped
2 | (26/26) Accurately ripped
3 | (26/26) Accurately ripped
4 | (26/26) Accurately ripped
5 | (26/26) Accurately ripped
6 | (26/26) Accurately ripped
7 | (26/26) Accurately ripped
8 | (26/26) Accurately ripped
9 | (26/26) Accurately ripped
10 | (26/26) Accurately ripped


==== Log checksum C073BF5391CC5307CD7EACC8BA223855A158B63E7ABA482EB09C69FD472FD77C ====

Thanks to the Original ripper freeplay !