Subcategories
Tags
Language
Tags

John Zorn & VA - New Traditions in East Asian Bar Bands (1997)

Posted By: delpotro
John Zorn & VA - New Traditions in East Asian Bar Bands (1997)

John Zorn & VA - New Traditions in East Asian Bar Bands (1997)
EAC Rip | FLAC (tracks+log+.cue) - 290 Mb | MP3 CBR 320 kbps - 177 Mb | Covers included | 01:12:38
Avant-Garde Jazz, World Fusion, Spoken Word | Label: Tzadik Records

From the lyrical sensuality of Hu-Die (for 2 guitars), the aggressive fireworks of Hwang Chin-Ee (for two drummers) and the mystical ambience of Que Tran (for two keyboards), this album shows yet another side of Zorn's genius for the dramatic and the unexpected. Using the spoken languages of Chinese, Korean and Vietnamese as pure melody, this suite of 3 pieces of twin instruments and narrators is perhaps Zorn's most beautiful creation to date. Ten years in the making, these epic compositions, Zorn's most universally misunderstood pieces, are finally made available on an album. Original texts by Arto Lindsay, My-ung Mi-Kim, and Lin Hejinian. Performed by an all-star collection of the world's most creative improvising instrumentalists.

AllMusic Review by Stacia Proefrock
There are portions of New Traditions in East Asian Bar Bands that seem like the memory of music instead of music itself. John Zorn's work with films has enabled him to script a kind of music of the imagination. These pieces hang in mind-space like soundtracks to a dark, smoky film where the leading man finds himself absorbed by his environment – alone in a bar in a country he can't quite seem to leave. The music itself varies greatly from piece to piece. Performed entirely by pairs of musicians, it is not surprising that it often is comprised of a kind of duality. The balanced pair of guitars in "Hu Die" at times mimic the shiamsen; at times they create atmospheric, noise-oriented drones. The second piece, "Hwang Chin-Ee," alternates between the distinctly Asian rhythms of temple drums, and the kind of Latin-influenced lounge music played for wealthy American couples in the '50s who were looking for an exotic experience . The alterations in "Qu'ê Trân" are more subtle – instead of rhythm or mood, the interplay here is one of tone, with a mixture of deep, lingering waves of sound, tinkling like broken glass, and delicate notes hovering somewhere around a middle C. The spoken word pieces also lend an oppositional balance to the music – written by Arto Lindsay, Myung Mi Kim, and Lyn Heinjan, respectively, they are in Chinese, Korean, and Vietnamese. Themes of beauty, sexuality, and violence run throughout, the first and last pieces maintaining a narrative quality while "Hwang Chin-Ee" consists of short lyric pieces. The album as a whole is quite moving; it often contains a fragile beauty like a child on the verge of bursting into tears. This is one of John Zorn's greatest achievements to date.
Tracklist:
1. Bill Frisell, Fred Frith & Zhang Jinglin – Hu-Die (25:07)
2. Joey Baron, Jung Hee Shin & Samm Bennett – Hwang Chin-Ee (16:40)
3. Anh Tran, Anthony Coleman & Wayne Horvitz – Quề Trân (30:45)

Exact Audio Copy V1.3 from 2. September 2016

EAC extraction logfile from 18. December 2019, 10:18

John Zorn / New Traditions in East Asian Bar Bands

Used drive : HL-DT-STDVDRAM GP65NB60 Adapter: 1 ID: 1

Read mode : Secure
Utilize accurate stream : Yes
Defeat audio cache : Yes
Make use of C2 pointers : No

Read offset correction : 6
Overread into Lead-In and Lead-Out : No
Fill up missing offset samples with silence : Yes
Delete leading and trailing silent blocks : No
Null samples used in CRC calculations : Yes
Used interface : Native Win32 interface for Win NT & 2000
Gap handling : Appended to previous track

Used output format : User Defined Encoder
Selected bitrate : 1024 kBit/s
Quality : High
Add ID3 tag : No
Command line compressor : C:\Program Files (x86)\Exact Audio Copy\Flac\flac.exe
Additional command line options : -8 -V -T "ARTIST=%artist%" -T "TITLE=%title%" -T "ALBUM=%albumtitle%" -T "DATE=%year%" -T "TRACKNUMBER=%tracknr%" -T "GENRE=%genre%" -T "PERFORMER=%albuminterpret%" -T "COMPOSER=%composer%" %haslyrics%–tag-from-file=LYRICS="%lyricsfile%"%haslyrics% -T "ALBUMARTIST=%albumartist%" -T "DISCNUMBER=%cdnumber%" -T "TOTALDISCS=%totalcds%" -T "TOTALTRACKS=%numtracks%" -T "COMMENT=%comment%" %source% -o %dest%


TOC of the extracted CD

Track | Start | Length | Start sector | End sector
––––––––––––––––––––––––––––-
1 | 0:00.00 | 25:09.27 | 0 | 113201
2 | 25:09.27 | 16:41.60 | 113202 | 188336
3 | 41:51.12 | 30:47.08 | 188337 | 326869


Track 1

Filename C:\Users\Setup\Music\EAC Rips\John Zorn - New Traditions in East Asian Bar Bands (1997) [CD FLAC] {TZ 7311}\01 - Hu Die.wav

Pre-gap length 0:00:02.00

Peak level 85.8 %
Extraction speed 1.7 X
Track quality 100.0 %
Test CRC 5FF5F28F
Copy CRC 5FF5F28F
Accurately ripped (confidence 6) [C5DD5D78] (AR v2)
Copy OK

Track 2

Filename C:\Users\Setup\Music\EAC Rips\John Zorn - New Traditions in East Asian Bar Bands (1997) [CD FLAC] {TZ 7311}\02 - Hwang Chin-Ee.wav

Peak level 98.8 %
Extraction speed 2.3 X
Track quality 100.0 %
Test CRC BAEDD0D0
Copy CRC BAEDD0D0
Accurately ripped (confidence 6) [CFB59274] (AR v2)
Copy OK

Track 3

Filename C:\Users\Setup\Music\EAC Rips\John Zorn - New Traditions in East Asian Bar Bands (1997) [CD FLAC] {TZ 7311}\03 - Qué Trân.wav

Peak level 50.1 %
Extraction speed 0.8 X
Track quality 99.8 %
Test CRC 6BA722E4
Copy CRC 6BA722E4
Accurately ripped (confidence 5) [E8DC8141] (AR v2)
Copy OK


All tracks accurately ripped

No errors occurred

End of status report

–– CUETools DB Plugin V2.1.6

[CTDB TOCID: TRLSTwOENN1NRMsWN1Oe.crRxeU-] found
Submit result: TRLSTwOENN1NRMsWN1Oe.crRxeU- has been confirmed
Track | CTDB Status
1 | (25/25) Accurately ripped
2 | (24/25) Accurately ripped
3 | (25/25) Accurately ripped


==== Log checksum 8EB4C2D38AE51973D52E58D2456B937CD8E97808F2C3CA20525A310AA04625ED ====

Thanks to the Original ripper !