Subcategories

Rockpile - Live At Montreux 1980 (2011)

Posted By: delpotro
Rockpile - Live At Montreux 1980 (2011)

Rockpile - Live At Montreux 1980 (2011)
EAC Rip | FLAC (tracks+log+.cue) - 354 Mb | MP3 CBR 320 kbps - 113 Mb | 00:49:09
Rock'n'Roll, Rockabilly, Pub Rock, Powerpop | Label: Eagle Records

Live archive release from the Rock/New Wave supergroup featuring Nick Lowe and Dave Edmunds along with Billy Bremner and Terry Williams. Recorded live in 1980, this 16 track set finds the bad playing songs from their Seconds Of Pleasure album along with choice tracks from Edmunds' and Lowe's solo catalog and more.

AllMusic Review by Stephen Thomas Erlewine
A staple on the pub rock and new wave live circuits since their inception in 1976, Rockpile didn’t record a record under their own name until 1980, by which time the tensions between co-leaders Dave Edmunds and Nick Lowe were beginning to reach a boiling point. They split not long after the ’80 release of their lone studio album, Seconds of Pleasure, an LP they were supporting when they appeared at the Montreux Jazz Festival in August of 1980. That set was released 31 years later by Eagle Rock as the appropriately named Live at Montreux 1980, marking the first official live Rockpile release (not to mention the second official Rockpile album overall). Even if Rockpile were close to the end, they never play as if there were friction, charging headlong into their set from the moment “Sweet Little Lisa” kicks off the 16-song set list. Betraying the group’s origins as an Edmunds backing band, the concert weighs heavily in Dave’s favor – he has ten songs compared to Nick’s three, with Billy Bremner singing “Trouble Boys” and "You Ain't Nothin' But Fine" – which means it’s a straightforward rock & roll romp, relying on Chuck Berry and Eddie Cochran, relegating power pop to a passing mention with “Teacher Teacher” and “Girls Talk.” This isn’t a complaint, it’s a characteristic, and the group is in prime fighting form here, tearing through the set with muscle and purpose. Perhaps there are better Rockpile boots floating around in the ether, but there are no complaints with this tremendously entertaining set.
Tracklist:
1. Sweet Little Lisa (02:33)
2. So It Goes (02:48)
3. I Knew The Bride (02:46)
4. Queen Of Hearts (02:56)
5. Switchboard Susan (03:16)
6. Trouble Boys (03:16)
7. Teacher Teacher (02:42)
8. Girls Talk (03:22)
9. 3 Time Loser (02:54)
10. You Ain't Nothin' But Fine (02:48)
11. Crawling From The Wreckage (03:00)
12. Let It Rock (02:51)
13. I Hear You Knocking (02:34)
14. They Called It Rock (03:49)
15. Ju Ju Man (03:21)
16. Let's Talk About Us (03:59)

Exact Audio Copy V1.3 from 2. September 2016

EAC extraction logfile from 30. April 2017, 0:40

Rockpile / Live at Montreux 1980

Used drive : ATAPI DVD A DH16A6S Adapter: 1 ID: 0

Read mode : Secure
Utilize accurate stream : Yes
Defeat audio cache : Yes
Make use of C2 pointers : No

Read offset correction : 6
Overread into Lead-In and Lead-Out : No
Fill up missing offset samples with silence : Yes
Delete leading and trailing silent blocks : No
Null samples used in CRC calculations : Yes
Used interface : Native Win32 interface for Win NT & 2000
Gap handling : Appended to previous track

Used output format : User Defined Encoder
Selected bitrate : 1024 kBit/s
Quality : High
Add ID3 tag : No
Command line compressor : C:\Program Files (x86)\Exact Audio Copy\Flac\flac.exe
Additional command line options : -8 -e -p -V -T "ARTIST=%artist%" -T "TITLE=%title%" -T "ALBUM=%albumtitle%" -T "DATE=%year%" -T "TRACKNUMBER=%tracknr%" -T "GENRE=%genre%" -T "PERFORMER=%albuminterpret%" -T "COMPOSER=%composer%" %haslyrics%–tag-from-file=LYRICS="%lyricsfile%"%haslyrics% -T "ALBUMARTIST=%albumartist%" -T "DISCNUMBER=%cdnumber%" -T "TOTALDISCS=%totalcds%" -T "TOTALTRACKS=%numtracks%" -T "COMMENT=%comment%" %source% -o %dest%


TOC of the extracted CD

Track | Start | Length | Start sector | End sector
––––––––––––––––––––––––––––-
1 | 0:00.00 | 2:33.67 | 0 | 11541
2 | 2:33.67 | 2:48.69 | 11542 | 24210
3 | 5:22.61 | 2:46.17 | 24211 | 36677
4 | 8:09.03 | 2:56.20 | 36678 | 49897
5 | 11:05.23 | 3:16.07 | 49898 | 64604
6 | 14:21.30 | 3:16.04 | 64605 | 79308
7 | 17:37.34 | 2:42.36 | 79309 | 91494
8 | 20:19.70 | 3:22.56 | 91495 | 106700
9 | 23:42.51 | 2:54.16 | 106701 | 119766
10 | 26:36.67 | 2:48.70 | 119767 | 132436
11 | 29:25.62 | 3:07.24 | 132437 | 146485
12 | 32:33.11 | 2:51.40 | 146486 | 159350
13 | 35:24.51 | 2:34.11 | 159351 | 170911
14 | 37:58.62 | 3:49.48 | 170912 | 188134
15 | 41:48.35 | 3:21.70 | 188135 | 203279
16 | 45:10.30 | 3:59.33 | 203280 | 221237


Track 1

Filename H:\Rockpile - Live at Montreux 1980 (2011) [FLAC] {ER202372}\01 Sweet Little Lisa.wav

Pre-gap length 0:00:02.00

Peak level 98.8 %
Extraction speed 2.9 X
Track quality 100.0 %
Test CRC B4A482FF
Copy CRC B4A482FF
Accurately ripped (confidence 10) [EC9C9A8F] (AR v2)
Copy OK

Track 2

Filename H:\Rockpile - Live at Montreux 1980 (2011) [FLAC] {ER202372}\02 So it Goes.wav

Peak level 98.8 %
Extraction speed 3.3 X
Track quality 100.0 %
Test CRC DA83CF62
Copy CRC DA83CF62
Accurately ripped (confidence 10) [432C4179] (AR v2)
Copy OK

Track 3

Filename H:\Rockpile - Live at Montreux 1980 (2011) [FLAC] {ER202372}\03 I Knew the Bride.wav

Peak level 98.8 %
Extraction speed 3.5 X
Track quality 100.0 %
Test CRC 91855D43
Copy CRC 91855D43
Accurately ripped (confidence 10) [01F2E89C] (AR v2)
Copy OK

Track 4

Filename H:\Rockpile - Live at Montreux 1980 (2011) [FLAC] {ER202372}\04 Queen of Hearts.wav

Peak level 98.8 %
Extraction speed 2.9 X
Track quality 99.9 %
Test CRC 212D16DB
Copy CRC 212D16DB
Accurately ripped (confidence 10) [8B7033FC] (AR v2)
Copy OK

Track 5

Filename H:\Rockpile - Live at Montreux 1980 (2011) [FLAC] {ER202372}\05 Switchboard Susan.wav

Peak level 98.8 %
Extraction speed 4.0 X
Track quality 100.0 %
Test CRC 0884603E
Copy CRC 0884603E
Accurately ripped (confidence 10) [3A33D24D] (AR v2)
Copy OK

Track 6

Filename H:\Rockpile - Live at Montreux 1980 (2011) [FLAC] {ER202372}\06 Trouble Boys.wav

Peak level 98.8 %
Extraction speed 4.3 X
Track quality 100.0 %
Test CRC C741D2EE
Copy CRC C741D2EE
Accurately ripped (confidence 10) [63C64A2E] (AR v2)
Copy OK

Track 7

Filename H:\Rockpile - Live at Montreux 1980 (2011) [FLAC] {ER202372}\07 Teacher Teacher.wav

Peak level 98.8 %
Extraction speed 4.3 X
Track quality 100.0 %
Test CRC A4142B44
Copy CRC A4142B44
Accurately ripped (confidence 10) [0C77C64C] (AR v2)
Copy OK

Track 8

Filename H:\Rockpile - Live at Montreux 1980 (2011) [FLAC] {ER202372}\08 Girls Talk.wav

Peak level 98.8 %
Extraction speed 4.7 X
Track quality 100.0 %
Test CRC AAE05D72
Copy CRC AAE05D72
Accurately ripped (confidence 10) [31D4D354] (AR v2)
Copy OK

Track 9

Filename H:\Rockpile - Live at Montreux 1980 (2011) [FLAC] {ER202372}\09 3 Time Loser.wav

Peak level 98.8 %
Extraction speed 4.7 X
Track quality 100.0 %
Test CRC 847B2AA5
Copy CRC 847B2AA5
Accurately ripped (confidence 10) [280A34F1] (AR v2)
Copy OK

Track 10

Filename H:\Rockpile - Live at Montreux 1980 (2011) [FLAC] {ER202372}\10 You Ain't Nothin' But Fine.wav

Peak level 98.8 %
Extraction speed 4.9 X
Track quality 100.0 %
Test CRC 2168E435
Copy CRC 2168E435
Accurately ripped (confidence 10) [C0ED75F9] (AR v2)
Copy OK

Track 11

Filename H:\Rockpile - Live at Montreux 1980 (2011) [FLAC] {ER202372}\11 Crawling From the Wreckage.wav

Peak level 98.8 %
Extraction speed 5.1 X
Track quality 100.0 %
Test CRC F95FA571
Copy CRC F95FA571
Accurately ripped (confidence 10) [769F419D] (AR v2)
Copy OK

Track 12

Filename H:\Rockpile - Live at Montreux 1980 (2011) [FLAC] {ER202372}\12 Let it Rock.wav

Peak level 98.8 %
Extraction speed 5.2 X
Track quality 100.0 %
Test CRC A55A22DF
Copy CRC A55A22DF
Accurately ripped (confidence 10) [769537E1] (AR v2)
Copy OK

Track 13

Filename H:\Rockpile - Live at Montreux 1980 (2011) [FLAC] {ER202372}\13 I Hear You Knocking.wav

Peak level 98.8 %
Extraction speed 5.2 X
Track quality 100.0 %
Test CRC F3D358CA
Copy CRC F3D358CA
Accurately ripped (confidence 10) [EC99810E] (AR v2)
Copy OK

Track 14

Filename H:\Rockpile - Live at Montreux 1980 (2011) [FLAC] {ER202372}\14 They Called It Rock.wav

Peak level 98.8 %
Extraction speed 5.8 X
Track quality 100.0 %
Test CRC D8A30663
Copy CRC D8A30663
Accurately ripped (confidence 10) [CE3D4CDB] (AR v2)
Copy OK

Track 15

Filename H:\Rockpile - Live at Montreux 1980 (2011) [FLAC] {ER202372}\15 Ju Ju Man.wav

Peak level 98.8 %
Extraction speed 5.8 X
Track quality 100.0 %
Test CRC E95BCCA6
Copy CRC E95BCCA6
Accurately ripped (confidence 10) [1AFE5D09] (AR v2)
Copy OK

Track 16

Filename H:\Rockpile - Live at Montreux 1980 (2011) [FLAC] {ER202372}\16 Let's Talk About Us.wav

Peak level 98.8 %
Extraction speed 6.1 X
Track quality 100.0 %
Test CRC C680E08F
Copy CRC C680E08F
Accurately ripped (confidence 10) [EC878405] (AR v2)
Copy OK


All tracks accurately ripped

No errors occurred

End of status report

–– CUETools DB Plugin V2.1.6

[CTDB TOCID: bQx1UqfLvNHLLRTxkaEgAdlYaqc-] found
Submit result: bQx1UqfLvNHLLRTxkaEgAdlYaqc- has been confirmed
Track | CTDB Status
1 | (15/15) Accurately ripped
2 | (15/15) Accurately ripped
3 | (15/15) Accurately ripped
4 | (15/15) Accurately ripped
5 | (15/15) Accurately ripped
6 | (15/15) Accurately ripped
7 | (15/15) Accurately ripped
8 | (15/15) Accurately ripped
9 | (15/15) Accurately ripped
10 | (15/15) Accurately ripped
11 | (15/15) Accurately ripped
12 | (15/15) Accurately ripped
13 | (15/15) Accurately ripped
14 | (15/15) Accurately ripped
15 | (15/15) Accurately ripped
16 | (15/15) Accurately ripped


==== Log checksum 60AD9BB197EFB60A01FF793E2940A0E75DB1C875CC7E6327D07B4BE05ED1E890 ====

Thanks to the Original ripper !