Tags
Language
Tags

Rod Stewart - The Tears Of Hercules (2021)

Posted By: delpotro
Rod Stewart - The Tears Of Hercules (2021)

Rod Stewart - The Tears Of Hercules (2021)
EAC Rip | FLAC (tracks+log+.cue) | Scans included | 00:44:26 | 361 Mb
Pop Rock | Label: Warner Records

Sir Rod Stewart’s rekindled love of songwriting grows even stronger on his brand-new studio album, The Tears of Hercules. This is Stewart’s fourth new album of original songs since 2013 – and his 31st album to date - and for this latest collection, Stewart wrote nine of the 12 songs, including the first single, “One More Time.” In addition to the new tracks, The Tears of Hercules includes covers of Marc Jordan, Johnny Cash, and more. This is a project close to Rod Stewart’s heart, especially the song “Touchline,” which he dedicated to his father, who taught him and his brothers to love football, a tradition Sir Rod has passed down to his sons. Rod Stewart is one of the best-selling artists in the history of recorded music, with an estimated 250 million records and singles sold worldwide. His signature voice, style, and songwriting have transcended popular music genres, from rock, folk, soul, R&B, and even the Great American Songbook; making him one of the few stars to enjoy chart-topping albums throughout every decade of his career.
Tracklist:
1. One More Time (03:58)
2. Gabriella (03:33)
3. All My Days (03:37)
4. Some Kind Of Wonderful (03:02)
5. Born To Boogie (A Tribute To Marc Bolan) (03:43)
6. Kookooaramabama (03:43)
7. I Can't Imagine (03:35)
8. The Tears Of Hercules (04:10)
9. Hold On (04:19)
10. Precious Memories (03:59)
11. These Are My People (02:57)
12. Touchline (03:55)

Exact Audio Copy V1.6 from 23. October 2020

EAC extraction logfile from 17. November 2021, 17:38

Rod Stewart / The Tears Of Hercules

Used drive : PLEXTOR PX-891SAF PLUS Adapter: 1 ID: 0

Read mode : Secure
Utilize accurate stream : Yes
Defeat audio cache : Yes
Make use of C2 pointers : No

Read offset correction : 6
Overread into Lead-In and Lead-Out : No
Fill up missing offset samples with silence : Yes
Delete leading and trailing silent blocks : No
Null samples used in CRC calculations : Yes
Used interface : Native Win32 interface for Win NT & 2000
Gap handling : Appended to previous track

Used output format : User Defined Encoder
Selected bitrate : 1024 kBit/s
Quality : High
Add ID3 tag : No
Command line compressor : C:\Program Files (x86)\Exact Audio Copy\Flac\flac.exe
Additional command line options : -0 -V -T "ARTIST=%artist%" -T "TITLE=%title%" -T "ALBUM=%albumtitle%" -T "DATE=%year%" -T "TRACKNUMBER=%tracknr%" -T "TOTALTRACKS=%numtracks%" -T "GENRE=%genre%" -T "COMMENT=Naftamusic Release!" %source%


TOC of the extracted CD

Track | Start | Length | Start sector | End sector
––––––––––––––––––––––––––––-
1 | 0:00.00 | 3:57.74 | 0 | 17848
2 | 3:57.74 | 3:31.49 | 17849 | 33722
3 | 7:29.48 | 3:37.02 | 33723 | 49999
4 | 11:06.50 | 3:00.55 | 50000 | 63554
5 | 14:07.30 | 3:41.49 | 63555 | 80178
6 | 17:49.04 | 3:42.30 | 80179 | 96858
7 | 21:31.34 | 3:36.02 | 96859 | 113060
8 | 25:07.36 | 4:10.03 | 113061 | 131813
9 | 29:17.39 | 4:17.51 | 131814 | 151139
10 | 33:35.15 | 3:58.22 | 151140 | 169011
11 | 37:33.37 | 2:57.18 | 169012 | 182304
12 | 40:30.55 | 3:55.70 | 182305 | 199999


Track 1

Filename E:\Nafta Releases\Rod Stewart - The Tears Of Hercules (2021)[FLAC]-Naftamusic\01 - One More Time.wav

Pre-gap length 0:00:02.00

Peak level 99.2 %
Extraction speed 1.9 X
Track quality 100.0 %
Test CRC 72309B50
Copy CRC 72309B50
Track not present in AccurateRip database
Copy OK

Track 2

Filename E:\Nafta Releases\Rod Stewart - The Tears Of Hercules (2021)[FLAC]-Naftamusic\02 - Gabriella.wav

Peak level 100.0 %
Extraction speed 2.0 X
Track quality 100.0 %
Test CRC CA97E3AE
Copy CRC CA97E3AE
Track not present in AccurateRip database
Copy OK

Track 3

Filename E:\Nafta Releases\Rod Stewart - The Tears Of Hercules (2021)[FLAC]-Naftamusic\03 - All My Days.wav

Peak level 99.2 %
Extraction speed 2.2 X
Track quality 100.0 %
Test CRC A213FEC9
Copy CRC A213FEC9
Track not present in AccurateRip database
Copy OK

Track 4

Filename E:\Nafta Releases\Rod Stewart - The Tears Of Hercules (2021)[FLAC]-Naftamusic\04 - Some Kind Of Wonderful.wav

Peak level 99.3 %
Extraction speed 2.3 X
Track quality 100.0 %
Test CRC 58175F2C
Copy CRC 58175F2C
Track not present in AccurateRip database
Copy OK

Track 5

Filename E:\Nafta Releases\Rod Stewart - The Tears Of Hercules (2021)[FLAC]-Naftamusic\05 - Born To Boogie (A Tribute To Marc Bolan).wav

Peak level 99.6 %
Extraction speed 2.5 X
Track quality 100.0 %
Test CRC 2321B26B
Copy CRC 2321B26B
Track not present in AccurateRip database
Copy OK

Track 6

Filename E:\Nafta Releases\Rod Stewart - The Tears Of Hercules (2021)[FLAC]-Naftamusic\06 - Kookooaramabama.wav

Peak level 100.0 %
Extraction speed 1.9 X
Track quality 99.9 %
Test CRC D26E9DA5
Copy CRC D26E9DA5
Track not present in AccurateRip database
Copy OK

Track 7

Filename E:\Nafta Releases\Rod Stewart - The Tears Of Hercules (2021)[FLAC]-Naftamusic\07 - I Can't Imagine.wav

Peak level 99.3 %
Extraction speed 2.8 X
Track quality 100.0 %
Test CRC D3DFEFFA
Copy CRC D3DFEFFA
Track not present in AccurateRip database
Copy OK

Track 8

Filename E:\Nafta Releases\Rod Stewart - The Tears Of Hercules (2021)[FLAC]-Naftamusic\08 - The Tears Of Hercules.wav

Peak level 99.1 %
Extraction speed 3.0 X
Track quality 100.0 %
Test CRC 1C430C75
Copy CRC 1C430C75
Track not present in AccurateRip database
Copy OK

Track 9

Filename E:\Nafta Releases\Rod Stewart - The Tears Of Hercules (2021)[FLAC]-Naftamusic\09 - Hold On.wav

Peak level 99.0 %
Extraction speed 3.1 X
Track quality 100.0 %
Test CRC A60BA697
Copy CRC A60BA697
Track not present in AccurateRip database
Copy OK

Track 10

Filename E:\Nafta Releases\Rod Stewart - The Tears Of Hercules (2021)[FLAC]-Naftamusic\10 - Precious Memories.wav

Peak level 99.4 %
Extraction speed 3.2 X
Track quality 100.0 %
Test CRC 2DCD700A
Copy CRC 2DCD700A
Track not present in AccurateRip database
Copy OK

Track 11

Filename E:\Nafta Releases\Rod Stewart - The Tears Of Hercules (2021)[FLAC]-Naftamusic\11 - These Are My People.wav

Peak level 99.2 %
Extraction speed 3.2 X
Track quality 100.0 %
Test CRC F074F447
Copy CRC F074F447
Track not present in AccurateRip database
Copy OK

Track 12

Filename E:\Nafta Releases\Rod Stewart - The Tears Of Hercules (2021)[FLAC]-Naftamusic\12 - Touchline.wav

Peak level 98.9 %
Extraction speed 3.4 X
Track quality 100.0 %
Test CRC 1C2422FB
Copy CRC 1C2422FB
Track not present in AccurateRip database
Copy OK


None of the tracks are present in the AccurateRip database

No errors occurred

End of status report

==== Log checksum CA4C6CA5E1A52044B226471CD89C62653E6A1F6CD6D3E641D3A9A91F1BCC4B7B ====

Thanks to the Original ripper !