Tags
Language
Tags

Sarah Brightman ‎- Hymn In Concert (2019)

Posted By: delpotro
Sarah Brightman ‎- Hymn In Concert (2019)

Sarah Brightman ‎- Hymn In Concert (2019)
EAC Rip | FLAC (tracks+log+.cue) - 425 Mb | MP3 CBR 320 kbps - 143 Mb | Scans - 439 Mb | 01:02:10
Classical, Vocal | Label: Eagle Vision

“HYMN: Sarah Brightman In Concert” was captured from the Festspielhaus in the enchanted Bavarian Alps, known for its magical lakes, mountains, castles, ‘cuckoo clock’ houses, and the historic and captivating Neuschwanstein Castle. Conceived and created by Sarah Brightman, Anthony Van Laast (“Mamma Mia”, “Beauty and the Beast”), and Frank Peterson, the two-act performance is a hybrid of a musical film and a large-scale concert production. Sarah is accompanied by her band, the Bavarian Philharmonic orchestra, a 50-voice choir and the Ludwig Ensemble of dancers, Special guest performers include Japanese superstar Yoshiki, Vincent Niclo, Mario Frangoulis and Narcis.

Known for her three-octave range and for pioneering the classical-crossover music movement, Sarah Brightman has amassed global sales of more than 30 million units. The only artist to have simultaneously topped Billboard's dance and classical music charts, Brightman has achieved more than 180 gold and platinum awards in over 40 countries. She is also known for her iconic star turn in The Phantom of the Opera, whose soundtrack has sold more than 40 million copies worldwide. Her duet with Bocelli, ‘Time To Say Goodbye’, became an international success selling 12 million copies worldwide.

Brightman’s 15th studio album HYMN debuted at #1 on both the Classical and Classical Crossover Billboard charts and was released on November 9th, 2018 inconjuction with her critically acclaimed world tour, HYMN: Sarah Brightman In Concert! The tour began in South America, and her ‘evening of wonderment’ as been mesmerizing concert goers throughout Mexico, US, Canada and Japan.
Tracklist:
1. Fleurs Du Mal (04:00)
2. Anytime, Anywhere (03:13)
3. Gia Nel Seno (La Storia Di Lucrezia) (03:07)
4. Follow Me (04:00)
5. Figlio Perduto (04:34)
6. Tu Che M'Hai Preso Il Cuor (02:42)
7. Miracle (Sarah's Version) (feat. Yoshiki) (04:52)
8. Hymn (04:28)
9. Sogni (feat. Vincent Niclo) (04:19)
10. Better Is One Day (04:06)
11. Canto Per Noi (04:19)
12. Pie Jesu (feat. Narcis) (04:17)
13. Fly To Paradise (05:35)
14. Time To Say Goodbye (04:21)
15. Sky And Sand (04:16)

Exact Audio Copy V1.3 from 2. September 2016

EAC extraction logfile from 15. November 2019, 22:15

Sarah Brightman / Hymn in Concert (Special-Deluxe)

Used drive : ASUS SDRW-08D2S-U Adapter: 1 ID: 1

Read mode : Secure
Utilize accurate stream : Yes
Defeat audio cache : Yes
Make use of C2 pointers : No

Read offset correction : 6
Overread into Lead-In and Lead-Out : No
Fill up missing offset samples with silence : Yes
Delete leading and trailing silent blocks : No
Null samples used in CRC calculations : Yes
Used interface : Native Win32 interface for Win NT & 2000
Gap handling : Appended to previous track

Used output format : User Defined Encoder
Selected bitrate : 768 kBit/s
Quality : High
Add ID3 tag : No
Command line compressor : C:\Program Files (x86)\Exact Audio Copy\FLAC\FLAC.EXE
Additional command line options : -6 -V -T "ARTIST=%artist%" -T "TITLE=%title%" -T "ALBUM=%albumtitle%" -T "DATE=%year%" -T "TRACKNUMBER=%tracknr%" -T "GENRE=%genre%" -T "COMMENT=%comment%" -T "BAND=%albuminterpret%" -T "ALBUMARTIST=%albuminterpret%" -T "COMPOSER=%composer%" %haslyrics%–tag-from-file=LYRICS="%lyricsfile%"%haslyrics% -T "DISCNUMBER=%cdnumber%" -T "TOTALDISCS=%totalcds%" -T "TOTALTRACKS=%numtracks%" %hascover%–picture="%coverfile%"%hascover% %source% -o %dest%


TOC of the extracted CD

Track | Start | Length | Start sector | End sector
––––––––––––––––––––––––––––-
1 | 0:00.00 | 4:00.37 | 0 | 18036
2 | 4:00.37 | 3:12.41 | 18037 | 32477
3 | 7:13.03 | 3:07.33 | 32478 | 46535
4 | 10:20.36 | 4:00.01 | 46536 | 64536
5 | 14:20.37 | 4:34.36 | 64537 | 85122
6 | 18:54.73 | 2:41.43 | 85123 | 97240
7 | 21:36.41 | 4:51.45 | 97241 | 119110
8 | 26:28.11 | 4:28.20 | 119111 | 139230
9 | 30:56.31 | 4:19.21 | 139231 | 158676
10 | 35:15.52 | 4:05.40 | 158677 | 177091
11 | 39:21.17 | 4:19.11 | 177092 | 196527
12 | 43:40.28 | 4:17.06 | 196528 | 215808
13 | 47:57.34 | 5:35.37 | 215809 | 240970
14 | 53:32.71 | 4:21.12 | 240971 | 260557
15 | 57:54.08 | 4:16.10 | 260558 | 279767


Track 1

Filename D:\(2019) Sarah Brightman - Hymn in Concert (Special-Deluxe)\01-Sarah Brightman-Fleurs du Mal (Live at Ludwigs Festspielhaus, 2018).wav

Pre-gap length 0:00:02.00

Peak level 99.7 %
Extraction speed 2.6 X
Track quality 100.0 %
Test CRC DB25011A
Copy CRC DB25011A
Track not present in AccurateRip database
Copy OK

Track 2

Filename D:\(2019) Sarah Brightman - Hymn in Concert (Special-Deluxe)\02-Sarah Brightman-Anytime, Anywhere (Live at Ludwigs Festspielhaus, 2018).wav

Peak level 97.4 %
Extraction speed 2.3 X
Track quality 99.9 %
Test CRC 44BC4637
Copy CRC 44BC4637
Track not present in AccurateRip database
Copy OK

Track 3

Filename D:\(2019) Sarah Brightman - Hymn in Concert (Special-Deluxe)\03-Sarah Brightman-Gia Nel Seno [La Storia di Lucrezia] (Live at Ludwigs Festspielhaus, 2018).wav

Peak level 96.3 %
Extraction speed 3.0 X
Track quality 100.0 %
Test CRC 2E44A036
Copy CRC 2E44A036
Track not present in AccurateRip database
Copy OK

Track 4

Filename D:\(2019) Sarah Brightman - Hymn in Concert (Special-Deluxe)\04-Sarah Brightman-Follow Me (Live at Ludwigs Festspielhaus, 2018).wav

Peak level 98.9 %
Extraction speed 2.8 X
Track quality 99.9 %
Test CRC DA4621A3
Copy CRC DA4621A3
Track not present in AccurateRip database
Copy OK

Track 5

Filename D:\(2019) Sarah Brightman - Hymn in Concert (Special-Deluxe)\05-Sarah Brightman-Figlio Perduto (Live at Ludwigs Festspielhaus, 2018).wav

Peak level 97.4 %
Extraction speed 3.5 X
Track quality 100.0 %
Test CRC 6581E309
Copy CRC 6581E309
Track not present in AccurateRip database
Copy OK

Track 6

Filename D:\(2019) Sarah Brightman - Hymn in Concert (Special-Deluxe)\06-Sarah Brightman-Tu Che M'Hai Preso Il Cuor (Live at Ludwigs Festspielhaus, 2018).wav

Peak level 96.2 %
Extraction speed 3.5 X
Track quality 100.0 %
Test CRC 3CD2CF58
Copy CRC 3CD2CF58
Track not present in AccurateRip database
Copy OK

Track 7

Filename D:\(2019) Sarah Brightman - Hymn in Concert (Special-Deluxe)\07-Sarah Brightman feat. Yoshiki-Miracle [Sarah's Version] (Live at Ludwigs Festspielhaus, 2018).wav

Peak level 98.0 %
Extraction speed 4.0 X
Track quality 100.0 %
Test CRC EDE1E454
Copy CRC EDE1E454
Track not present in AccurateRip database
Copy OK

Track 8

Filename D:\(2019) Sarah Brightman - Hymn in Concert (Special-Deluxe)\08-Sarah Brightman-Hymn (Live at Ludwigs Festspielhaus, 2018).wav

Peak level 97.0 %
Extraction speed 3.6 X
Track quality 99.9 %
Test CRC AAE5653B
Copy CRC AAE5653B
Track not present in AccurateRip database
Copy OK

Track 9

Filename D:\(2019) Sarah Brightman - Hymn in Concert (Special-Deluxe)\09-Sarah Brightman feat. Vincent Niclo-Sogni (Live at Ludwigs Festspielhaus, 2018).wav

Peak level 96.9 %
Extraction speed 3.7 X
Track quality 99.9 %
Test CRC 40541D3B
Copy CRC 40541D3B
Track not present in AccurateRip database
Copy OK

Track 10

Filename D:\(2019) Sarah Brightman - Hymn in Concert (Special-Deluxe)\10-Sarah Brightman-Better is One Day (Live at Ludwigs Festspielhaus, 2018).wav

Peak level 98.4 %
Extraction speed 4.5 X
Track quality 100.0 %
Test CRC B954843A
Copy CRC B954843A
Track not present in AccurateRip database
Copy OK

Track 11

Filename D:\(2019) Sarah Brightman - Hymn in Concert (Special-Deluxe)\11-Sarah Brightman-Canto per Noi (Live at Ludwigs Festspielhaus, 2018).wav

Peak level 95.9 %
Extraction speed 4.6 X
Track quality 100.0 %
Test CRC D2B9D056
Copy CRC D2B9D056
Track not present in AccurateRip database
Copy OK

Track 12

Filename D:\(2019) Sarah Brightman - Hymn in Concert (Special-Deluxe)\12-Sarah Brightman feat. Narcis-Pie Jesu (Live at Ludwigs Festspielhaus, 2018).wav

Peak level 96.3 %
Extraction speed 4.8 X
Track quality 100.0 %
Test CRC 662F62A1
Copy CRC 662F62A1
Track not present in AccurateRip database
Copy OK

Track 13

Filename D:\(2019) Sarah Brightman - Hymn in Concert (Special-Deluxe)\13-Sarah Brightman-Fly to Paradise (Live at Ludwigs Festspielhaus, 2018).wav

Peak level 99.4 %
Extraction speed 5.0 X
Track quality 100.0 %
Test CRC 185F0102
Copy CRC 185F0102
Track not present in AccurateRip database
Copy OK

Track 14

Filename D:\(2019) Sarah Brightman - Hymn in Concert (Special-Deluxe)\14-Sarah Brightman-Time to Say Goodbye (Live at Ludwigs Festspielhaus, 2018).wav

Peak level 97.9 %
Extraction speed 5.1 X
Track quality 100.0 %
Test CRC E612D670
Copy CRC E612D670
Track not present in AccurateRip database
Copy OK

Track 15

Filename D:\(2019) Sarah Brightman - Hymn in Concert (Special-Deluxe)\15-Sarah Brightman-Sky and Sand (Live at Ludwigs Festspielhaus, 2018).wav

Peak level 99.9 %
Extraction speed 5.1 X
Track quality 100.0 %
Test CRC EADAAB8A
Copy CRC EADAAB8A
Track not present in AccurateRip database
Copy OK


None of the tracks are present in the AccurateRip database

No errors occurred

End of status report

–– CUETools DB Plugin V2.1.6

[CTDB TOCID: DjLtAvUj9MNeIke.Ihakx_JWztc-] disk not present in database
Submit result: DjLtAvUj9MNeIke.Ihakx_JWztc- has been uploaded


==== Log checksum 76467D121E173EDBAAF946A5322291E2E8E3BDF7E3805465C8761E9B6F431A08 ====

Thanks to the Original ripper !