Tags
Language
Tags
April 2024
Su Mo Tu We Th Fr Sa
31 1 2 3 4 5 6
7 8 9 10 11 12 13
14 15 16 17 18 19 20
21 22 23 24 25 26 27
28 29 30 1 2 3 4

Sun Ra - Singles: The Definitive 45's Collection 1952-1991 (2016)

Posted By: delpotro
Sun Ra - Singles: The Definitive 45's Collection 1952-1991 (2016)

Sun Ra - Singles: The Definitive 45's Collection 1952-1991 (2016)
EAC Rip | FLAC (tracks+log+.cue) | 03:32:13 | 1,05 Gb
Jazz, Avant-Garde Jazz, Space Jazz, Big Band | Label: Strut Records

Strut present a new definitive collection of singles released by jazz maverick Sun Ra during his Earth years, spanning 1952 to 1991. Released prolifically during the 1950s and more sporadically thereafter, primarily on the Saturn label, the 45s offer one-off meteorites from Ra’s prolific cosmic journey, tracing the development of his forward-thinking “Space-Bop” and his unique take on jazz and blues traditions which sounded unlike anything else from the period. As with his LPs, most 45s were only pressed in small runs and were sold at gigs and have since become extremely rare and sought after. Some have only been discovered in physical form in recent years; some were planned and pencilled but allegedly never made it to vinyl and some appeared as one-off magazine singles and posthumous releases.

The immense output of Sun Ra and his many backing bands, coupled with the limited production of many of his releases has long defied dedicated collectors. Parallel to a vast list of LP releases, Sun Ra released numerous 45 RPM singles; one-off meteorites from his prolific cosmic journey. Working closely with Sun Ra LLC and Art Yard Records, it is with great pride that Strut presents a definitive collection of the rare singles released by Sun Ra across his illustrious career, spanning 1952 to 1991.

Released prolifically during the 1950s and more sporadically thereafter, primarily on the Saturn label, the 45s trace the development of Sun Ra’s forward-thinking “Space-Bop” and his unique take on jazz and blues traditions which remains unlike anything else from the period. As with his LPs, most 45s were only pressed in small runs and have since become extremely rare and sought after. Some have only been discovered in physical form in recent years; some were planned and penciled but allegedly never made it to vinyl and some appeared as one-off magazine singles and posthumous releases.
Tracklist:
Disc 1 (01:06:48)
1. Sun Ra – I Am An Instrument (01:37)
2. Sun Ra – I Am Strange (03:13)
3. The Nu Sounds & Sun Ra – Chicago USA (02:56)
4. The Nu Sounds & Sun Ra – Spaceship Lullaby (02:19)
5. The Cosmic Rays & Sun Ra And Arkestra – Daddy’s Gonna Tell You No Lie (03:08)
6. The Nu Sounds & Sun Ra And Arkestra – A Foggy Day (01:04)
7. Billie Hawkins & Sun-Ra And His Orchestra – I’m Coming Home (02:04)
8. Billie Hawkins & Sun-Ra And His Orchestra – Last Call For Love (02:28)
9. Sun-Ra And His Arkistra – Soft Talk (02:43)
10. Sun-Ra And His Arkistra – Super Blonde (02:37)
11. Le Sun-Ra And His Arkistra – Saturn (03:02)
12. Le Sun-Ra And His Arkistra – Call For All Demons (04:22)
13. Le Sun-Ra And His Arkistra – Demon’s Lullaby (02:41)
14. Le Sun-Ra And His Arkistra – Supersonic-Jazz (02:36)
15. Le Sun-Ra And His Arkistra – Medicine For A Nightmare (02:37)
16. Le Sun-Ra And His Arkistra – Urnack (03:50)
17. The Qualities – It’s Christmas Time (02:45)
18. The Qualities – Happy New Year To You! (01:48)
19. Yochanan & The Space Age Vocalist – M uck M uck (Matt Matt) (02:48)
20. Yochanan & The Space Age Vocalist – Hot Skillet Momma (03:14)
21. Sun Ra & The Cosmic Rays – Bye Bye (02:51)
22. Sun Ra & The Cosmic Rays – Somebody’s In Love (01:48)
23. Le Sun Ra And His Arkestra – Hours After (02:48)
24. Le Sun Ra And His Arkestra – Great Balls Of Fire (05:29)

Disc 2 (01:09:16)
1. Sun Ra And His Astro Infinity Arkestra – October (04:42)
2. Sun Ra And His Astro Infinity Arkestra – Adventure In Space (02:36)
3. The Cosmic Rays & Sun Ra And Arkestra – Dreaming (02:45)
4. The Cosmic Rays & Sun Ra And Arkestra – Daddy’s Gonna Tell You No Lie (03:06)
5. Hattie Randolph & Sun Ra And His Astro Infinity Arkestra – Round Midnight (03:51)
6. Hattie Randolph & Sun Ra And His Astro Infinity Arkestra – Back In Your Own Back Yard (02:03)
7. Le Sun Ra And His Arkestra – Saturn (03:42)
8. Le Sun Ra And His Arkestra – Velvet (03:25)
9. Yochanan, A Space Age Vocalist & Sun Ra And His Arkestra – The Sun One (02:32)
10. Yochanan, A Space Age Vocalist & Sun Ra And His Arkestra – Message To Earthman (02:26)
11. Yochanan & Sun Ra And His Arkestra – The Sun Man Speaks (04:37)
12. Sun Ra And His Arkestra – Space Loneliness (04:35)
13. Sun Ra And His Arkestra – State Street (03:33)
14. Sun Ra And His Arkestra – The Blue Set (04:43)
15. Sun Ra And His Arkestra – Big City Blues (03:15)
16. Sun Ra And His Arkestra – A Blue One (feat. Pat Patrick) (03:51)
17. Sun Ra And His Arkestra – Orbitration In Blue (feat. Pat Patrick) (04:46)
18. Sun Ra And His Arkestra – Hell #1 (A.k.a. Out There A Minute) (03:27)
19. Little Mack & Sun Ra And His Arkestra – Tell Her To Come On Home (02:07)
20. Little Mack & Sun Ra & His Arkestra – I’m Making Believe (03:14)

Disc 3 (01:16:13)
1. Sun Ra And His Outer Space Arkestra – The Bridge (01:58)
2. Sun Ra And His Outer Space Arkestra – Rocket # 9 (02:26)
3. Sun Ra And His Astro-Solar-Infinity Arkestra – Blues On Planet Mars (03:27)
4. Sun Ra And His Astro-Solar-Infinity Arkestra – Saturn Moon (02:15)
5. Sun Ra And His Astro-Intergalactic Infinity Arkestra – Journey To Saturn (03:46)
6. Sun Ra And His Astro-Intergalactic Infinity Arkestra – Enlightenment (03:28)
7. Sun Ra And His Astro-Intergalactic Infinity Arkestra – I’m Gonna Unmask The Batman (02:18)
8. Sun Ra And His Astro-Intergalactic Infinity Arkestra – The Perfect Man (05:01)
9. Sun Ra And His Arkestra – Love In Outer Space (03:51)
10. Sun Ra And His Arkestra – Mayan Temple (03:40)
11. Sun Ra – Sky Blues (02:44)
12. Sun Ra – Disco 2021 (02:35)
13. Sun Ra – Rough House Blues (03:36)
14. Sun Ra – Cosmo-Extensions (04:25)
15. Sun Ra And His Outer Space Arkestra – Quest (02:36)
16. Sun Ra And His Outer Space Arkestra – Outer Space Plateau (02:24)
17. Sun Ra Arkestra – Nuclear War (07:45)
18. Sun Ra Arkestra – Sometimes I’m Happy (04:30)
19. Sun Ra Arkestra – On Jupiter / Cosmo Drama (Prophetika 1) (03:12)
20. Sun Ra Arkestra – Cosmo Drama (Prophetika 2) (03:17)
21. Sun Ra – I Am The Instrument (06:59)

Exact Audio Copy V1.3 from 2. September 2016

EAC extraction logfile from 12. June 2018, 19:58

Sun Ra / Singles: The Definitive 45s Collection 1952–1991

Used drive : PLEXTOR DVDR PX-891SA Adapter: 1 ID: 0

Read mode : Secure
Utilize accurate stream : Yes
Defeat audio cache : Yes
Make use of C2 pointers : No

Read offset correction : 6
Overread into Lead-In and Lead-Out : No
Fill up missing offset samples with silence : Yes
Delete leading and trailing silent blocks : No
Null samples used in CRC calculations : Yes
Used interface : Native Win32 interface for Win NT & 2000
Gap handling : Appended to previous track

Used output format : User Defined Encoder
Selected bitrate : 1024 kBit/s
Quality : High
Add ID3 tag : No
Command line compressor : C:\Program Files (x86)\Exact Audio Copy\FLAC\FLAC.EXE
Additional command line options : -8 -V -T "ARTIST=%artist%" -T "TITLE=%title%" -T "ALBUM=%albumtitle%" -T "DATE=%year%" -T "TRACKNUMBER=%tracknr%" -T "GENRE=%genre%" -T "COMMENT=%comment%" -T "BAND=%albuminterpret%" -T "ALBUMARTIST=%albuminterpret%" -T "COMPOSER=%composer%" %haslyrics%–tag-from-file=LYRICS="%lyricsfile%"%haslyrics% -T "DISCNUMBER=%cdnumber%" -T "TOTALDISCS=%totalcds%" -T "TOTALTRACKS=%numtracks%" %hascover%–picture="%coverfile%"%hascover% %source% -o %dest%


TOC of the extracted CD

Track | Start | Length | Start sector | End sector
––––––––––––––––––––––––––––-
1 | 0:00.00 | 1:37.37 | 0 | 7311
2 | 1:37.37 | 3:12.62 | 7312 | 21773
3 | 4:50.24 | 2:56.15 | 21774 | 34988
4 | 7:46.39 | 2:18.56 | 34989 | 45394
5 | 10:05.20 | 3:07.62 | 45395 | 59481
6 | 13:13.07 | 1:04.29 | 59482 | 64310
7 | 14:17.36 | 2:03.38 | 64311 | 73573
8 | 16:20.74 | 2:27.47 | 73574 | 84645
9 | 18:48.46 | 2:43.24 | 84646 | 96894
10 | 21:31.70 | 2:36.59 | 96895 | 108653
11 | 24:08.54 | 3:01.38 | 108654 | 122266
12 | 27:10.17 | 4:21.51 | 122267 | 141892
13 | 31:31.68 | 2:40.64 | 141893 | 153956
14 | 34:12.57 | 2:35.49 | 153957 | 165630
15 | 36:48.31 | 2:37.07 | 165631 | 177412
16 | 39:25.38 | 3:49.44 | 177413 | 194631
17 | 43:15.07 | 2:45.26 | 194632 | 207032
18 | 46:00.33 | 1:48.20 | 207033 | 215152
19 | 47:48.53 | 2:48.15 | 215153 | 227767
20 | 50:36.68 | 3:13.58 | 227768 | 242300
21 | 53:50.51 | 2:50.38 | 242301 | 255088
22 | 56:41.14 | 1:48.18 | 255089 | 263206
23 | 58:29.32 | 2:48.13 | 263207 | 275819
24 | 61:17.45 | 5:29.29 | 275820 | 300523


Track 1

Filename H:\Torrents\Sun Ra\Sun Ra (2016) [STRUT148CD] Singles - The Definitive 45s Collection 1952–1991\CD 1\01. Sun Ra - I Am an Instrument.wav

Pre-gap length 0:00:02.00

Peak level 91.2 %
Extraction speed 4.5 X
Track quality 100.0 %
Test CRC 26D5E39C
Copy CRC 26D5E39C
Accurately ripped (confidence 9) [54D53BDB] (AR v2)
Copy OK

Track 2

Filename H:\Torrents\Sun Ra\Sun Ra (2016) [STRUT148CD] Singles - The Definitive 45s Collection 1952–1991\CD 1\02. Sun Ra - I Am Strange.wav

Peak level 91.2 %
Extraction speed 5.5 X
Track quality 100.0 %
Test CRC 5A6C49C6
Copy CRC 5A6C49C6
Accurately ripped (confidence 9) [ED904C92] (AR v2)
Copy OK

Track 3

Filename H:\Torrents\Sun Ra\Sun Ra (2016) [STRUT148CD] Singles - The Definitive 45s Collection 1952–1991\CD 1\03. The Nu Sounds with Sun Ra - Chicago USA.wav

Peak level 91.3 %
Extraction speed 5.8 X
Track quality 100.0 %
Test CRC 91670744
Copy CRC 91670744
Accurately ripped (confidence 9) [56845DB4] (AR v2)
Copy OK

Track 4

Filename H:\Torrents\Sun Ra\Sun Ra (2016) [STRUT148CD] Singles - The Definitive 45s Collection 1952–1991\CD 1\04. The Nu Sounds with Sun Ra - Spaceship Lullaby.wav

Peak level 91.3 %
Extraction speed 4.4 X
Track quality 99.9 %
Test CRC F0EBF160
Copy CRC F0EBF160
Accurately ripped (confidence 9) [00D05757] (AR v2)
Copy OK

Track 5

Filename H:\Torrents\Sun Ra\Sun Ra (2016) [STRUT148CD] Singles - The Definitive 45s Collection 1952–1991\CD 1\05. The Cosmic Rays with Sun Ra and Arkestra - Daddy's Gonna Tell You No Lie.wav

Peak level 91.2 %
Extraction speed 6.5 X
Track quality 100.0 %
Test CRC 8D5ED96A
Copy CRC 8D5ED96A
Accurately ripped (confidence 9) [E4DA61CA] (AR v2)
Copy OK

Track 6

Filename H:\Torrents\Sun Ra\Sun Ra (2016) [STRUT148CD] Singles - The Definitive 45s Collection 1952–1991\CD 1\06. The Nu Sounds with Sun Ra and Arkestra - A Foggy Day.wav

Peak level 91.3 %
Extraction speed 3.2 X
Track quality 99.8 %
Test CRC C88B0536
Copy CRC C88B0536
Accurately ripped (confidence 9) [0B45660F] (AR v2)
Copy OK

Track 7

Filename H:\Torrents\Sun Ra\Sun Ra (2016) [STRUT148CD] Singles - The Definitive 45s Collection 1952–1991\CD 1\07. Billie Hawkins with Sun-Ra and His Orchestra - I'm Coming Home.wav

Peak level 91.7 %
Extraction speed 4.7 X
Track quality 99.9 %
Test CRC AE5B9A99
Copy CRC AE5B9A99
Accurately ripped (confidence 9) [36C9AAB0] (AR v2)
Copy OK

Track 8

Filename H:\Torrents\Sun Ra\Sun Ra (2016) [STRUT148CD] Singles - The Definitive 45s Collection 1952–1991\CD 1\08. Billie Hawkins with Sun-Ra and His Orchestra - Last Call for Love.wav

Peak level 91.8 %
Extraction speed 6.9 X
Track quality 100.0 %
Test CRC FCCE0911
Copy CRC FCCE0911
Accurately ripped (confidence 9) [10F70ECC] (AR v2)
Copy OK

Track 9

Filename H:\Torrents\Sun Ra\Sun Ra (2016) [STRUT148CD] Singles - The Definitive 45s Collection 1952–1991\CD 1\09. Sun-Ra and His Arkistra - Soft Talk.wav

Peak level 91.6 %
Extraction speed 5.6 X
Track quality 99.9 %
Test CRC 45ED57FD
Copy CRC 45ED57FD
Accurately ripped (confidence 9) [86BA767E] (AR v2)
Copy OK

Track 10

Filename H:\Torrents\Sun Ra\Sun Ra (2016) [STRUT148CD] Singles - The Definitive 45s Collection 1952–1991\CD 1\10. Sun-Ra and His Arkistra - Super Blonde.wav

Peak level 92.0 %
Extraction speed 7.5 X
Track quality 100.0 %
Test CRC 4CC5D035
Copy CRC 4CC5D035
Accurately ripped (confidence 9) [A7FEEAE9] (AR v2)
Copy OK

Track 11

Filename H:\Torrents\Sun Ra\Sun Ra (2016) [STRUT148CD] Singles - The Definitive 45s Collection 1952–1991\CD 1\11. Le Sun-Ra and His Arkistra - Saturn.wav

Peak level 91.8 %
Extraction speed 7.9 X
Track quality 100.0 %
Test CRC 7B06BC40
Copy CRC 7B06BC40
Accurately ripped (confidence 9) [2406B523] (AR v2)
Copy OK

Track 12

Filename H:\Torrents\Sun Ra\Sun Ra (2016) [STRUT148CD] Singles - The Definitive 45s Collection 1952–1991\CD 1\12. Le Sun-Ra and His Arkistra - Call for All Demons.wav

Peak level 94.9 %
Extraction speed 8.8 X
Track quality 100.0 %
Test CRC 2BB4DA2E
Copy CRC 2BB4DA2E
Accurately ripped (confidence 9) [66EE9321] (AR v2)
Copy OK

Track 13

Filename H:\Torrents\Sun Ra\Sun Ra (2016) [STRUT148CD] Singles - The Definitive 45s Collection 1952–1991\CD 1\13. Le Sun-Ra and His Arkistra - Demon's Lullaby.wav

Peak level 94.6 %
Extraction speed 8.4 X
Track quality 100.0 %
Test CRC E09BE48E
Copy CRC E09BE48E
Accurately ripped (confidence 9) [63084472] (AR v2)
Copy OK

Track 14

Filename H:\Torrents\Sun Ra\Sun Ra (2016) [STRUT148CD] Singles - The Definitive 45s Collection 1952–1991\CD 1\14. Le Sun-Ra and His Arkistra - Super-Sonic Jazz.wav

Peak level 92.9 %
Extraction speed 8.6 X
Track quality 100.0 %
Test CRC 6BF3FBE8
Copy CRC 6BF3FBE8
Accurately ripped (confidence 9) [F596DC73] (AR v2)
Copy OK

Track 15

Filename H:\Torrents\Sun Ra\Sun Ra (2016) [STRUT148CD] Singles - The Definitive 45s Collection 1952–1991\CD 1\15. Le Sun-Ra & His Arkistra - Medicine for a Nightmare.wav

Peak level 92.3 %
Extraction speed 8.8 X
Track quality 100.0 %
Test CRC 3C35AFE8
Copy CRC 3C35AFE8
Accurately ripped (confidence 9) [15CE7B09] (AR v2)
Copy OK

Track 16

Filename H:\Torrents\Sun Ra\Sun Ra (2016) [STRUT148CD] Singles - The Definitive 45s Collection 1952–1991\CD 1\16. Le Sun-Ra & His Arkistra - Urnack.wav

Peak level 93.3 %
Extraction speed 9.5 X
Track quality 100.0 %
Test CRC C7382B23
Copy CRC C7382B23
Accurately ripped (confidence 9) [367E8246] (AR v2)
Copy OK

Track 17

Filename H:\Torrents\Sun Ra\Sun Ra (2016) [STRUT148CD] Singles - The Definitive 45s Collection 1952–1991\CD 1\17. The Qualities - It's Christmas Time.wav

Peak level 91.4 %
Extraction speed 7.2 X
Track quality 99.9 %
Test CRC 20CB3A82
Copy CRC 20CB3A82
Accurately ripped (confidence 9) [3AC353D8] (AR v2)
Copy OK

Track 18

Filename H:\Torrents\Sun Ra\Sun Ra (2016) [STRUT148CD] Singles - The Definitive 45s Collection 1952–1991\CD 1\18. The Qualities - Happy New Year to You!.wav

Peak level 91.2 %
Extraction speed 8.6 X
Track quality 100.0 %
Test CRC 57D33F9E
Copy CRC 57D33F9E
Accurately ripped (confidence 9) [3B2AD11C] (AR v2)
Copy OK

Track 19

Filename H:\Torrents\Sun Ra\Sun Ra (2016) [STRUT148CD] Singles - The Definitive 45s Collection 1952–1991\CD 1\19. Yochanan - M Uck M Uck (Matt Matt).wav

Peak level 91.6 %
Extraction speed 9.7 X
Track quality 100.0 %
Test CRC C56F9D89
Copy CRC C56F9D89
Accurately ripped (confidence 9) [06A64598] (AR v2)
Copy OK

Track 20

Filename H:\Torrents\Sun Ra\Sun Ra (2016) [STRUT148CD] Singles - The Definitive 45s Collection 1952–1991\CD 1\20. Yochanan - Hot Skillet Mama.wav

Peak level 91.4 %
Extraction speed 10.1 X
Track quality 100.0 %
Test CRC D05131C1
Copy CRC D05131C1
Accurately ripped (confidence 9) [2C1BD03D] (AR v2)
Copy OK

Track 21

Filename H:\Torrents\Sun Ra\Sun Ra (2016) [STRUT148CD] Singles - The Definitive 45s Collection 1952–1991\CD 1\21. The Cosmic Rays wWith Le Sun Ra and Arkestra - Bye Bye.wav

Peak level 91.3 %
Extraction speed 10.2 X
Track quality 100.0 %
Test CRC ED9AB543
Copy CRC ED9AB543
Accurately ripped (confidence 9) [9E1AFC6D] (AR v2)
Copy OK

Track 22

Filename H:\Torrents\Sun Ra\Sun Ra (2016) [STRUT148CD] Singles - The Definitive 45s Collection 1952–1991\CD 1\22. The Cosmic Rays with Le Sun Ra and Arkestra - Somebody's in Love.wav

Peak level 91.2 %
Extraction speed 6.4 X
Track quality 99.9 %
Test CRC C9C540E5
Copy CRC C9C540E5
Accurately ripped (confidence 9) [118667D4] (AR v2)
Copy OK

Track 23

Filename H:\Torrents\Sun Ra\Sun Ra (2016) [STRUT148CD] Singles - The Definitive 45s Collection 1952–1991\CD 1\23. Le Sun Ra and His Arkestra - Hours After.wav

Peak level 91.8 %
Extraction speed 10.4 X
Track quality 100.0 %
Test CRC 6B9F06A2
Copy CRC 6B9F06A2
Accurately ripped (confidence 9) [3B419DA2] (AR v2)
Copy OK

Track 24

Filename H:\Torrents\Sun Ra\Sun Ra (2016) [STRUT148CD] Singles - The Definitive 45s Collection 1952–1991\CD 1\24. Le Sun Ra and His Arkestra - Great Balls of Fire.wav

Peak level 91.2 %
Extraction speed 11.7 X
Track quality 100.0 %
Test CRC CD4D3D1F
Copy CRC CD4D3D1F
Accurately ripped (confidence 9) [1673D6EE] (AR v2)
Copy OK


All tracks accurately ripped

No errors occurred

End of status report

==== Log checksum 447DBF9FA62046E9E2B5C16402DAA9B60BA64ED77DB273B931895F81DE2F3D00 ====

Exact Audio Copy V1.3 from 2. September 2016

EAC extraction logfile from 12. June 2018, 20:35

Sun Ra / Singles: The Definitive 45s Collection 1952–1991

Used drive : PLEXTOR DVDR PX-891SA Adapter: 1 ID: 0

Read mode : Secure
Utilize accurate stream : Yes
Defeat audio cache : Yes
Make use of C2 pointers : No

Read offset correction : 6
Overread into Lead-In and Lead-Out : No
Fill up missing offset samples with silence : Yes
Delete leading and trailing silent blocks : No
Null samples used in CRC calculations : Yes
Used interface : Native Win32 interface for Win NT & 2000
Gap handling : Appended to previous track

Used output format : User Defined Encoder
Selected bitrate : 1024 kBit/s
Quality : High
Add ID3 tag : No
Command line compressor : C:\Program Files (x86)\Exact Audio Copy\FLAC\FLAC.EXE
Additional command line options : -8 -V -T "ARTIST=%artist%" -T "TITLE=%title%" -T "ALBUM=%albumtitle%" -T "DATE=%year%" -T "TRACKNUMBER=%tracknr%" -T "GENRE=%genre%" -T "COMMENT=%comment%" -T "BAND=%albuminterpret%" -T "ALBUMARTIST=%albuminterpret%" -T "COMPOSER=%composer%" %haslyrics%–tag-from-file=LYRICS="%lyricsfile%"%haslyrics% -T "DISCNUMBER=%cdnumber%" -T "TOTALDISCS=%totalcds%" -T "TOTALTRACKS=%numtracks%" %hascover%–picture="%coverfile%"%hascover% %source% -o %dest%


TOC of the extracted CD

Track | Start | Length | Start sector | End sector
––––––––––––––––––––––––––––-
1 | 0:00.00 | 4:41.65 | 0 | 21139
2 | 4:41.65 | 2:35.55 | 21140 | 32819
3 | 7:17.45 | 2:44.48 | 32820 | 45167
4 | 10:02.18 | 3:05.42 | 45168 | 59084
5 | 13:07.60 | 3:51.35 | 59085 | 76444
6 | 16:59.20 | 2:03.05 | 76445 | 85674
7 | 19:02.25 | 3:41.48 | 85675 | 102297
8 | 22:43.73 | 3:24.45 | 102298 | 117642
9 | 26:08.43 | 2:32.28 | 117643 | 129070
10 | 28:40.71 | 2:25.70 | 129071 | 140015
11 | 31:06.66 | 4:36.52 | 140016 | 160767
12 | 35:43.43 | 4:34.59 | 160768 | 181376
13 | 40:18.27 | 3:32.63 | 181377 | 197339
14 | 43:51.15 | 4:42.64 | 197340 | 218553
15 | 48:34.04 | 3:15.23 | 218554 | 233201
16 | 51:49.27 | 3:51.03 | 233202 | 250529
17 | 55:40.30 | 4:45.70 | 250530 | 271974
18 | 60:26.25 | 3:26.53 | 271975 | 287477
19 | 63:53.03 | 2:07.01 | 287478 | 297003
20 | 66:00.04 | 3:13.51 | 297004 | 311529


Track 1

Filename H:\Torrents\Sun Ra\Sun Ra (2016) [STRUT148CD] Singles - The Definitive 45s Collection 1952–1991\CD 2\01. Sun Ra and His Astro Infinity Arkestra - October.wav

Pre-gap length 0:00:02.00

Peak level 69.4 %
Extraction speed 5.0 X
Track quality 99.9 %
Test CRC 3D871415
Copy CRC 3D871415
Accurately ripped (confidence 9) [0FB3A8F9] (AR v2)
Copy OK

Track 2

Filename H:\Torrents\Sun Ra\Sun Ra (2016) [STRUT148CD] Singles - The Definitive 45s Collection 1952–1991\CD 2\02. Sun Ra and His Astro Infinity Arkestra - Adventur in Space.wav

Peak level 84.0 %
Extraction speed 5.6 X
Track quality 100.0 %
Test CRC BD2C443A
Copy CRC BD2C443A
Accurately ripped (confidence 9) [F07E1637] (AR v2)
Copy OK

Track 3

Filename H:\Torrents\Sun Ra\Sun Ra (2016) [STRUT148CD] Singles - The Definitive 45s Collection 1952–1991\CD 2\03. The Cosmic Rays with Sun Ra and Arkestra - Dreaming.wav

Peak level 93.5 %
Extraction speed 4.8 X
Track quality 99.9 %
Test CRC 98210087
Copy CRC 98210087
Accurately ripped (confidence 9) [2855F6ED] (AR v2)
Copy OK

Track 4

Filename H:\Torrents\Sun Ra\Sun Ra (2016) [STRUT148CD] Singles - The Definitive 45s Collection 1952–1991\CD 2\04. The Cosmic Rays with Sun Ra and Arkestra - Daddy's Gonna Tell You No Lie.wav

Peak level 93.6 %
Extraction speed 5.2 X
Track quality 99.9 %
Test CRC BCE7F26C
Copy CRC BCE7F26C
Accurately ripped (confidence 9) [E3E87366] (AR v2)
Copy OK

Track 5

Filename H:\Torrents\Sun Ra\Sun Ra (2016) [STRUT148CD] Singles - The Definitive 45s Collection 1952–1991\CD 2\05. Hattie Randolph with Sun Ra and His Astro Infinity Arkestra - Round Midnight.wav

Peak level 93.3 %
Extraction speed 7.1 X
Track quality 100.0 %
Test CRC 698174D9
Copy CRC 698174D9
Accurately ripped (confidence 9) [9AAA2197] (AR v2)
Copy OK

Track 6

Filename H:\Torrents\Sun Ra\Sun Ra (2016) [STRUT148CD] Singles - The Definitive 45s Collection 1952–1991\CD 2\06. Hattie Randolph with Sun Ra and His Astro Infinity Arkestra - Back in Your Own Back Yard.wav

Peak level 86.1 %
Extraction speed 6.6 X
Track quality 100.0 %
Test CRC A22B1DD2
Copy CRC A22B1DD2
Accurately ripped (confidence 9) [F7841259] (AR v2)
Copy OK

Track 7

Filename H:\Torrents\Sun Ra\Sun Ra (2016) [STRUT148CD] Singles - The Definitive 45s Collection 1952–1991\CD 2\07. Le Sun Ra and His Arkestra - Saturn.wav

Peak level 93.5 %
Extraction speed 7.6 X
Track quality 100.0 %
Test CRC A0D29E75
Copy CRC A0D29E75
Accurately ripped (confidence 9) [AFE7ACDF] (AR v2)
Copy OK

Track 8

Filename H:\Torrents\Sun Ra\Sun Ra (2016) [STRUT148CD] Singles - The Definitive 45s Collection 1952–1991\CD 2\08. Le Sun Ra and His Arkestra - Velvet.wav

Peak level 94.2 %
Extraction speed 7.8 X
Track quality 100.0 %
Test CRC EF855D6D
Copy CRC EF855D6D
Accurately ripped (confidence 9) [335F6484] (AR v2)
Copy OK

Track 9

Filename H:\Torrents\Sun Ra\Sun Ra (2016) [STRUT148CD] Singles - The Definitive 45s Collection 1952–1991\CD 2\09. Yochanan ''A Space Age Vocalist'' with Sun Ra and His Arkestra - The Sun One.wav

Peak level 93.4 %
Extraction speed 5.9 X
Track quality 99.9 %
Test CRC D7229DDD
Copy CRC D7229DDD
Accurately ripped (confidence 9) [3DF1BD2F] (AR v2)
Copy OK

Track 10

Filename H:\Torrents\Sun Ra\Sun Ra (2016) [STRUT148CD] Singles - The Definitive 45s Collection 1952–1991\CD 2\10. Yochanan ''A Space Age Vocalist'' with Sun Ra and His Arkestra - Message to Earthman.wav

Peak level 92.0 %
Extraction speed 7.9 X
Track quality 100.0 %
Test CRC BC9B9FA9
Copy CRC BC9B9FA9
Accurately ripped (confidence 9) [DA062684] (AR v2)
Copy OK

Track 11

Filename H:\Torrents\Sun Ra\Sun Ra (2016) [STRUT148CD] Singles - The Definitive 45s Collection 1952–1991\CD 2\11. Yochanan with Sun Ra and His Arkestra - The Sun Man Speaks.wav

Peak level 93.3 %
Extraction speed 8.8 X
Track quality 100.0 %
Test CRC ADDB8C4A
Copy CRC ADDB8C4A
Accurately ripped (confidence 9) [7F4C3772] (AR v2)
Copy OK

Track 12

Filename H:\Torrents\Sun Ra\Sun Ra (2016) [STRUT148CD] Singles - The Definitive 45s Collection 1952–1991\CD 2\12. Sun Ra and His Arkestra - Space Loneliness.wav

Peak level 94.8 %
Extraction speed 9.2 X
Track quality 100.0 %
Test CRC 936F7967
Copy CRC 936F7967
Accurately ripped (confidence 9) [2AB164D3] (AR v2)
Copy OK

Track 13

Filename H:\Torrents\Sun Ra\Sun Ra (2016) [STRUT148CD] Singles - The Definitive 45s Collection 1952–1991\CD 2\13. Sun Ra and His Arkestra - State Street.wav

Peak level 93.4 %
Extraction speed 8.1 X
Track quality 99.9 %
Test CRC 9F6CAC10
Copy CRC 9F6CAC10
Accurately ripped (confidence 9) [AA583050] (AR v2)
Copy OK

Track 14

Filename H:\Torrents\Sun Ra\Sun Ra (2016) [STRUT148CD] Singles - The Definitive 45s Collection 1952–1991\CD 2\14. Sun Ra and His Arkestra - The Blue Set.wav

Peak level 94.0 %
Extraction speed 8.9 X
Track quality 99.9 %
Test CRC F82EEFD5
Copy CRC F82EEFD5
Accurately ripped (confidence 9) [76987822] (AR v2)
Copy OK

Track 15

Filename H:\Torrents\Sun Ra\Sun Ra (2016) [STRUT148CD] Singles - The Definitive 45s Collection 1952–1991\CD 2\15. Sun Ra and His Arkestra - Big City Blues.wav

Peak level 93.8 %
Extraction speed 9.7 X
Track quality 100.0 %
Test CRC 2695920E
Copy CRC 2695920E
Accurately ripped (confidence 9) [3F1AAA85] (AR v2)
Copy OK

Track 16

Filename H:\Torrents\Sun Ra\Sun Ra (2016) [STRUT148CD] Singles - The Definitive 45s Collection 1952–1991\CD 2\16. Sun Ra and His Arkestra - A Blue One.wav

Peak level 93.3 %
Extraction speed 8.2 X
Track quality 99.9 %
Test CRC 3746306A
Copy CRC 3746306A
Accurately ripped (confidence 9) [D1AE07F5] (AR v2)
Copy OK

Track 17

Filename H:\Torrents\Sun Ra\Sun Ra (2016) [STRUT148CD] Singles - The Definitive 45s Collection 1952–1991\CD 2\17. Sun Ra and His Arkestra - Orbitration in Blue (feat. Pat Patrick).wav

Peak level 85.3 %
Extraction speed 10.4 X
Track quality 100.0 %
Test CRC A260DD29
Copy CRC A260DD29
Accurately ripped (confidence 9) [62DB0758] (AR v2)
Copy OK

Track 18

Filename H:\Torrents\Sun Ra\Sun Ra (2016) [STRUT148CD] Singles - The Definitive 45s Collection 1952–1991\CD 2\18. Sun Ra and His Arkestra - Hell #1 (a.k.a. Out There a Minute).wav

Peak level 93.3 %
Extraction speed 10.3 X
Track quality 100.0 %
Test CRC DD9EC3B9
Copy CRC DD9EC3B9
Accurately ripped (confidence 9) [97C0AAC7] (AR v2)
Copy OK

Track 19

Filename H:\Torrents\Sun Ra\Sun Ra (2016) [STRUT148CD] Singles - The Definitive 45s Collection 1952–1991\CD 2\19. Little Mack with Sun Ra and His Arkestra - Tell Her to Come On Home.wav

Peak level 93.4 %
Extraction speed 9.6 X
Track quality 100.0 %
Test CRC FFEFD49B
Copy CRC FFEFD49B
Accurately ripped (confidence 9) [BB56C33B] (AR v2)
Copy OK

Track 20

Filename H:\Torrents\Sun Ra\Sun Ra (2016) [STRUT148CD] Singles - The Definitive 45s Collection 1952–1991\CD 2\20. Little Mack with Sun Ra & His Arkestra - I'm Making Believe.wav

Peak level 93.4 %
Extraction speed 10.5 X
Track quality 100.0 %
Test CRC 8C723BD4
Copy CRC 8C723BD4
Accurately ripped (confidence 9) [DCECE05D] (AR v2)
Copy OK


All tracks accurately ripped

No errors occurred

End of status report

==== Log checksum DEFC5B7802EC2321B24B893A830D78479846849A279C97A0C6D2F6FA609B9EF6 ====

Exact Audio Copy V1.3 from 2. September 2016

EAC extraction logfile from 12. June 2018, 21:52

Sun Ra / Singles: The Definitive 45s Collection 1952–1991

Used drive : PLEXTOR DVDR PX-891SA Adapter: 1 ID: 0

Read mode : Secure
Utilize accurate stream : Yes
Defeat audio cache : Yes
Make use of C2 pointers : No

Read offset correction : 6
Overread into Lead-In and Lead-Out : No
Fill up missing offset samples with silence : Yes
Delete leading and trailing silent blocks : No
Null samples used in CRC calculations : Yes
Used interface : Native Win32 interface for Win NT & 2000
Gap handling : Appended to previous track

Used output format : User Defined Encoder
Selected bitrate : 1024 kBit/s
Quality : High
Add ID3 tag : No
Command line compressor : C:\Program Files (x86)\Exact Audio Copy\FLAC\FLAC.EXE
Additional command line options : -8 -V -T "ARTIST=%artist%" -T "TITLE=%title%" -T "ALBUM=%albumtitle%" -T "DATE=%year%" -T "TRACKNUMBER=%tracknr%" -T "GENRE=%genre%" -T "COMMENT=%comment%" -T "BAND=%albuminterpret%" -T "ALBUMARTIST=%albuminterpret%" -T "COMPOSER=%composer%" %haslyrics%–tag-from-file=LYRICS="%lyricsfile%"%haslyrics% -T "DISCNUMBER=%cdnumber%" -T "TOTALDISCS=%totalcds%" -T "TOTALTRACKS=%numtracks%" %hascover%–picture="%coverfile%"%hascover% %source% -o %dest%


TOC of the extracted CD

Track | Start | Length | Start sector | End sector
––––––––––––––––––––––––––––-
1 | 0:00.00 | 1:58.17 | 0 | 8866
2 | 1:58.17 | 2:25.63 | 8867 | 19804
3 | 4:24.05 | 3:26.39 | 19805 | 35293
4 | 7:50.44 | 2:15.20 | 35294 | 45438
5 | 10:05.64 | 3:45.69 | 45439 | 62382
6 | 13:51.58 | 3:28.32 | 62383 | 78014
7 | 17:20.15 | 2:18.09 | 78015 | 88373
8 | 19:38.24 | 5:00.46 | 88374 | 110919
9 | 24:38.70 | 3:51.24 | 110920 | 128268
10 | 28:30.19 | 3:39.58 | 128269 | 144751
11 | 32:10.02 | 2:43.69 | 144752 | 157045
12 | 34:53.71 | 2:35.21 | 157046 | 168691
13 | 37:29.17 | 3:36.09 | 168692 | 184900
14 | 41:05.26 | 4:24.60 | 184901 | 204760
15 | 45:30.11 | 2:35.58 | 204761 | 216443
16 | 48:05.69 | 2:23.48 | 216444 | 227216
17 | 50:29.42 | 7:44.73 | 227217 | 262089
18 | 58:14.40 | 4:30.07 | 262090 | 282346
19 | 62:44.47 | 3:12.34 | 282347 | 296780
20 | 65:57.06 | 3:17.16 | 296781 | 311571
21 | 69:14.22 | 6:58.52 | 311572 | 342973


Track 1

Filename H:\Torrents\Sun Ra\Sun Ra (2016) [STRUT148CD] Singles - The Definitive 45s Collection 1952–1991\CD 3\01. Sun Ra and His Outer Space Arkestra - The Bridge.wav

Pre-gap length 0:00:02.00

Peak level 82.1 %
Extraction speed 5.0 X
Track quality 100.0 %
Test CRC F9E99226
Copy CRC F9E99226
Accurately ripped (confidence 10) [2127C391] (AR v2)
Copy OK

Track 2

Filename H:\Torrents\Sun Ra\Sun Ra (2016) [STRUT148CD] Singles - The Definitive 45s Collection 1952–1991\CD 3\02. Sun Ra and His Outer Space Arkestra - Rocket # 9.wav

Peak level 82.2 %
Extraction speed 5.5 X
Track quality 100.0 %
Test CRC AD358395
Copy CRC AD358395
Accurately ripped (confidence 10) [18F862AF] (AR v2)
Copy OK

Track 3

Filename H:\Torrents\Sun Ra\Sun Ra (2016) [STRUT148CD] Singles - The Definitive 45s Collection 1952–1991\CD 3\03. Sun Ra and His Astro-Solar-Infinity Arkestra - Blues on Planet Mars.wav

Peak level 82.2 %
Extraction speed 6.2 X
Track quality 100.0 %
Test CRC 1255CE03
Copy CRC 1255CE03
Accurately ripped (confidence 10) [E22C5613] (AR v2)
Copy OK

Track 4

Filename H:\Torrents\Sun Ra\Sun Ra (2016) [STRUT148CD] Singles - The Definitive 45s Collection 1952–1991\CD 3\04. Sun Ra and His Astro-Solar-Infinity Arkestra - Saturn Moon.wav

Peak level 82.2 %
Extraction speed 6.1 X
Track quality 100.0 %
Test CRC 8FCFCD1C
Copy CRC 8FCFCD1C
Accurately ripped (confidence 10) [258BD488] (AR v2)
Copy OK

Track 5

Filename H:\Torrents\Sun Ra\Sun Ra (2016) [STRUT148CD] Singles - The Definitive 45s Collection 1952–1991\CD 3\05. Sun Ra and His Astro-Intergalactic Infinity Arkestra - Journey to Saturn.wav

Peak level 82.3 %
Extraction speed 7.1 X
Track quality 100.0 %
Test CRC 71C5C1D6
Copy CRC 71C5C1D6
Accurately ripped (confidence 10) [2C74AB43] (AR v2)
Copy OK

Track 6

Filename H:\Torrents\Sun Ra\Sun Ra (2016) [STRUT148CD] Singles - The Definitive 45s Collection 1952–1991\CD 3\06. Sun Ra and His Astro-Intergalactic Infinity Arkestra - Enlightenment.wav

Peak level 82.2 %
Extraction speed 7.4 X
Track quality 100.0 %
Test CRC 4FEB6245
Copy CRC 4FEB6245
Accurately ripped (confidence 10) [AF1B692F] (AR v2)
Copy OK

Track 7

Filename H:\Torrents\Sun Ra\Sun Ra (2016) [STRUT148CD] Singles - The Definitive 45s Collection 1952–1991\CD 3\07. Sun Ra and His Astro-Intergalactic Infinity Arkestra - I'm Gonna Unmask the Batman.wav

Peak level 82.2 %
Extraction speed 5.3 X
Track quality 99.9 %
Test CRC 207BA5C0
Copy CRC 207BA5C0
Accurately ripped (confidence 10) [C0EE5267] (AR v2)
Copy OK

Track 8

Filename H:\Torrents\Sun Ra\Sun Ra (2016) [STRUT148CD] Singles - The Definitive 45s Collection 1952–1991\CD 3\08. Sun Ra and His Astro-Intergalactic Infinity Arkestra - The Perfect Man.wav

Peak level 84.5 %
Extraction speed 8.4 X
Track quality 100.0 %
Test CRC FA668AA1
Copy CRC FA668AA1
Accurately ripped (confidence 10) [2B0D2726] (AR v2)
Copy OK

Track 9

Filename H:\Torrents\Sun Ra\Sun Ra (2016) [STRUT148CD] Singles - The Definitive 45s Collection 1952–1991\CD 3\09. Sun Ra and His Arkestra - Love in Outer Space.wav

Peak level 82.5 %
Extraction speed 8.6 X
Track quality 100.0 %
Test CRC 24703CA5
Copy CRC 24703CA5
Accurately ripped (confidence 10) [2B27CEF7] (AR v2)
Copy OK

Track 10

Filename H:\Torrents\Sun Ra\Sun Ra (2016) [STRUT148CD] Singles - The Definitive 45s Collection 1952–1991\CD 3\10. Sun Ra and His Arkestra - Mayan Temple.wav

Peak level 78.0 %
Extraction speed 7.2 X
Track quality 99.9 %
Test CRC E30AA001
Copy CRC E30AA001
Accurately ripped (confidence 10) [D0918281] (AR v2)
Copy OK

Track 11

Filename H:\Torrents\Sun Ra\Sun Ra (2016) [STRUT148CD] Singles - The Definitive 45s Collection 1952–1991\CD 3\11. Sun Ra - Sky Blues.wav

Peak level 82.3 %
Extraction speed 8.7 X
Track quality 100.0 %
Test CRC C2CF7AC2
Copy CRC C2CF7AC2
Accurately ripped (confidence 10) [DB49B892] (AR v2)
Copy OK

Track 12

Filename H:\Torrents\Sun Ra\Sun Ra (2016) [STRUT148CD] Singles - The Definitive 45s Collection 1952–1991\CD 3\12. Sun Ra - Disco 2021.wav

Peak level 82.2 %
Extraction speed 8.9 X
Track quality 100.0 %
Test CRC 88D97E7B
Copy CRC 88D97E7B
Accurately ripped (confidence 10) [BC6C250D] (AR v2)
Copy OK

Track 13

Filename H:\Torrents\Sun Ra\Sun Ra (2016) [STRUT148CD] Singles - The Definitive 45s Collection 1952–1991\CD 3\13. Sun Ra - Rough House Blues.wav

Peak level 82.3 %
Extraction speed 7.7 X
Track quality 99.9 %
Test CRC 9D36EE68
Copy CRC 9D36EE68
Accurately ripped (confidence 10) [5FE80CC6] (AR v2)
Copy OK

Track 14

Filename H:\Torrents\Sun Ra\Sun Ra (2016) [STRUT148CD] Singles - The Definitive 45s Collection 1952–1991\CD 3\14. Sun Ra - Cosmo Extensions.wav

Peak level 82.3 %
Extraction speed 10.2 X
Track quality 100.0 %
Test CRC FA856CAE
Copy CRC FA856CAE
Accurately ripped (confidence 10) [19B464EB] (AR v2)
Copy OK

Track 15

Filename H:\Torrents\Sun Ra\Sun Ra (2016) [STRUT148CD] Singles - The Definitive 45s Collection 1952–1991\CD 3\15. Sun Ra and His Outer Space Arkestra - Quest.wav

Peak level 82.3 %
Extraction speed 9.6 X
Track quality 100.0 %
Test CRC 184DB20F
Copy CRC 184DB20F
Accurately ripped (confidence 10) [772D05D5] (AR v2)
Copy OK

Track 16

Filename H:\Torrents\Sun Ra\Sun Ra (2016) [STRUT148CD] Singles - The Definitive 45s Collection 1952–1991\CD 3\16. Sun Ra and His Outer Space Arkestra - Outer Space Plateau.wav

Peak level 76.3 %
Extraction speed 9.7 X
Track quality 100.0 %
Test CRC B81FC500
Copy CRC B81FC500
Accurately ripped (confidence 10) [E7641947] (AR v2)
Copy OK

Track 17

Filename H:\Torrents\Sun Ra\Sun Ra (2016) [STRUT148CD] Singles - The Definitive 45s Collection 1952–1991\CD 3\17. Sun Ra Arkestra - Nuclear War.wav

Peak level 82.7 %
Extraction speed 11.7 X
Track quality 100.0 %
Test CRC 4DE9F10B
Copy CRC 4DE9F10B
Accurately ripped (confidence 10) [FB5C7A93] (AR v2)
Copy OK

Track 18

Filename H:\Torrents\Sun Ra\Sun Ra (2016) [STRUT148CD] Singles - The Definitive 45s Collection 1952–1991\CD 3\18. Sun Ra Arkestra - Sometimes I'm Happy.wav

Peak level 82.3 %
Extraction speed 11.4 X
Track quality 100.0 %
Test CRC BAA23023
Copy CRC BAA23023
Accurately ripped (confidence 10) [31EDC4F0] (AR v2)
Copy OK

Track 19

Filename H:\Torrents\Sun Ra\Sun Ra (2016) [STRUT148CD] Singles - The Definitive 45s Collection 1952–1991\CD 3\19. Sun Ra Arkestra - On Jupiter , Cosmo Drama (Prophetika 1).wav

Peak level 59.5 %
Extraction speed 11.2 X
Track quality 100.0 %
Test CRC C9D5C669
Copy CRC C9D5C669
Accurately ripped (confidence 10) [344BCF3D] (AR v2)
Copy OK

Track 20

Filename H:\Torrents\Sun Ra\Sun Ra (2016) [STRUT148CD] Singles - The Definitive 45s Collection 1952–1991\CD 3\20. Sun Ra Arkestra - Cosmo Drama (Prophetika 2).wav

Peak level 82.2 %
Extraction speed 9.0 X
Track quality 99.9 %
Test CRC 62B87D5F
Copy CRC 62B87D5F
Accurately ripped (confidence 10) [E497A520] (AR v2)
Copy OK

Track 21

Filename H:\Torrents\Sun Ra\Sun Ra (2016) [STRUT148CD] Singles - The Definitive 45s Collection 1952–1991\CD 3\21. Sun Ra - I Am the Instrument.wav

Peak level 82.2 %
Extraction speed 11.1 X
Track quality 99.9 %
Test CRC 9670E77F
Copy CRC 9670E77F
Accurately ripped (confidence 10) [9F837573] (AR v2)
Copy OK


All tracks accurately ripped

No errors occurred

End of status report

==== Log checksum 1C9D0BC77AE4231ECD9513FF1887AC49DDF129D98ED8FC582A364827AF8DC1FB ====

Thanks to the Original ripper 420Day !