Tags
Language
Tags

The Who - The Who Sell Out (Super Deluxe Edition, CD Edition) (1967/2021)

Posted By: delpotro
The Who - The Who Sell Out (Super Deluxe Edition, CD Edition) (1967/2021)

The Who - The Who Sell Out (Super Deluxe Edition) (1967/2021)
EAC Rip | FLAC (tracks+log+.cue) - 1,75 Gb | MP3 CBR 320 kbps - 735 Mb | 05:20:34
Psychedelic Rock, Powerpop, Art Rock | Label: Universal Music

The Who‘s 1967 album The Who Sell Out will be reissued as a seven-disc super deluxe edition box set in April. The album was originally planned by Pete Townshend and the band’s managers (Kit Lambert and Chris Stamp) as a loose concept album with jingles and commercials linking the songs. This approach was partly because the record label were demanding a new record and Townshend felt as if he didn’t have enough songs!

In the end, rather than actually going as far as to sell advertising space on the album, the band opted to write their own jingles, with a nod to pirate radio stations and an increasingly consumerist society. The iconic sleeve plays an important part of the overriding concept and was created by David King who was the art director at the Sunday Times, and Roger Law (yes, the guy who invented UK TV’s Spitting Image show, in the 1980s).

Only The Who’s third album, The Who Sell Out is regarded highly and features the transatlantic top ten hit ‘I Can See For Miles’.
Tracklist:
Disc 1 (01:31:10)
1. The Who – Armenia City In The Sky (03:47)
2. The Who – Heinz Baked Beans (00:58)
3. The Who – Mary Anne With The Shaky Hand (02:35)
4. The Who – Odorono (02:30)
5. The Who – Tattoo (02:48)
6. The Who – Our Love Was (03:23)
7. The Who – I Can See For Miles (04:07)
8. The Who – I Can't Reach You (03:27)
9. The Who – Medac (00:56)
10. The Who – Relax (02:38)
11. The Who – Silas Stingy (03:01)
12. The Who – Sunrise (03:02)
13. The Who – Rael (1 And 2) (05:52)
14. The Who – Pictures Of Lily (02:45)
15. The Who – Doctor, Doctor (03:01)
16. The Who – The Last Time (02:51)
17. The Who – Under My Thumb (02:37)
18. The Who – I Can See For Miles (Single Mix) (04:03)
19. The Who – Mary Anne With The Shaky Hand (03:19)
20. The Who – Someone's Coming (02:31)
21. The Who – Early Morning Cold Taxi (02:58)
22. The Who – Jaguar (02:55)
23. The Who – Tattoo (03:05)
24. The Who – Rael (Early Talentmasters Mix) (05:58)
25. The Who – Sunn Equipment Promo Spots (02:42)
26. The Who – Great Shakes (01:04)

Disc 2 (01:16:46)
1. The Who – Armenia City In The Sky (03:50)
2. The Who – Heinz Baked Beans (01:00)
3. The Who – Mary Anne With The Shaky Hand (02:34)
4. The Who – Odorono (02:35)
5. The Who – Tattoo (02:54)
6. The Who – Our Love Was (03:25)
7. The Who – I Can See For Miles (04:10)
8. The Who – I Can't Reach You (03:31)
9. The Who – Medac (00:57)
10. The Who – Relax (02:40)
11. The Who – Silas Stingy (03:05)
12. The Who – Sunrise (03:05)
13. The Who – Rael (1 And 2) (05:38)
14. The Who – Rael Naïve (01:37)
15. The Who – Mary Anne With The Shaky Hand (03:25)
16. The Who – Someone's Coming (02:32)
17. The Who – Summertime Blues (02:38)
18. The Who – Glittering Girl (03:04)
19. The Who – Early Morning Cold Taxi (02:59)
20. The Who – Girl's Eyes (02:51)
21. The Who – Coke After Coke (01:08)
22. The Who – Sodding About (02:51)
23. The Who – Things Go Better With Coke (00:31)
24. The Who – In The Hall Of The Mountain King (04:26)
25. The Who – Jaguar (02:54)
26. The Who – Rael (IBC Remake) (06:26)

Disc 3 (01:19:21)
1. The Who – Glittering Girl (03:29)
2. The Who – Girl's Eyes (03:58)
3. The Who – The Last Time (03:51)
4. The Who – Under My Thumb (03:12)
5. The Who – Our Love Was (03:21)
6. The Who – Relax (03:22)
7. The Who – Relax (01:58)
8. The Who – Mary Anne With The Shaky Hand (03:43)
9. The Who – Relax (02:37)
10. The Who – I Can See For Miles (04:54)
11. The Who – Medac (01:13)
12. The Who – Odorono (02:47)
13. The Who – Heinz Baked Beans (02:16)
14. The Who – Top Gear (03:03)
15. The Who – Premier Drums (02:17)
16. The Who – Charles Atlas (00:33)
17. The Who – Rotosound Strings (00:15)
18. The Who – Track Records (00:33)
19. The Who – John Mason Cars / Speakeasy / Rotosound Strings / Bag O' Nails (01:02)
20. The Who – It's A Girl Aka Glow Girl (03:21)
21. The Who – Mr. Hyde Aka Dr. Jekyll & Mr. Hyde (02:42)
22. The Who – Little Billy Aka Little Billy's Doing Fine (04:14)
23. The Who – Mrs Walker Aka Glow Girl (02:31)
24. The Who – Lightning Aka Call Me Lightning (06:12)
25. The Who – Dogs (03:14)
26. The Who – Melancholia (03:50)
27. The Who – Shakin' All Over (01:35)
28. The Who – Magic Bus (03:18)

Disc 4 (41:19)
1. The Who – Glow Girl (02:27)
2. The Who – Faith In Something Bigger (03:09)
3. The Who – Dr. Jekyll & Mr. Hyde (02:38)
4. The Who – Call Me Lightning (02:23)
5. The Who – Little Billy (02:19)
6. The Who – Dogs (03:10)
7. The Who – Melancholia (03:21)
8. The Who – Fortune Teller (02:22)
9. The Who – Facts Of Life (03:22)
10. The Who – Magic Bus (03:23)
11. The Who – Call Me Lightning (Mono Single Mix) (02:24)
12. The Who – Dr. Jekyll & Mr. Hyde (UK Mono Single Mix) (02:39)
13. The Who – Dogs (Mono Single Mix) (03:07)
14. The Who – Magic Bus (Long Version Mono Mix) (04:35)

Disc 5 (43:08)
1. Pete Townshend – Kids! Do You Want Kids? Aka Do You Want Kids, Kids? (01:40)
2. Pete Townshend – Relax (03:42)
3. Pete Townshend – Glow Girl (03:27)
4. Pete Townshend – Glow Girl (Version 2) (03:03)
5. Pete Townshend – Inside Outside USA (03:09)
6. Pete Townshend – Jaguar (03:02)
7. Pete Townshend – Little Billy (02:14)
8. Pete Townshend – Odorono (03:11)
9. Pete Townshend – Pictures Of Lily (03:28)
10. Pete Townshend – Relax (Version 2) (02:22)
11. Pete Townshend – Melancholia (03:07)
12. Pete Townshend – Thinking Of You All The While (Sunrise) (03:12)
13. Pete Townshend – Mary Anne With The Shaky Hand (03:16)
14. Pete Townshend – I Can See For Miles (04:15)

Exact Audio Copy V1.5 from 20. February 2020

EAC extraction logfile from 23. April 2021, 20:08

The Who / The Who Sell Out (Super Deluxe) Disc 1

Used drive : ASUS BW-16D1HT Adapter: 1 ID: 0

Read mode : Secure
Utilize accurate stream : Yes
Defeat audio cache : Yes
Make use of C2 pointers : No

Read offset correction : 6
Overread into Lead-In and Lead-Out : No
Fill up missing offset samples with silence : Yes
Delete leading and trailing silent blocks : No
Null samples used in CRC calculations : Yes
Used interface : Native Win32 interface for Win NT & 2000
Gap handling : Appended to previous track

Used output format : User Defined Encoder
Selected bitrate : 1024 kBit/s
Quality : High
Add ID3 tag : No
Command line compressor : C:\FLAC 1.3.3\flac.exe
Additional command line options : -8 -e -p -V -T "ARTIST=%artist%" -T "TITLE=%title%" -T "ALBUM=%albumtitle%" -T "DATE=%year%" -T "TRACKNUMBER=%tracknr%" -T "GENRE=%genre%" -T "PERFORMER=%albuminterpret%" -T "COMPOSER=%composer%" %haslyrics%–tag-from-file=LYRICS="%lyricsfile%"%haslyrics% -T "ALBUMARTIST=%albumartist%" -T "DISCNUMBER=%cdnumber%" -T "TOTALDISCS=%totalcds%" -T "TOTALTRACKS=%numtracks%" -T "COMMENT=%comment%" %source% -o %dest%


TOC of the extracted CD

Track | Start | Length | Start sector | End sector
––––––––––––––––––––––––––––-
1 | 0:00.00 | 3:47.01 | 0 | 17025
2 | 3:47.01 | 0:58.63 | 17026 | 21438
3 | 4:45.64 | 2:35.01 | 21439 | 33064
4 | 7:20.65 | 2:30.47 | 33065 | 44361
5 | 9:51.37 | 2:48.73 | 44362 | 57034
6 | 12:40.35 | 3:23.72 | 57035 | 72331
7 | 16:04.32 | 4:07.23 | 72332 | 90879
8 | 20:11.55 | 3:27.00 | 90880 | 106404
9 | 23:38.55 | 0:56.26 | 106405 | 110630
10 | 24:35.06 | 2:38.71 | 110631 | 122551
11 | 27:14.02 | 3:01.08 | 122552 | 136134
12 | 30:15.10 | 3:02.40 | 136135 | 149824
13 | 33:17.50 | 5:52.59 | 149825 | 176283
14 | 39:10.34 | 2:45.58 | 176284 | 188716
15 | 41:56.17 | 3:01.20 | 188717 | 202311
16 | 44:57.37 | 2:51.36 | 202312 | 215172
17 | 47:48.73 | 2:37.26 | 215173 | 226973
18 | 50:26.24 | 4:03.09 | 226974 | 245207
19 | 54:29.33 | 3:19.54 | 245208 | 260186
20 | 57:49.12 | 2:31.38 | 260187 | 271549
21 | 60:20.50 | 2:59.03 | 271550 | 284977
22 | 63:19.53 | 2:55.65 | 284978 | 298167
23 | 66:15.43 | 3:05.37 | 298168 | 312079
24 | 69:21.05 | 5:58.17 | 312080 | 338946
25 | 75:19.22 | 2:42.20 | 338947 | 351116
26 | 78:01.42 | 1:06.73 | 351117 | 356139


Track 1

Filename G:\Torrents\The Who - The Who Sell Out (Super Deluxe) (CD) [FLAC]\01\01 - Armenia City in The Sky (Mono).wav

Pre-gap length 0:00:02.00

Peak level 92.2 %
Extraction speed 5.0 X
Track quality 100.0 %
Test CRC 2F51EEBD
Copy CRC 2F51EEBD
Track not present in AccurateRip database
Copy OK

Track 2

Filename G:\Torrents\The Who - The Who Sell Out (Super Deluxe) (CD) [FLAC]\01\02 - Heinz Baked Beans (Mono).wav

Peak level 84.1 %
Extraction speed 3.8 X
Track quality 100.0 %
Test CRC A001213A
Copy CRC A001213A
Track not present in AccurateRip database
Copy OK

Track 3

Filename G:\Torrents\The Who - The Who Sell Out (Super Deluxe) (CD) [FLAC]\01\03 - Mary Anne With The Shaky Hand (Mono).wav

Peak level 85.9 %
Extraction speed 4.0 X
Track quality 99.9 %
Test CRC 7667D576
Copy CRC 7667D576
Track not present in AccurateRip database
Copy OK

Track 4

Filename G:\Torrents\The Who - The Who Sell Out (Super Deluxe) (CD) [FLAC]\01\04 - Odorono (Mono).wav

Peak level 92.1 %
Extraction speed 5.4 X
Track quality 100.0 %
Test CRC A65C1630
Copy CRC A65C1630
Track not present in AccurateRip database
Copy OK

Track 5

Filename G:\Torrents\The Who - The Who Sell Out (Super Deluxe) (CD) [FLAC]\01\05 - Tattoo (Mono).wav

Peak level 93.0 %
Extraction speed 4.5 X
Track quality 99.9 %
Test CRC 032EED1D
Copy CRC 032EED1D
Track not present in AccurateRip database
Copy OK

Track 6

Filename G:\Torrents\The Who - The Who Sell Out (Super Deluxe) (CD) [FLAC]\01\06 - Our Love Was (Mono).wav

Peak level 87.0 %
Extraction speed 6.2 X
Track quality 100.0 %
Test CRC E502FE3B
Copy CRC E502FE3B
Track not present in AccurateRip database
Copy OK

Track 7

Filename G:\Torrents\The Who - The Who Sell Out (Super Deluxe) (CD) [FLAC]\01\07 - I Can See For Miles (Mono).wav

Peak level 94.4 %
Extraction speed 5.6 X
Track quality 99.9 %
Test CRC 50E4C5C4
Copy CRC 50E4C5C4
Track not present in AccurateRip database
Copy OK

Track 8

Filename G:\Torrents\The Who - The Who Sell Out (Super Deluxe) (CD) [FLAC]\01\08 - I Can't Reach You (Mono).wav

Peak level 89.7 %
Extraction speed 6.8 X
Track quality 100.0 %
Test CRC 89F4E40D
Copy CRC 89F4E40D
Track not present in AccurateRip database
Copy OK

Track 9

Filename G:\Torrents\The Who - The Who Sell Out (Super Deluxe) (CD) [FLAC]\01\09 - Medac (Mono).wav

Peak level 85.9 %
Extraction speed 5.0 X
Track quality 100.0 %
Test CRC AC5CEEB2
Copy CRC AC5CEEB2
Track not present in AccurateRip database
Copy OK

Track 10

Filename G:\Torrents\The Who - The Who Sell Out (Super Deluxe) (CD) [FLAC]\01\10 - Relax (Mono).wav

Peak level 95.6 %
Extraction speed 7.0 X
Track quality 100.0 %
Test CRC 548E14AD
Copy CRC 548E14AD
Track not present in AccurateRip database
Copy OK

Track 11

Filename G:\Torrents\The Who - The Who Sell Out (Super Deluxe) (CD) [FLAC]\01\11 - Silas Stingy (Mono).wav

Peak level 99.8 %
Extraction speed 7.3 X
Track quality 100.0 %
Test CRC 1687EAC6
Copy CRC 1687EAC6
Track not present in AccurateRip database
Copy OK

Track 12

Filename G:\Torrents\The Who - The Who Sell Out (Super Deluxe) (CD) [FLAC]\01\12 - Sunrise (Mono).wav

Peak level 81.0 %
Extraction speed 7.6 X
Track quality 100.0 %
Test CRC C155C043
Copy CRC C155C043
Track not present in AccurateRip database
Copy OK

Track 13

Filename G:\Torrents\The Who - The Who Sell Out (Super Deluxe) (CD) [FLAC]\01\13 - Rael (1 & 2) (Mono).wav

Peak level 99.5 %
Extraction speed 8.5 X
Track quality 100.0 %
Test CRC 8F3445EB
Copy CRC 8F3445EB
Track not present in AccurateRip database
Copy OK

Track 14

Filename G:\Torrents\The Who - The Who Sell Out (Super Deluxe) (CD) [FLAC]\01\14 - Pictures of Lily (Mono) (Bonus).wav

Peak level 98.8 %
Extraction speed 8.0 X
Track quality 100.0 %
Test CRC 79D43FA6
Copy CRC 79D43FA6
Track not present in AccurateRip database
Copy OK

Track 15

Filename G:\Torrents\The Who - The Who Sell Out (Super Deluxe) (CD) [FLAC]\01\15 - Doctor, Doctor (Mono B-Side) (Bonus).wav

Peak level 94.6 %
Extraction speed 6.5 X
Track quality 99.9 %
Test CRC CA652A31
Copy CRC CA652A31
Track not present in AccurateRip database
Copy OK

Track 16

Filename G:\Torrents\The Who - The Who Sell Out (Super Deluxe) (CD) [FLAC]\01\16 - The Last Time (Mono) (Bonus).wav

Peak level 97.5 %
Extraction speed 8.4 X
Track quality 100.0 %
Test CRC 411DB8AE
Copy CRC 411DB8AE
Track not present in AccurateRip database
Copy OK

Track 17

Filename G:\Torrents\The Who - The Who Sell Out (Super Deluxe) (CD) [FLAC]\01\17 - Under My Thumb (Mono) (Bonus).wav

Peak level 92.9 %
Extraction speed 6.4 X
Track quality 99.9 %
Test CRC 4CCD438E
Copy CRC 4CCD438E
Track not present in AccurateRip database
Copy OK

Track 18

Filename G:\Torrents\The Who - The Who Sell Out (Super Deluxe) (CD) [FLAC]\01\18 - I Can See For Miles (Mono Single Mix) (Bonus).wav

Peak level 96.5 %
Extraction speed 9.4 X
Track quality 100.0 %
Test CRC 04300750
Copy CRC 04300750
Track not present in AccurateRip database
Copy OK

Track 19

Filename G:\Torrents\The Who - The Who Sell Out (Super Deluxe) (CD) [FLAC]\01\19 - Mary Anne With The Shaky Hand (Mono US B-Side Version) (Bonus).wav

Peak level 95.6 %
Extraction speed 9.2 X
Track quality 100.0 %
Test CRC 11E70FBD
Copy CRC 11E70FBD
Track not present in AccurateRip database
Copy OK

Track 20

Filename G:\Torrents\The Who - The Who Sell Out (Super Deluxe) (CD) [FLAC]\01\20 - Someone's Coming (Mono B-Side) (Bonus).wav

Peak level 98.2 %
Extraction speed 9.1 X
Track quality 100.0 %
Test CRC A0C91BF6
Copy CRC A0C91BF6
Track not present in AccurateRip database
Copy OK

Track 21

Filename G:\Torrents\The Who - The Who Sell Out (Super Deluxe) (CD) [FLAC]\01\21 - Early Morning Cold Taxi (Mono) (Bonus).wav

Peak level 93.6 %
Extraction speed 9.5 X
Track quality 100.0 %
Test CRC E55FCCC9
Copy CRC E55FCCC9
Track not present in AccurateRip database
Copy OK

Track 22

Filename G:\Torrents\The Who - The Who Sell Out (Super Deluxe) (CD) [FLAC]\01\22 - Jaguar (Mono) (Bonus).wav

Peak level 97.2 %
Extraction speed 9.6 X
Track quality 100.0 %
Test CRC 2BB7A3DE
Copy CRC 2BB7A3DE
Track not present in AccurateRip database
Copy OK

Track 23

Filename G:\Torrents\The Who - The Who Sell Out (Super Deluxe) (CD) [FLAC]\01\23 - Tattoo (Mono Alternate Mix) (Bonus).wav

Peak level 97.6 %
Extraction speed 9.8 X
Track quality 100.0 %
Test CRC 0A05045D
Copy CRC 0A05045D
Track not present in AccurateRip database
Copy OK

Track 24

Filename G:\Torrents\The Who - The Who Sell Out (Super Deluxe) (CD) [FLAC]\01\24 - Rael (Mono Early Talentmasters Mix) (Bonus).wav

Peak level 99.7 %
Extraction speed 9.4 X
Track quality 99.9 %
Test CRC 7440E8F8
Copy CRC 7440E8F8
Track not present in AccurateRip database
Copy OK

Track 25

Filename G:\Torrents\The Who - The Who Sell Out (Super Deluxe) (CD) [FLAC]\01\25 - Sunn Equipment Promo Spots (Mono) (Bonus).wav

Peak level 98.6 %
Extraction speed 10.0 X
Track quality 100.0 %
Test CRC C64D2232
Copy CRC C64D2232
Track not present in AccurateRip database
Copy OK

Track 26

Filename G:\Torrents\The Who - The Who Sell Out (Super Deluxe) (CD) [FLAC]\01\26 - Great Shakes (Mono) (Bonus).wav

Peak level 99.2 %
Extraction speed 7.7 X
Track quality 100.0 %
Test CRC F16FF120
Copy CRC F16FF120
Track not present in AccurateRip database
Copy OK


None of the tracks are present in the AccurateRip database

No errors occurred

End of status report

–– CUETools DB Plugin V2.1.6

[CTDB TOCID: d6f97g5YXLTWGDfCRj7bPZ39Zic-] found
Submit result: d6f97g5YXLTWGDfCRj7bPZ39Zic- has been confirmed
Track | CTDB Status
1 | (5/5) Accurately ripped
2 | (5/5) Accurately ripped
3 | (5/5) Accurately ripped
4 | (5/5) Accurately ripped
5 | (5/5) Accurately ripped
6 | (5/5) Accurately ripped
7 | (5/5) Accurately ripped
8 | (5/5) Accurately ripped
9 | (5/5) Accurately ripped
10 | (5/5) Accurately ripped
11 | (5/5) Accurately ripped
12 | (5/5) Accurately ripped
13 | (5/5) Accurately ripped
14 | (5/5) Accurately ripped
15 | (5/5) Accurately ripped
16 | (5/5) Accurately ripped
17 | (5/5) Accurately ripped
18 | (5/5) Accurately ripped
19 | (5/5) Accurately ripped
20 | (5/5) Accurately ripped
21 | (5/5) Accurately ripped
22 | (5/5) Accurately ripped
23 | (5/5) Accurately ripped
24 | (5/5) Accurately ripped
25 | (5/5) Accurately ripped
26 | (5/5) Accurately ripped


==== Log checksum E8F3CDE23A6689C56BA9B7AA49B42A9F5BBBE84639260C9767DC1EDD85495D8B ====
Exact Audio Copy V1.5 from 20. February 2020

EAC extraction logfile from 23. April 2021, 22:03

The Who / The Who Sell Out (Super Deluxe) Disc 2

Used drive : ASUS BW-16D1HT Adapter: 1 ID: 0

Read mode : Secure
Utilize accurate stream : Yes
Defeat audio cache : Yes
Make use of C2 pointers : No

Read offset correction : 6
Overread into Lead-In and Lead-Out : No
Fill up missing offset samples with silence : Yes
Delete leading and trailing silent blocks : No
Null samples used in CRC calculations : Yes
Used interface : Native Win32 interface for Win NT & 2000
Gap handling : Appended to previous track

Used output format : User Defined Encoder
Selected bitrate : 1024 kBit/s
Quality : High
Add ID3 tag : No
Command line compressor : C:\FLAC 1.3.3\flac.exe
Additional command line options : -8 -e -p -V -T "ARTIST=%artist%" -T "TITLE=%title%" -T "ALBUM=%albumtitle%" -T "DATE=%year%" -T "TRACKNUMBER=%tracknr%" -T "GENRE=%genre%" -T "PERFORMER=%albuminterpret%" -T "COMPOSER=%composer%" %haslyrics%–tag-from-file=LYRICS="%lyricsfile%"%haslyrics% -T "ALBUMARTIST=%albumartist%" -T "DISCNUMBER=%cdnumber%" -T "TOTALDISCS=%totalcds%" -T "TOTALTRACKS=%numtracks%" -T "COMMENT=%comment%" %source% -o %dest%


TOC of the extracted CD

Track | Start | Length | Start sector | End sector
––––––––––––––––––––––––––––-
1 | 0:00.00 | 3:50.72 | 0 | 17321
2 | 3:50.72 | 1:00.57 | 17322 | 21878
3 | 4:51.54 | 2:34.31 | 21879 | 33459
4 | 7:26.10 | 2:35.12 | 33460 | 45096
5 | 10:01.22 | 2:54.28 | 45097 | 58174
6 | 12:55.50 | 3:25.22 | 58175 | 73571
7 | 16:20.72 | 4:10.16 | 73572 | 92337
8 | 20:31.13 | 3:31.01 | 92338 | 108163
9 | 24:02.14 | 0:57.34 | 108164 | 112472
10 | 24:59.48 | 2:40.52 | 112473 | 124524
11 | 27:40.25 | 3:06.00 | 124525 | 138474
12 | 30:46.25 | 3:05.01 | 138475 | 152350
13 | 33:51.26 | 5:38.62 | 152351 | 177762
14 | 39:30.13 | 1:37.46 | 177763 | 185083
15 | 41:07.59 | 3:25.15 | 185084 | 200473
16 | 44:32.74 | 2:33.00 | 200474 | 211948
17 | 47:05.74 | 2:38.32 | 211949 | 223830
18 | 49:44.31 | 3:04.55 | 223831 | 237685
19 | 52:49.11 | 2:59.12 | 237686 | 251122
20 | 55:48.23 | 2:51.50 | 251123 | 263997
21 | 58:39.73 | 1:08.58 | 263998 | 269155
22 | 59:48.56 | 2:51.27 | 269156 | 282007
23 | 62:40.08 | 0:31.19 | 282008 | 284351
24 | 63:11.27 | 4:26.68 | 284352 | 304369
25 | 67:38.20 | 2:54.02 | 304370 | 317421
26 | 70:32.22 | 6:28.19 | 317422 | 346540


Track 1

Filename G:\Torrents\The Who - The Who Sell Out (Super Deluxe) (CD) [FLAC]\02\01 - Armenia City in the Sky.wav

Pre-gap length 0:00:02.00

Peak level 97.4 %
Extraction speed 1.2 X
Track quality 100.0 %
Test CRC A9113DB4
Copy CRC A9113DB4
Track not present in AccurateRip database
Copy OK

Track 2

Filename G:\Torrents\The Who - The Who Sell Out (Super Deluxe) (CD) [FLAC]\02\02 - Heinz Baked Beans.wav

Peak level 97.2 %
Extraction speed 0.8 X
Track quality 99.8 %
Test CRC 1EB0C738
Copy CRC 1EB0C738
Track not present in AccurateRip database
Copy OK

Track 3

Filename G:\Torrents\The Who - The Who Sell Out (Super Deluxe) (CD) [FLAC]\02\03 - Mary Anne With The Shaky Hand.wav

Peak level 94.2 %
Extraction speed 1.2 X
Track quality 100.0 %
Test CRC 92C5A281
Copy CRC 92C5A281
Track not present in AccurateRip database
Copy OK

Track 4

Filename G:\Torrents\The Who - The Who Sell Out (Super Deluxe) (CD) [FLAC]\02\04 - Odorono.wav

Peak level 96.4 %
Extraction speed 1.3 X
Track quality 100.0 %
Test CRC 4CCB27E6
Copy CRC 4CCB27E6
Track not present in AccurateRip database
Copy OK

Track 5

Filename G:\Torrents\The Who - The Who Sell Out (Super Deluxe) (CD) [FLAC]\02\05 - Tattoo.wav

Peak level 95.2 %
Extraction speed 1.4 X
Track quality 100.0 %
Test CRC D54AEB82
Copy CRC D54AEB82
Track not present in AccurateRip database
Copy OK

Track 6

Filename G:\Torrents\The Who - The Who Sell Out (Super Deluxe) (CD) [FLAC]\02\06 - Our Love Was.wav

Peak level 93.3 %
Extraction speed 1.5 X
Track quality 100.0 %
Test CRC 388272BF
Copy CRC 388272BF
Track not present in AccurateRip database
Copy OK

Track 7

Filename G:\Torrents\The Who - The Who Sell Out (Super Deluxe) (CD) [FLAC]\02\07 - I Can See For Miles.wav

Peak level 98.5 %
Extraction speed 1.6 X
Track quality 100.0 %
Test CRC 12AD8AD3
Copy CRC 12AD8AD3
Track not present in AccurateRip database
Copy OK

Track 8

Filename G:\Torrents\The Who - The Who Sell Out (Super Deluxe) (CD) [FLAC]\02\08 - I Can’t Reach You.wav

Peak level 94.7 %
Extraction speed 1.6 X
Track quality 100.0 %
Test CRC 374079C8
Copy CRC 374079C8
Track not present in AccurateRip database
Copy OK

Track 9

Filename G:\Torrents\The Who - The Who Sell Out (Super Deluxe) (CD) [FLAC]\02\09 - Medac.wav

Peak level 93.0 %
Extraction speed 1.0 X
Track quality 99.8 %
Test CRC 78AD4955
Copy CRC 78AD4955
Track not present in AccurateRip database
Copy OK

Track 10

Filename G:\Torrents\The Who - The Who Sell Out (Super Deluxe) (CD) [FLAC]\02\10 - Relax.wav

Peak level 96.4 %
Extraction speed 1.5 X
Track quality 99.9 %
Test CRC 49390B4B
Copy CRC 49390B4B
Track not present in AccurateRip database
Copy OK

Track 11

Filename G:\Torrents\The Who - The Who Sell Out (Super Deluxe) (CD) [FLAC]\02\11 - Silas Stingy.wav

Peak level 97.8 %
Extraction speed 1.8 X
Track quality 100.0 %
Test CRC 8BA71A8C
Copy CRC 8BA71A8C
Track not present in AccurateRip database
Copy OK

Track 12

Filename G:\Torrents\The Who - The Who Sell Out (Super Deluxe) (CD) [FLAC]\02\12 - Sunrise.wav

Peak level 79.6 %
Extraction speed 1.8 X
Track quality 100.0 %
Test CRC C3A4E656
Copy CRC C3A4E656
Track not present in AccurateRip database
Copy OK

Track 13

Filename G:\Torrents\The Who - The Who Sell Out (Super Deluxe) (CD) [FLAC]\02\13 - Rael.wav

Peak level 97.1 %
Extraction speed 2.1 X
Track quality 100.0 %
Test CRC 55AB809A
Copy CRC 55AB809A
Track not present in AccurateRip database
Copy OK

Track 14

Filename G:\Torrents\The Who - The Who Sell Out (Super Deluxe) (CD) [FLAC]\02\14 - Rael Naïve (Full Coda) (Bonus).wav

Peak level 99.8 %
Extraction speed 1.4 X
Track quality 99.8 %
Test CRC 3A4F006E
Copy CRC 3A4F006E
Track not present in AccurateRip database
Copy OK

Track 15

Filename G:\Torrents\The Who - The Who Sell Out (Super Deluxe) (CD) [FLAC]\02\15 - Mary Anne With The Shaky Hand (Mirasound Version) (Bonus).wav

Peak level 99.8 %
Extraction speed 1.8 X
Track quality 99.9 %
Test CRC B9DF61DC
Copy CRC B9DF61DC
Track not present in AccurateRip database
Copy OK

Track 16

Filename G:\Torrents\The Who - The Who Sell Out (Super Deluxe) (CD) [FLAC]\02\16 - Someone’s Coming (Bonus).wav

Peak level 98.7 %
Extraction speed 2.0 X
Track quality 100.0 %
Test CRC 2EF84E86
Copy CRC 2EF84E86
Track not present in AccurateRip database
Copy OK

Track 17

Filename G:\Torrents\The Who - The Who Sell Out (Super Deluxe) (CD) [FLAC]\02\17 - Summertime Blues (Bonus).wav

Peak level 99.6 %
Extraction speed 2.0 X
Track quality 100.0 %
Test CRC 7DDD29ED
Copy CRC 7DDD29ED
Track not present in AccurateRip database
Copy OK

Track 18

Filename G:\Torrents\The Who - The Who Sell Out (Super Deluxe) (CD) [FLAC]\02\18 - Glittering Girl (Bonus).wav

Peak level 89.6 %
Extraction speed 2.1 X
Track quality 100.0 %
Test CRC AA012335
Copy CRC AA012335
Track not present in AccurateRip database
Copy OK

Track 19

Filename G:\Torrents\The Who - The Who Sell Out (Super Deluxe) (CD) [FLAC]\02\19 - Early Morning Cold Taxi (Bonus).wav

Peak level 98.9 %
Extraction speed 2.2 X
Track quality 100.0 %
Test CRC 8F3826F7
Copy CRC 8F3826F7
Track not present in AccurateRip database
Copy OK

Track 20

Filename G:\Torrents\The Who - The Who Sell Out (Super Deluxe) (CD) [FLAC]\02\20 - Girl’s Eyes (Bonus).wav

Peak level 99.3 %
Extraction speed 1.8 X
Track quality 99.9 %
Test CRC 2DA74816
Copy CRC 2DA74816
Track not present in AccurateRip database
Copy OK

Track 21

Filename G:\Torrents\The Who - The Who Sell Out (Super Deluxe) (CD) [FLAC]\02\21 - Coke After Coke (Bonus).wav

Peak level 97.0 %
Extraction speed 1.7 X
Track quality 100.0 %
Test CRC A0AED94E
Copy CRC A0AED94E
Track not present in AccurateRip database
Copy OK

Track 22

Filename G:\Torrents\The Who - The Who Sell Out (Super Deluxe) (CD) [FLAC]\02\22 - Sodding About (Bonus).wav

Peak level 91.2 %
Extraction speed 2.3 X
Track quality 100.0 %
Test CRC A7758D95
Copy CRC A7758D95
Track not present in AccurateRip database
Copy OK

Track 23

Filename G:\Torrents\The Who - The Who Sell Out (Super Deluxe) (CD) [FLAC]\02\23 - Things Go Better With Coke (Bonus).wav

Peak level 92.2 %
Extraction speed 1.2 X
Track quality 100.0 %
Test CRC 13407EA1
Copy CRC 13407EA1
Track not present in AccurateRip database
Copy OK

Track 24

Filename G:\Torrents\The Who - The Who Sell Out (Super Deluxe) (CD) [FLAC]\02\24 - In The Hall of The Mountain King (Bonus).wav

Peak level 93.4 %
Extraction speed 2.2 X
Track quality 99.9 %
Test CRC 50A31C12
Copy CRC 50A31C12
Track not present in AccurateRip database
Copy OK

Track 25

Filename G:\Torrents\The Who - The Who Sell Out (Super Deluxe) (CD) [FLAC]\02\25 - Jaguar (Bonus).wav

Peak level 96.2 %
Extraction speed 2.4 X
Track quality 100.0 %
Test CRC 39B8F794
Copy CRC 39B8F794
Track not present in AccurateRip database
Copy OK

Track 26

Filename G:\Torrents\The Who - The Who Sell Out (Super Deluxe) (CD) [FLAC]\02\26 - Rael (IBC remake) (Bonus).wav

Peak level 96.1 %
Extraction speed 2.7 X
Track quality 100.0 %
Test CRC B5D1713D
Copy CRC B5D1713D
Track not present in AccurateRip database
Copy OK


None of the tracks are present in the AccurateRip database

No errors occurred

End of status report

–– CUETools DB Plugin V2.1.6

[CTDB TOCID: zUm_RtabCNrMxHhnynjbAMShYto-] found
Submit result: zUm_RtabCNrMxHhnynjbAMShYto- has been confirmed
Track | CTDB Status
1 | (5/5) Accurately ripped
2 | (5/5) Accurately ripped
3 | (5/5) Accurately ripped
4 | (5/5) Accurately ripped
5 | (5/5) Accurately ripped
6 | (5/5) Accurately ripped
7 | (5/5) Accurately ripped
8 | (5/5) Accurately ripped
9 | (5/5) Accurately ripped
10 | (5/5) Accurately ripped
11 | (5/5) Accurately ripped
12 | (5/5) Accurately ripped
13 | (5/5) Accurately ripped
14 | (5/5) Accurately ripped
15 | (5/5) Accurately ripped
16 | (5/5) Accurately ripped
17 | (5/5) Accurately ripped
18 | (5/5) Accurately ripped
19 | (5/5) Accurately ripped
20 | (5/5) Accurately ripped
21 | (5/5) Accurately ripped
22 | (5/5) Accurately ripped
23 | (5/5) Accurately ripped
24 | (5/5) Accurately ripped
25 | (5/5) Accurately ripped
26 | (5/5) Accurately ripped


==== Log checksum 43C24E042AC5D6A4CF987FB13AC92BD3DE77708F98330F79EF920617521D38E3 ====
Exact Audio Copy V1.5 from 20. February 2020

EAC extraction logfile from 23. April 2021, 23:46

The Who / The Who Sell Out (Super Deluxe) Disc 3

Used drive : ASUS BW-16D1HT Adapter: 1 ID: 0

Read mode : Secure
Utilize accurate stream : Yes
Defeat audio cache : Yes
Make use of C2 pointers : No

Read offset correction : 6
Overread into Lead-In and Lead-Out : No
Fill up missing offset samples with silence : Yes
Delete leading and trailing silent blocks : No
Null samples used in CRC calculations : Yes
Used interface : Native Win32 interface for Win NT & 2000
Gap handling : Appended to previous track

Used output format : User Defined Encoder
Selected bitrate : 1024 kBit/s
Quality : High
Add ID3 tag : No
Command line compressor : C:\FLAC 1.3.3\flac.exe
Additional command line options : -8 -e -p -V -T "ARTIST=%artist%" -T "TITLE=%title%" -T "ALBUM=%albumtitle%" -T "DATE=%year%" -T "TRACKNUMBER=%tracknr%" -T "GENRE=%genre%" -T "PERFORMER=%albuminterpret%" -T "COMPOSER=%composer%" %haslyrics%–tag-from-file=LYRICS="%lyricsfile%"%haslyrics% -T "ALBUMARTIST=%albumartist%" -T "DISCNUMBER=%cdnumber%" -T "TOTALDISCS=%totalcds%" -T "TOTALTRACKS=%numtracks%" -T "COMMENT=%comment%" %source% -o %dest%


TOC of the extracted CD

Track | Start | Length | Start sector | End sector
––––––––––––––––––––––––––––-
1 | 0:00.00 | 3:29.63 | 0 | 15737
2 | 3:29.63 | 3:58.54 | 15738 | 33641
3 | 7:28.42 | 3:51.47 | 33642 | 51013
4 | 11:20.14 | 3:13.00 | 51014 | 65488
5 | 14:33.14 | 3:21.36 | 65489 | 80599
6 | 17:54.50 | 3:22.41 | 80600 | 95790
7 | 21:17.16 | 1:58.21 | 95791 | 104661
8 | 23:15.37 | 3:43.11 | 104662 | 121397
9 | 26:58.48 | 2:37.60 | 121398 | 133232
10 | 29:36.33 | 4:54.28 | 133233 | 155310
11 | 34:30.61 | 1:13.69 | 155311 | 160854
12 | 35:44.55 | 2:47.64 | 160855 | 173443
13 | 38:32.44 | 2:16.71 | 173444 | 183714
14 | 40:49.40 | 3:03.48 | 183715 | 197487
15 | 43:53.13 | 2:17.23 | 197488 | 207785
16 | 46:10.36 | 0:33.30 | 207786 | 210290
17 | 46:43.66 | 0:15.44 | 210291 | 211459
18 | 46:59.35 | 0:34.00 | 211460 | 214009
19 | 47:33.35 | 1:02.05 | 214010 | 218664
20 | 48:35.40 | 3:21.04 | 218665 | 233743
21 | 51:56.44 | 2:42.01 | 233744 | 245894
22 | 54:38.45 | 4:14.33 | 245895 | 264977
23 | 58:53.03 | 2:31.27 | 264978 | 276329
24 | 61:24.30 | 6:12.69 | 276330 | 304298
25 | 67:37.24 | 3:14.62 | 304299 | 318910
26 | 70:52.11 | 3:50.48 | 318911 | 336208
27 | 74:42.59 | 1:35.19 | 336209 | 343352
28 | 76:18.03 | 3:20.72 | 343353 | 358424


Track 1

Filename G:\Torrents\The Who - The Who Sell Out (Super Deluxe) (CD) [FLAC]\03\01 - Glittering Girl (Take 4,2018 Mix).wav

Pre-gap length 0:00:02.00

Peak level 97.6 %
Extraction speed 1.1 X
Track quality 99.9 %
Test CRC 76CE9C6D
Copy CRC 76CE9C6D
Track not present in AccurateRip database
Copy OK

Track 2

Filename G:\Torrents\The Who - The Who Sell Out (Super Deluxe) (CD) [FLAC]\03\02 - Girl’s Eyes (Take 2,2018 Mix).wav

Peak level 97.3 %
Extraction speed 1.3 X
Track quality 99.9 %
Test CRC 19054A51
Copy CRC 19054A51
Track not present in AccurateRip database
Copy OK

Track 3

Filename G:\Torrents\The Who - The Who Sell Out (Super Deluxe) (CD) [FLAC]\03\03 - The Last Time (Take 8,2018 Mix).wav

Peak level 97.6 %
Extraction speed 1.4 X
Track quality 100.0 %
Test CRC 040D88C9
Copy CRC 040D88C9
Track not present in AccurateRip database
Copy OK

Track 4

Filename G:\Torrents\The Who - The Who Sell Out (Super Deluxe) (CD) [FLAC]\03\04 - Under My Thumb (Take 3,2018 Mix).wav

Peak level 97.8 %
Extraction speed 1.4 X
Track quality 100.0 %
Test CRC 66F03FC4
Copy CRC 66F03FC4
Track not present in AccurateRip database
Copy OK

Track 5

Filename G:\Torrents\The Who - The Who Sell Out (Super Deluxe) (CD) [FLAC]\03\05 - Our Love Was (Take 2).wav

Peak level 96.9 %
Extraction speed 1.4 X
Track quality 99.9 %
Test CRC 74BFA8C2
Copy CRC 74BFA8C2
Track not present in AccurateRip database
Copy OK

Track 6

Filename G:\Torrents\The Who - The Who Sell Out (Super Deluxe) (CD) [FLAC]\03\06 - Relax (4‐track to 4‐track Mix,2018 Mix).wav

Peak level 96.6 %
Extraction speed 1.6 X
Track quality 100.0 %
Test CRC 0E8EA7A6
Copy CRC 0E8EA7A6
Track not present in AccurateRip database
Copy OK

Track 7

Filename G:\Torrents\The Who - The Who Sell Out (Super Deluxe) (CD) [FLAC]\03\07 - Relax (Take 1 & 2,2018 Mix).wav

Peak level 97.8 %
Extraction speed 1.5 X
Track quality 100.0 %
Test CRC 5BF1EB94
Copy CRC 5BF1EB94
Track not present in AccurateRip database
Copy OK

Track 8

Filename G:\Torrents\The Who - The Who Sell Out (Super Deluxe) (CD) [FLAC]\03\08 - Mary Anne With The Shaky Hand (Take 1 & 9,2018 Mix).wav

Peak level 97.2 %
Extraction speed 1.7 X
Track quality 100.0 %
Test CRC 387F0B50
Copy CRC 387F0B50
Track not present in AccurateRip database
Copy OK

Track 9

Filename G:\Torrents\The Who - The Who Sell Out (Super Deluxe) (CD) [FLAC]\03\09 - Relax (Remake Take 4).wav

Peak level 97.1 %
Extraction speed 1.7 X
Track quality 100.0 %
Test CRC 70DC9FD0
Copy CRC 70DC9FD0
Track not present in AccurateRip database
Copy OK

Track 10

Filename G:\Torrents\The Who - The Who Sell Out (Super Deluxe) (CD) [FLAC]\03\10 - I Can See for Miles (Full Version).wav

Peak level 97.1 %
Extraction speed 1.9 X
Track quality 100.0 %
Test CRC DE197B14
Copy CRC DE197B14
Track not present in AccurateRip database
Copy OK

Track 11

Filename G:\Torrents\The Who - The Who Sell Out (Super Deluxe) (CD) [FLAC]\03\11 - Medac (Take 11).wav

Peak level 98.0 %
Extraction speed 1.5 X
Track quality 100.0 %
Test CRC 23B245F8
Copy CRC 23B245F8
Track not present in AccurateRip database
Copy OK

Track 12

Filename G:\Torrents\The Who - The Who Sell Out (Super Deluxe) (CD) [FLAC]\03\12 - Odorono (Take 3,Full Version,2018 Mix).wav

Peak level 97.2 %
Extraction speed 1.8 X
Track quality 100.0 %
Test CRC F81C3B08
Copy CRC F81C3B08
Track not present in AccurateRip database
Copy OK

Track 13

Filename G:\Torrents\The Who - The Who Sell Out (Super Deluxe) (CD) [FLAC]\03\13 - Heinz Baked Beans (Take 1 & 3,2018 Mix).wav

Peak level 97.6 %
Extraction speed 1.8 X
Track quality 100.0 %
Test CRC 6891A801
Copy CRC 6891A801
Track not present in AccurateRip database
Copy OK

Track 14

Filename G:\Torrents\The Who - The Who Sell Out (Super Deluxe) (CD) [FLAC]\03\14 - Top Gear (Take 1, 2 & 5,2018 Mix).wav

Peak level 97.6 %
Extraction speed 2.0 X
Track quality 100.0 %
Test CRC BBA0E2B1
Copy CRC BBA0E2B1
Track not present in AccurateRip database
Copy OK

Track 15

Filename G:\Torrents\The Who - The Who Sell Out (Super Deluxe) (CD) [FLAC]\03\15 - Premier Drums (Take 1 & 4,2018 Mix).wav

Peak level 98.9 %
Extraction speed 1.9 X
Track quality 100.0 %
Test CRC A6126F10
Copy CRC A6126F10
Track not present in AccurateRip database
Copy OK

Track 16

Filename G:\Torrents\The Who - The Who Sell Out (Super Deluxe) (CD) [FLAC]\03\16 - Charles Atlas (Take 1).wav

Peak level 98.4 %
Extraction speed 1.1 X
Track quality 100.0 %
Test CRC 795F5E67
Copy CRC 795F5E67
Track not present in AccurateRip database
Copy OK

Track 17

Filename G:\Torrents\The Who - The Who Sell Out (Super Deluxe) (CD) [FLAC]\03\17 - Rotosound Strings (Take 1,2018 Mix).wav

Peak level 96.5 %
Extraction speed 0.4 X
Track quality 99.3 %
Test CRC 9790AF31
Copy CRC 9790AF31
Track not present in AccurateRip database
Copy OK

Track 18

Filename G:\Torrents\The Who - The Who Sell Out (Super Deluxe) (CD) [FLAC]\03\18 - Track Records (2018 Mix).wav

Peak level 76.6 %
Extraction speed 1.1 X
Track quality 100.0 %
Test CRC 2F3399B0
Copy CRC 2F3399B0
Track not present in AccurateRip database
Copy OK

Track 19

Filename G:\Torrents\The Who - The Who Sell Out (Super Deluxe) (CD) [FLAC]\03\19 - John Mason Cars,Speakeasy,Rotosound Strings,Bag O’ Nails (2018 Mix).wav

Peak level 87.3 %
Extraction speed 1.1 X
Track quality 99.8 %
Test CRC 424AA2D7
Copy CRC 424AA2D7
Track not present in AccurateRip database
Copy OK

Track 20

Filename G:\Torrents\The Who - The Who Sell Out (Super Deluxe) (CD) [FLAC]\03\20 - It’s a Girl (aka ‘Glow Girl’, Take 2, 3 & 4).wav

Peak level 97.3 %
Extraction speed 2.1 X
Track quality 100.0 %
Test CRC 97F1CEA7
Copy CRC 97F1CEA7
Track not present in AccurateRip database
Copy OK

Track 21

Filename G:\Torrents\The Who - The Who Sell Out (Super Deluxe) (CD) [FLAC]\03\21 - Mr. Hyde (aka ‘Dr. Jekyll and Mr Hyde’, Take 7,First Stage Master,2018 Mix).wav

Peak level 99.9 %
Extraction speed 1.7 X
Track quality 99.9 %
Test CRC A2086DBA
Copy CRC A2086DBA
Track not present in AccurateRip database
Copy OK

Track 22

Filename G:\Torrents\The Who - The Who Sell Out (Super Deluxe) (CD) [FLAC]\03\22 - Little Billy (aka ‘Little Billy’s Doing Fine’, Take 1 & 3).wav

Peak level 99.8 %
Extraction speed 2.3 X
Track quality 100.0 %
Test CRC 2A2F58A9
Copy CRC 2A2F58A9
Track not present in AccurateRip database
Copy OK

Track 23

Filename G:\Torrents\The Who - The Who Sell Out (Super Deluxe) (CD) [FLAC]\03\23 - Mrs. Walker (aka ‘Glow Girl’) (Take 7,4‐track to 4‐track Mix).wav

Peak level 99.1 %
Extraction speed 1.8 X
Track quality 99.9 %
Test CRC E235F993
Copy CRC E235F993
Track not present in AccurateRip database
Copy OK

Track 24

Filename G:\Torrents\The Who - The Who Sell Out (Super Deluxe) (CD) [FLAC]\03\24 - Lightning (aka ‘Call Me Lightning’, Take 1 & 8).wav

Peak level 97.0 %
Extraction speed 2.5 X
Track quality 100.0 %
Test CRC 32CAD596
Copy CRC 32CAD596
Track not present in AccurateRip database
Copy OK

Track 25

Filename G:\Torrents\The Who - The Who Sell Out (Super Deluxe) (CD) [FLAC]\03\25 - Dogs (Take 2).wav

Peak level 98.6 %
Extraction speed 2.4 X
Track quality 100.0 %
Test CRC 0B976483
Copy CRC 0B976483
Track not present in AccurateRip database
Copy OK

Track 26

Filename G:\Torrents\The Who - The Who Sell Out (Super Deluxe) (CD) [FLAC]\03\26 - Melancholia (Take 1).wav

Peak level 97.3 %
Extraction speed 2.5 X
Track quality 100.0 %
Test CRC CD904AE8
Copy CRC CD904AE8
Track not present in AccurateRip database
Copy OK

Track 27

Filename G:\Torrents\The Who - The Who Sell Out (Super Deluxe) (CD) [FLAC]\03\27 - Shakin’ All Over (Take 3).wav

Peak level 94.2 %
Extraction speed 1.5 X
Track quality 99.8 %
Test CRC 0B3D2AAC
Copy CRC 0B3D2AAC
Track not present in AccurateRip database
Copy OK

Track 28

Filename G:\Torrents\The Who - The Who Sell Out (Super Deluxe) (CD) [FLAC]\03\28 - Magic Bus (Take 6).wav

Peak level 98.2 %
Extraction speed 2.5 X
Track quality 100.0 %
Test CRC 3B9D5F67
Copy CRC 3B9D5F67
Track not present in AccurateRip database
Copy OK


None of the tracks are present in the AccurateRip database

No errors occurred

End of status report

–– CUETools DB Plugin V2.1.6

[CTDB TOCID: 9.ta2tC0Mnenkf8J2JVu7JDY0ew-] found
Submit result: 9.ta2tC0Mnenkf8J2JVu7JDY0ew- has been confirmed
Track | CTDB Status
1 | (6/6) Accurately ripped
2 | (6/6) Accurately ripped
3 | (6/6) Accurately ripped
4 | (6/6) Accurately ripped
5 | (6/6) Accurately ripped
6 | (6/6) Accurately ripped
7 | (6/6) Accurately ripped
8 | (6/6) Accurately ripped
9 | (6/6) Accurately ripped
10 | (6/6) Accurately ripped
11 | (6/6) Accurately ripped
12 | (6/6) Accurately ripped
13 | (6/6) Accurately ripped
14 | (6/6) Accurately ripped
15 | (6/6) Accurately ripped
16 | (6/6) Accurately ripped
17 | (6/6) Accurately ripped
18 | (6/6) Accurately ripped
19 | (6/6) Accurately ripped
20 | (6/6) Accurately ripped
21 | (6/6) Accurately ripped
22 | (6/6) Accurately ripped
23 | (6/6) Accurately ripped
24 | (6/6) Accurately ripped
25 | (6/6) Accurately ripped
26 | (6/6) Accurately ripped
27 | (6/6) Accurately ripped
28 | (6/6) Accurately ripped


==== Log checksum EEB1E480F4D2E90263EC001975EEA7A56D92E95B86F3D6FE08872BFB3B153BF5 ====
Exact Audio Copy V1.5 from 20. February 2020

EAC extraction logfile from 24. April 2021, 1:03

The Who / The Who Sell Out (Super Deluxe) Disc 4

Used drive : ASUS BW-16D1HT Adapter: 1 ID: 0

Read mode : Secure
Utilize accurate stream : Yes
Defeat audio cache : Yes
Make use of C2 pointers : No

Read offset correction : 6
Overread into Lead-In and Lead-Out : No
Fill up missing offset samples with silence : Yes
Delete leading and trailing silent blocks : No
Null samples used in CRC calculations : Yes
Used interface : Native Win32 interface for Win NT & 2000
Gap handling : Appended to previous track

Used output format : User Defined Encoder
Selected bitrate : 1024 kBit/s
Quality : High
Add ID3 tag : No
Command line compressor : C:\FLAC 1.3.3\flac.exe
Additional command line options : -8 -e -p -V -T "ARTIST=%artist%" -T "TITLE=%title%" -T "ALBUM=%albumtitle%" -T "DATE=%year%" -T "TRACKNUMBER=%tracknr%" -T "GENRE=%genre%" -T "PERFORMER=%albuminterpret%" -T "COMPOSER=%composer%" %haslyrics%–tag-from-file=LYRICS="%lyricsfile%"%haslyrics% -T "ALBUMARTIST=%albumartist%" -T "DISCNUMBER=%cdnumber%" -T "TOTALDISCS=%totalcds%" -T "TOTALTRACKS=%numtracks%" -T "COMMENT=%comment%" %source% -o %dest%


TOC of the extracted CD

Track | Start | Length | Start sector | End sector
––––––––––––––––––––––––––––-
1 | 0:00.00 | 2:27.42 | 0 | 11066
2 | 2:27.42 | 3:09.42 | 11067 | 25283
3 | 5:37.09 | 2:38.57 | 25284 | 37190
4 | 8:15.66 | 2:23.60 | 37191 | 47975
5 | 10:39.51 | 2:19.03 | 47976 | 58403
6 | 12:58.54 | 3:10.08 | 58404 | 72661
7 | 16:08.62 | 3:21.51 | 72662 | 87787
8 | 19:30.38 | 2:22.55 | 87788 | 98492
9 | 21:53.18 | 3:22.57 | 98493 | 113699
10 | 25:16.00 | 3:23.23 | 113700 | 128947
11 | 28:39.23 | 2:24.59 | 128948 | 139806
12 | 31:04.07 | 2:39.08 | 139807 | 151739
13 | 33:43.15 | 3:07.07 | 151740 | 165771
14 | 36:50.22 | 4:37.41 | 165772 | 186587


Track 1

Filename G:\Torrents\The Who - The Who Sell Out (Super Deluxe) (CD) [FLAC]\04\01 - Glow Girl (2018 Mix).wav

Pre-gap length 0:00:02.00

Peak level 99.8 %
Extraction speed 0.9 X
Track quality 100.0 %
Test CRC 15C6BDB7
Copy CRC 15C6BDB7
Track not present in AccurateRip database
Copy OK

Track 2

Filename G:\Torrents\The Who - The Who Sell Out (Super Deluxe) (CD) [FLAC]\04\02 - Faith in Something Bigger (2018 Mix).wav

Peak level 99.1 %
Extraction speed 1.0 X
Track quality 99.9 %
Test CRC 41720733
Copy CRC 41720733
Track not present in AccurateRip database
Copy OK

Track 3

Filename G:\Torrents\The Who - The Who Sell Out (Super Deluxe) (CD) [FLAC]\04\03 - Dr.Jekyll & Mr. Hyde (2018 Mix).wav

Peak level 98.8 %
Extraction speed 1.1 X
Track quality 100.0 %
Test CRC D7B9E7EB
Copy CRC D7B9E7EB
Track not present in AccurateRip database
Copy OK

Track 4

Filename G:\Torrents\The Who - The Who Sell Out (Super Deluxe) (CD) [FLAC]\04\04 - Call Me Lightning (2018 Mix).wav

Peak level 98.5 %
Extraction speed 1.1 X
Track quality 100.0 %
Test CRC 4937ED40
Copy CRC 4937ED40
Track not present in AccurateRip database
Copy OK

Track 5

Filename G:\Torrents\The Who - The Who Sell Out (Super Deluxe) (CD) [FLAC]\04\05 - Little Billy’s Doing Fine (2018 Mix).wav

Peak level 99.7 %
Extraction speed 1.2 X
Track quality 100.0 %
Test CRC F0EF6357
Copy CRC F0EF6357
Track not present in AccurateRip database
Copy OK

Track 6

Filename G:\Torrents\The Who - The Who Sell Out (Super Deluxe) (CD) [FLAC]\04\06 - Dogs (2018 Mix).wav

Peak level 98.5 %
Extraction speed 1.3 X
Track quality 100.0 %
Test CRC 9923C2CE
Copy CRC 9923C2CE
Track not present in AccurateRip database
Copy OK

Track 7

Filename G:\Torrents\The Who - The Who Sell Out (Super Deluxe) (CD) [FLAC]\04\07 - Melancholia (2018 Mix).wav

Peak level 98.3 %
Extraction speed 1.4 X
Track quality 100.0 %
Test CRC E597AB16
Copy CRC E597AB16
Track not present in AccurateRip database
Copy OK

Track 8

Filename G:\Torrents\The Who - The Who Sell Out (Super Deluxe) (CD) [FLAC]\04\08 - Fortune Teller (2018 Mix).wav

Peak level 99.8 %
Extraction speed 1.3 X
Track quality 99.9 %
Test CRC 4D254EFB
Copy CRC 4D254EFB
Track not present in AccurateRip database
Copy OK

Track 9

Filename G:\Torrents\The Who - The Who Sell Out (Super Deluxe) (CD) [FLAC]\04\09 - Facts of Life (aka Birds & Bees, Backing Track,2018 Mix).wav

Peak level 99.7 %
Extraction speed 1.5 X
Track quality 100.0 %
Test CRC 0AF6E458
Copy CRC 0AF6E458
Track not present in AccurateRip database
Copy OK

Track 10

Filename G:\Torrents\The Who - The Who Sell Out (Super Deluxe) (CD) [FLAC]\04\10 - Magic Bus.wav

Peak level 98.8 %
Extraction speed 1.6 X
Track quality 100.0 %
Test CRC B859AB17
Copy CRC B859AB17
Track not present in AccurateRip database
Copy OK

Track 11

Filename G:\Torrents\The Who - The Who Sell Out (Super Deluxe) (CD) [FLAC]\04\11 - Call Me Lightning (Mono Single Mix).wav

Peak level 98.3 %
Extraction speed 1.5 X
Track quality 100.0 %
Test CRC 81194842
Copy CRC 81194842
Track not present in AccurateRip database
Copy OK

Track 12

Filename G:\Torrents\The Who - The Who Sell Out (Super Deluxe) (CD) [FLAC]\04\12 - Dr Jekyll & Mr Hyde (UK Mono Single Mix).wav

Peak level 99.9 %
Extraction speed 1.6 X
Track quality 100.0 %
Test CRC 9BE7EFA0
Copy CRC 9BE7EFA0
Track not present in AccurateRip database
Copy OK

Track 13

Filename G:\Torrents\The Who - The Who Sell Out (Super Deluxe) (CD) [FLAC]\04\13 - Dogs (Mono Single Mix).wav

Peak level 99.8 %
Extraction speed 1.7 X
Track quality 100.0 %
Test CRC F008F0E3
Copy CRC F008F0E3
Track not present in AccurateRip database
Copy OK

Track 14

Filename G:\Torrents\The Who - The Who Sell Out (Super Deluxe) (CD) [FLAC]\04\14 - Magic Bus (Long Version Mono Mix).wav

Peak level 99.3 %
Extraction speed 1.7 X
Track quality 99.9 %
Test CRC 04209C4B
Copy CRC 04209C4B
Track not present in AccurateRip database
Copy OK


None of the tracks are present in the AccurateRip database

No errors occurred

End of status report

–– CUETools DB Plugin V2.1.6

[CTDB TOCID: d4TT1aiWPAluGmt3aS7sFqUr3t8-] found
Submit result: d4TT1aiWPAluGmt3aS7sFqUr3t8- has been confirmed
Track | CTDB Status
1 | (5/5) Accurately ripped
2 | (5/5) Accurately ripped
3 | (5/5) Accurately ripped
4 | (5/5) Accurately ripped
5 | (5/5) Accurately ripped
6 | (5/5) Accurately ripped
7 | (5/5) Accurately ripped
8 | (5/5) Accurately ripped
9 | (5/5) Accurately ripped
10 | (5/5) Accurately ripped
11 | (5/5) Accurately ripped
12 | (5/5) Accurately ripped
13 | (5/5) Accurately ripped
14 | (5/5) Accurately ripped


==== Log checksum AF656E4DCC33F066F6F871F0E53AD75346C250F823B5A99EE775885DEA825D62 ====
Exact Audio Copy V1.5 from 20. February 2020

EAC extraction logfile from 24. April 2021, 2:13

The Who / The Who Sell Out (Super Deluxe) Disc 5

Used drive : ASUS BW-16D1HT Adapter: 1 ID: 0

Read mode : Secure
Utilize accurate stream : Yes
Defeat audio cache : Yes
Make use of C2 pointers : No

Read offset correction : 6
Overread into Lead-In and Lead-Out : No
Fill up missing offset samples with silence : Yes
Delete leading and trailing silent blocks : No
Null samples used in CRC calculations : Yes
Used interface : Native Win32 interface for Win NT & 2000
Gap handling : Appended to previous track

Used output format : User Defined Encoder
Selected bitrate : 1024 kBit/s
Quality : High
Add ID3 tag : No
Command line compressor : C:\FLAC 1.3.3\flac.exe
Additional command line options : -8 -e -p -V -T "ARTIST=%artist%" -T "TITLE=%title%" -T "ALBUM=%albumtitle%" -T "DATE=%year%" -T "TRACKNUMBER=%tracknr%" -T "GENRE=%genre%" -T "PERFORMER=%albuminterpret%" -T "COMPOSER=%composer%" %haslyrics%–tag-from-file=LYRICS="%lyricsfile%"%haslyrics% -T "ALBUMARTIST=%albumartist%" -T "DISCNUMBER=%cdnumber%" -T "TOTALDISCS=%totalcds%" -T "TOTALTRACKS=%numtracks%" -T "COMMENT=%comment%" %source% -o %dest%


TOC of the extracted CD

Track | Start | Length | Start sector | End sector
––––––––––––––––––––––––––––-
1 | 0:00.00 | 1:40.62 | 0 | 7561
2 | 1:40.62 | 3:42.44 | 7562 | 24255
3 | 5:23.31 | 3:27.73 | 24256 | 39853
4 | 8:51.29 | 3:03.73 | 39854 | 53651
5 | 11:55.27 | 3:09.28 | 53652 | 67854
6 | 15:04.55 | 3:02.11 | 67855 | 81515
7 | 18:06.66 | 2:14.61 | 81516 | 91626
8 | 20:21.52 | 3:11.46 | 91627 | 105997
9 | 23:33.23 | 3:28.24 | 105998 | 121621
10 | 27:01.47 | 2:22.66 | 121622 | 132337
11 | 29:24.38 | 3:07.28 | 132338 | 146390
12 | 32:31.66 | 3:12.05 | 146391 | 160795
13 | 35:43.71 | 3:16.54 | 160796 | 175549
14 | 39:00.50 | 4:17.63 | 175550 | 194887


Track 1

Filename G:\Torrents\The Who - The Who Sell Out (Super Deluxe) (CD) [FLAC]\05\01 - Kids! Do You Want Kids (Pete Townshend demo).wav

Pre-gap length 0:00:02.00

Peak level 99.8 %
Extraction speed 0.8 X
Track quality 100.0 %
Test CRC 1AE209FE
Copy CRC 1AE209FE
Track not present in AccurateRip database
Copy OK

Track 2

Filename G:\Torrents\The Who - The Who Sell Out (Super Deluxe) (CD) [FLAC]\05\02 - Relax (Pete Townshend demo).wav

Peak level 96.4 %
Extraction speed 1.1 X
Track quality 100.0 %
Test CRC 28130F11
Copy CRC 28130F11
Track not present in AccurateRip database
Copy OK

Track 3

Filename G:\Torrents\The Who - The Who Sell Out (Super Deluxe) (CD) [FLAC]\05\03 - Glow Girl (Pete Townshend demo).wav

Peak level 99.3 %
Extraction speed 1.2 X
Track quality 100.0 %
Test CRC 9837A12D
Copy CRC 9837A12D
Track not present in AccurateRip database
Copy OK

Track 4

Filename G:\Torrents\The Who - The Who Sell Out (Super Deluxe) (CD) [FLAC]\05\04 - Glow Girl (Version 2,Pete Townshend demo).wav

Peak level 94.8 %
Extraction speed 1.2 X
Track quality 100.0 %
Test CRC 8332E487
Copy CRC 8332E487
Track not present in AccurateRip database
Copy OK

Track 5

Filename G:\Torrents\The Who - The Who Sell Out (Super Deluxe) (CD) [FLAC]\05\05 - Inside Outside (Pete Townshend demo).wav

Peak level 87.6 %
Extraction speed 1.3 X
Track quality 100.0 %
Test CRC F860D96F
Copy CRC F860D96F
Track not present in AccurateRip database
Copy OK

Track 6

Filename G:\Torrents\The Who - The Who Sell Out (Super Deluxe) (CD) [FLAC]\05\06 - Jaguar (Pete Townshend demo).wav

Peak level 99.9 %
Extraction speed 1.4 X
Track quality 100.0 %
Test CRC 1352626F
Copy CRC 1352626F
Track not present in AccurateRip database
Copy OK

Track 7

Filename G:\Torrents\The Who - The Who Sell Out (Super Deluxe) (CD) [FLAC]\05\07 - Little Billy (Pete Townshend demo).wav

Peak level 99.8 %
Extraction speed 1.3 X
Track quality 100.0 %
Test CRC CD7333AB
Copy CRC CD7333AB
Track not present in AccurateRip database
Copy OK

Track 8

Filename G:\Torrents\The Who - The Who Sell Out (Super Deluxe) (CD) [FLAC]\05\08 - Odorono (Pete Townshend demo).wav

Peak level 99.4 %
Extraction speed 1.5 X
Track quality 100.0 %
Test CRC BAE23CA5
Copy CRC BAE23CA5
Track not present in AccurateRip database
Copy OK

Track 9

Filename G:\Torrents\The Who - The Who Sell Out (Super Deluxe) (CD) [FLAC]\05\09 - Pictures of Lily (Pete Townshend demo,New 2018 Mix).wav

Peak level 99.0 %
Extraction speed 1.5 X
Track quality 100.0 %
Test CRC DEFF8B7B
Copy CRC DEFF8B7B
Track not present in AccurateRip database
Copy OK

Track 10

Filename G:\Torrents\The Who - The Who Sell Out (Super Deluxe) (CD) [FLAC]\05\10 - Relax (Version 2,Pete Townshend demo).wav

Peak level 99.4 %
Extraction speed 1.5 X
Track quality 100.0 %
Test CRC 478914A2
Copy CRC 478914A2
Track not present in AccurateRip database
Copy OK

Track 11

Filename G:\Torrents\The Who - The Who Sell Out (Super Deluxe) (CD) [FLAC]\05\11 - Melancholia (Pete Townshend demo,2018 mix).wav

Peak level 99.8 %
Extraction speed 1.6 X
Track quality 100.0 %
Test CRC 25E7035E
Copy CRC 25E7035E
Track not present in AccurateRip database
Copy OK

Track 12

Filename G:\Torrents\The Who - The Who Sell Out (Super Deluxe) (CD) [FLAC]\05\12 - Thinking of You All The While (Sunrise) (Pete Townshend demo).wav

Peak level 99.3 %
Extraction speed 1.7 X
Track quality 100.0 %
Test CRC 254F3F63
Copy CRC 254F3F63
Track not present in AccurateRip database
Copy OK

Track 13

Filename G:\Torrents\The Who - The Who Sell Out (Super Deluxe) (CD) [FLAC]\05\13 - Mary Anne With The Shaky Hand (Pete Townshend demo).wav

Peak level 92.5 %
Extraction speed 1.8 X
Track quality 100.0 %
Test CRC 993B2C8F
Copy CRC 993B2C8F
Track not present in AccurateRip database
Copy OK

Track 14

Filename G:\Torrents\The Who - The Who Sell Out (Super Deluxe) (CD) [FLAC]\05\14 - I Can See for Miles (Pete Townshend demo).wav

Peak level 99.6 %
Extraction speed 1.9 X
Track quality 100.0 %
Test CRC 1E9C03B4
Copy CRC 1E9C03B4
Track not present in AccurateRip database
Copy OK


None of the tracks are present in the AccurateRip database

No errors occurred

End of status report

–– CUETools DB Plugin V2.1.6

[CTDB TOCID: O1dJzQd_r8OThV2S8PbGNC7VnHA-] found
Submit result: O1dJzQd_r8OThV2S8PbGNC7VnHA- has been confirmed
Track | CTDB Status
1 | (5/5) Accurately ripped
2 | (5/5) Accurately ripped
3 | (5/5) Accurately ripped
4 | (5/5) Accurately ripped
5 | (5/5) Accurately ripped
6 | (5/5) Accurately ripped
7 | (5/5) Accurately ripped
8 | (5/5) Accurately ripped
9 | (5/5) Accurately ripped
10 | (5/5) Accurately ripped
11 | (5/5) Accurately ripped
12 | (5/5) Accurately ripped
13 | (5/5) Accurately ripped
14 | (5/5) Accurately ripped


==== Log checksum 767F2BB271C9F6A2B7E12E173074537CFCA62ABEFEDDE7BC90F93425BE984EC3 ====

Thanks to the Original ripper !