Subcategories
Tags
Language
Tags

Tower of Power - 50 Years of Funk & Soul: Live at the Fox Theater, Oakland, CA, June 2018 (2021)

Posted By: delpotro
Tower of Power - 50 Years of Funk & Soul: Live at the Fox Theater, Oakland, CA, June 2018 (2021)

Tower of Power - 50 Years of Funk & Soul: Live at the Fox Theater, Oakland, CA, June 2018 (2021)
EAC Rip | FLAC (tracks+log+.cue) - 820 Mb | MP3 CBR 320 kbps - 327 Mb | Covers included | 01:53:16
Funk, Soul | Label: Mack Avenue Records, Artistry Music

With a history 50+ years in the making, Tower of Power has been a funk institution since 1968, knocking out hits like “What is Hip,” “So Very Hard to Go,” “This Time It’s Real” and “You’re Still a Young Man" while lending their soulful sound to collaborations with Santana, the Grateful Dead, Elton, Huey Lewis, Justin Timberlake and everyone in-between. "50 Years of Funk & Soul - Live at the Fox Theater" captures their storied career with no-holds-barred victory lap concerts in Oakland, CA, performing their full spectrum of life-affirming funk and soul hits to sold out audiences in 2018. Available as a 3-LP set, 2-CD/1-DVD package, standalone DVD and digital audio configuration, these historic performances include alumni special guests Chester Thompson, Lenny Pickett, Francis ‘Rocco’ Prestia, Bruce Conte and Ray Greene.
Tracklist:
Disc 1 (55:22)
1. Stroke '75 (Live) (02:40)
2. Ain't Nothing Stopping Us Now (Live) (02:36)
3. You Ought to Be Having Fun (Live) (03:21)
4. Soul with a Capital S (Live) (06:07)
5. Stop (Live) (04:34)
6. You're So Wonderful, So Marvelous (Live) (03:06)
7. On the Serious Side (Live) (04:17)
8. Just When We Start Makin' It (Live) (07:24)
9. Soul Vaccination (Live) (05:04)
10. What is Hip? / Soul Power (Live) (09:25)
11. Do You Like That? (Live) (03:36)
12. Drop It in the Slot (Live) (03:12)

Disc 2 (57:44)
1. Can't You See (You Doin' Me Wrong)? (Live) (03:54)
2. Maybe It'll Rub Off (Live) (03:12)
3. Don't Change Horses (Live) (06:28)
4. Squib Cakes (Live) (06:24)
5. On the Soul Side of Town (Live) (05:13)
6. Diggin' on James Brown (Medley): Diggin’ on James Brown / It’s a New Day / Mother Popcorn / There It Is / I Got the Feelin’ / Diggin’ on James Brown [Reprise] [Live] (09:20)
7. So Very Hard to Go (Live) (03:59)
8. Knock Yourself Out (Live) (08:37)
9. You're Still a Young Man (Live) (06:01)
10. Souled Out (Live) (04:36)

Exact Audio Copy V1.3 from 2. September 2016

EAC extraction logfile from 10. May 2021, 13:34

Tower Of Power / 50 Years Of Funk & Soul

Used drive : HL-DT-STBD-RE BH16NS55 Adapter: 1 ID: 0

Read mode : Secure
Utilize accurate stream : Yes
Defeat audio cache : Yes
Make use of C2 pointers : No

Read offset correction : 6
Overread into Lead-In and Lead-Out : No
Fill up missing offset samples with silence : Yes
Delete leading and trailing silent blocks : No
Null samples used in CRC calculations : Yes
Used interface : Native Win32 interface for Win NT & 2000
Gap handling : Appended to previous track

Used output format : User Defined Encoder
Selected bitrate : 1024 kBit/s
Quality : High
Add ID3 tag : No
Command line compressor : C:\Program Files (x86)\Exact Audio Copy\Flac\flac.exe
Additional command line options : -8 -V -T "ARTIST=%artist%" -T "TITLE=%title%" -T "ALBUM=%albumtitle%" -T "DATE=%year%" -T "TRACKNUMBER=%tracknr%" -T "GENRE=%genre%" -T "PERFORMER=%albuminterpret%" -T "COMPOSER=%composer%" %haslyrics%–tag-from-file=LYRICS="%lyricsfile%"%haslyrics% -T "ALBUMARTIST=%albumartist%" -T "DISCNUMBER=%cdnumber%" -T "TOTALDISCS=%totalcds%" -T "TOTALTRACKS=%numtracks%" -T "COMMENT=%comment%" %source% -o %dest%


TOC of the extracted CD

Track | Start | Length | Start sector | End sector
––––––––––––––––––––––––––––-
1 | 0:00.00 | 2:40.08 | 0 | 12007
2 | 2:40.08 | 2:36.30 | 12008 | 23737
3 | 5:16.38 | 3:21.44 | 23738 | 38856
4 | 8:38.07 | 6:07.51 | 38857 | 66432
5 | 14:45.58 | 4:34.30 | 66433 | 87012
6 | 19:20.13 | 3:06.62 | 87013 | 101024
7 | 22:27.00 | 4:17.36 | 101025 | 120335
8 | 26:44.36 | 7:24.02 | 120336 | 153637
9 | 34:08.38 | 5:04.07 | 153638 | 176444
10 | 39:12.45 | 9:25.00 | 176445 | 218819
11 | 48:37.45 | 3:36.28 | 218820 | 235047
12 | 52:13.73 | 3:12.72 | 235048 | 249519


Track 1

Filename D:\#cdr\#wav+flac\#New\Tower Of Power - 50 Years Of Funk & Soul\cd 1\01. Tower of Power - Stroke '75.wav

Pre-gap length 0:00:02.00

Peak level 90.6 %
Extraction speed 3.9 X
Track quality 100.0 %
Test CRC 2EB8C2A6
Copy CRC 2EB8C2A6
Track not present in AccurateRip database
Copy OK

Track 2

Filename D:\#cdr\#wav+flac\#New\Tower Of Power - 50 Years Of Funk & Soul\cd 1\02. Tower of Power - Ain't Nothing Stopping Us Now.wav

Peak level 89.7 %
Extraction speed 4.2 X
Track quality 100.0 %
Test CRC B03F71E6
Copy CRC B03F71E6
Track not present in AccurateRip database
Copy OK

Track 3

Filename D:\#cdr\#wav+flac\#New\Tower Of Power - 50 Years Of Funk & Soul\cd 1\03. Tower of Power - You Ought To Be Having Fun.wav

Peak level 90.3 %
Extraction speed 4.8 X
Track quality 100.0 %
Test CRC 406E59BF
Copy CRC 406E59BF
Track not present in AccurateRip database
Copy OK

Track 4

Filename D:\#cdr\#wav+flac\#New\Tower Of Power - 50 Years Of Funk & Soul\cd 1\04. Tower of Power - Soul With A Capital S.wav

Peak level 90.8 %
Extraction speed 5.7 X
Track quality 100.0 %
Test CRC B61AD532
Copy CRC B61AD532
Track not present in AccurateRip database
Copy OK

Track 5

Filename D:\#cdr\#wav+flac\#New\Tower Of Power - 50 Years Of Funk & Soul\cd 1\05. Tower of Power - Stop.wav

Peak level 90.6 %
Extraction speed 6.0 X
Track quality 100.0 %
Test CRC 6C30A570
Copy CRC 6C30A570
Track not present in AccurateRip database
Copy OK

Track 6

Filename D:\#cdr\#wav+flac\#New\Tower Of Power - 50 Years Of Funk & Soul\cd 1\06. Tower of Power - You're So Wonderful, So Marvelous.wav

Peak level 91.1 %
Extraction speed 6.0 X
Track quality 100.0 %
Test CRC 6CEBB422
Copy CRC 6CEBB422
Track not present in AccurateRip database
Copy OK

Track 7

Filename D:\#cdr\#wav+flac\#New\Tower Of Power - 50 Years Of Funk & Soul\cd 1\07. Tower of Power - On The Serious Side.wav

Peak level 91.2 %
Extraction speed 6.5 X
Track quality 100.0 %
Test CRC FAC75EE2
Copy CRC FAC75EE2
Track not present in AccurateRip database
Copy OK

Track 8

Filename D:\#cdr\#wav+flac\#New\Tower Of Power - 50 Years Of Funk & Soul\cd 1\08. Tower of Power - Just When We Start Makin' It.wav

Peak level 93.8 %
Extraction speed 7.3 X
Track quality 100.0 %
Test CRC F257B0E0
Copy CRC F257B0E0
Track not present in AccurateRip database
Copy OK

Track 9

Filename D:\#cdr\#wav+flac\#New\Tower Of Power - 50 Years Of Funk & Soul\cd 1\09. Tower of Power - Soul Vaccination.wav

Peak level 93.8 %
Extraction speed 6.4 X
Track quality 99.9 %
Test CRC 6A2629BC
Copy CRC 6A2629BC
Track not present in AccurateRip database
Copy OK

Track 10

Filename D:\#cdr\#wav+flac\#New\Tower Of Power - 50 Years Of Funk & Soul\cd 1\10. Tower of Power - What Is Hip - Soul Power.wav

Peak level 93.1 %
Extraction speed 8.3 X
Track quality 100.0 %
Test CRC C93BCE29
Copy CRC C93BCE29
Track not present in AccurateRip database
Copy OK

Track 11

Filename D:\#cdr\#wav+flac\#New\Tower Of Power - 50 Years Of Funk & Soul\cd 1\11. Tower of Power - Do You Like That.wav

Peak level 91.7 %
Extraction speed 7.9 X
Track quality 100.0 %
Test CRC FD68CFFC
Copy CRC FD68CFFC
Track not present in AccurateRip database
Copy OK

Track 12

Filename D:\#cdr\#wav+flac\#New\Tower Of Power - 50 Years Of Funk & Soul\cd 1\12. Tower of Power - Drop It In The Slot.wav

Peak level 92.1 %
Extraction speed 8.0 X
Track quality 100.0 %
Test CRC B6A00013
Copy CRC B6A00013
Track not present in AccurateRip database
Copy OK


None of the tracks are present in the AccurateRip database

No errors occurred

End of status report

–– CUETools DB Plugin V2.1.6

[CTDB TOCID: 9OSqBUIp.rZppKGc4TIUXveknGE-] found
Submit result: 9OSqBUIp.rZppKGc4TIUXveknGE- has been confirmed
Track | CTDB Status
1 | (13/13) Accurately ripped
2 | (13/13) Accurately ripped
3 | (13/13) Accurately ripped
4 | (13/13) Accurately ripped
5 | (13/13) Accurately ripped
6 | (13/13) Accurately ripped
7 | (13/13) Accurately ripped
8 | (13/13) Accurately ripped
9 | (13/13) Accurately ripped
10 | (13/13) Accurately ripped
11 | (13/13) Accurately ripped
12 | (13/13) Accurately ripped


==== Log checksum AA1B9D5E6CB8A374CA628A4AD8BA52E39A384C1B4249487FA69903A69E94DC34 ====

––––––––––––––––––––––––––––––

Exact Audio Copy V1.3 from 2. September 2016

EAC extraction logfile from 10. May 2021, 13:34

Tower Of Power / 50 Years Of Funk & Soul

Used drive : HL-DT-STBD-RE BH16NS55 Adapter: 1 ID: 0

Read mode : Secure
Utilize accurate stream : Yes
Defeat audio cache : Yes
Make use of C2 pointers : No

Read offset correction : 6
Overread into Lead-In and Lead-Out : No
Fill up missing offset samples with silence : Yes
Delete leading and trailing silent blocks : No
Null samples used in CRC calculations : Yes
Used interface : Native Win32 interface for Win NT & 2000
Gap handling : Appended to previous track

Used output format : User Defined Encoder
Selected bitrate : 1024 kBit/s
Quality : High
Add ID3 tag : No
Command line compressor : C:\Program Files (x86)\Exact Audio Copy\Flac\flac.exe
Additional command line options : -8 -V -T "ARTIST=%artist%" -T "TITLE=%title%" -T "ALBUM=%albumtitle%" -T "DATE=%year%" -T "TRACKNUMBER=%tracknr%" -T "GENRE=%genre%" -T "PERFORMER=%albuminterpret%" -T "COMPOSER=%composer%" %haslyrics%–tag-from-file=LYRICS="%lyricsfile%"%haslyrics% -T "ALBUMARTIST=%albumartist%" -T "DISCNUMBER=%cdnumber%" -T "TOTALDISCS=%totalcds%" -T "TOTALTRACKS=%numtracks%" -T "COMMENT=%comment%" %source% -o %dest%


TOC of the extracted CD

Track | Start | Length | Start sector | End sector
––––––––––––––––––––––––––––-
1 | 0:00.00 | 2:40.08 | 0 | 12007
2 | 2:40.08 | 2:36.30 | 12008 | 23737
3 | 5:16.38 | 3:21.44 | 23738 | 38856
4 | 8:38.07 | 6:07.51 | 38857 | 66432
5 | 14:45.58 | 4:34.30 | 66433 | 87012
6 | 19:20.13 | 3:06.62 | 87013 | 101024
7 | 22:27.00 | 4:17.36 | 101025 | 120335
8 | 26:44.36 | 7:24.02 | 120336 | 153637
9 | 34:08.38 | 5:04.07 | 153638 | 176444
10 | 39:12.45 | 9:25.00 | 176445 | 218819
11 | 48:37.45 | 3:36.28 | 218820 | 235047
12 | 52:13.73 | 3:12.72 | 235048 | 249519


Track 1

Filename D:\#cdr\#wav+flac\#New\Tower Of Power - 50 Years Of Funk & Soul\cd 1\01. Tower of Power - Stroke '75.wav

Pre-gap length 0:00:02.00

Peak level 90.6 %
Extraction speed 3.9 X
Track quality 100.0 %
Test CRC 2EB8C2A6
Copy CRC 2EB8C2A6
Track not present in AccurateRip database
Copy OK

Track 2

Filename D:\#cdr\#wav+flac\#New\Tower Of Power - 50 Years Of Funk & Soul\cd 1\02. Tower of Power - Ain't Nothing Stopping Us Now.wav

Peak level 89.7 %
Extraction speed 4.2 X
Track quality 100.0 %
Test CRC B03F71E6
Copy CRC B03F71E6
Track not present in AccurateRip database
Copy OK

Track 3

Filename D:\#cdr\#wav+flac\#New\Tower Of Power - 50 Years Of Funk & Soul\cd 1\03. Tower of Power - You Ought To Be Having Fun.wav

Peak level 90.3 %
Extraction speed 4.8 X
Track quality 100.0 %
Test CRC 406E59BF
Copy CRC 406E59BF
Track not present in AccurateRip database
Copy OK

Track 4

Filename D:\#cdr\#wav+flac\#New\Tower Of Power - 50 Years Of Funk & Soul\cd 1\04. Tower of Power - Soul With A Capital S.wav

Peak level 90.8 %
Extraction speed 5.7 X
Track quality 100.0 %
Test CRC B61AD532
Copy CRC B61AD532
Track not present in AccurateRip database
Copy OK

Track 5

Filename D:\#cdr\#wav+flac\#New\Tower Of Power - 50 Years Of Funk & Soul\cd 1\05. Tower of Power - Stop.wav

Peak level 90.6 %
Extraction speed 6.0 X
Track quality 100.0 %
Test CRC 6C30A570
Copy CRC 6C30A570
Track not present in AccurateRip database
Copy OK

Track 6

Filename D:\#cdr\#wav+flac\#New\Tower Of Power - 50 Years Of Funk & Soul\cd 1\06. Tower of Power - You're So Wonderful, So Marvelous.wav

Peak level 91.1 %
Extraction speed 6.0 X
Track quality 100.0 %
Test CRC 6CEBB422
Copy CRC 6CEBB422
Track not present in AccurateRip database
Copy OK

Track 7

Filename D:\#cdr\#wav+flac\#New\Tower Of Power - 50 Years Of Funk & Soul\cd 1\07. Tower of Power - On The Serious Side.wav

Peak level 91.2 %
Extraction speed 6.5 X
Track quality 100.0 %
Test CRC FAC75EE2
Copy CRC FAC75EE2
Track not present in AccurateRip database
Copy OK

Track 8

Filename D:\#cdr\#wav+flac\#New\Tower Of Power - 50 Years Of Funk & Soul\cd 1\08. Tower of Power - Just When We Start Makin' It.wav

Peak level 93.8 %
Extraction speed 7.3 X
Track quality 100.0 %
Test CRC F257B0E0
Copy CRC F257B0E0
Track not present in AccurateRip database
Copy OK

Track 9

Filename D:\#cdr\#wav+flac\#New\Tower Of Power - 50 Years Of Funk & Soul\cd 1\09. Tower of Power - Soul Vaccination.wav

Peak level 93.8 %
Extraction speed 6.4 X
Track quality 99.9 %
Test CRC 6A2629BC
Copy CRC 6A2629BC
Track not present in AccurateRip database
Copy OK

Track 10

Filename D:\#cdr\#wav+flac\#New\Tower Of Power - 50 Years Of Funk & Soul\cd 1\10. Tower of Power - What Is Hip - Soul Power.wav

Peak level 93.1 %
Extraction speed 8.3 X
Track quality 100.0 %
Test CRC C93BCE29
Copy CRC C93BCE29
Track not present in AccurateRip database
Copy OK

Track 11

Filename D:\#cdr\#wav+flac\#New\Tower Of Power - 50 Years Of Funk & Soul\cd 1\11. Tower of Power - Do You Like That.wav

Peak level 91.7 %
Extraction speed 7.9 X
Track quality 100.0 %
Test CRC FD68CFFC
Copy CRC FD68CFFC
Track not present in AccurateRip database
Copy OK

Track 12

Filename D:\#cdr\#wav+flac\#New\Tower Of Power - 50 Years Of Funk & Soul\cd 1\12. Tower of Power - Drop It In The Slot.wav

Peak level 92.1 %
Extraction speed 8.0 X
Track quality 100.0 %
Test CRC B6A00013
Copy CRC B6A00013
Track not present in AccurateRip database
Copy OK


None of the tracks are present in the AccurateRip database

No errors occurred

End of status report

–– CUETools DB Plugin V2.1.6

[CTDB TOCID: 9OSqBUIp.rZppKGc4TIUXveknGE-] found
Submit result: 9OSqBUIp.rZppKGc4TIUXveknGE- has been confirmed
Track | CTDB Status
1 | (13/13) Accurately ripped
2 | (13/13) Accurately ripped
3 | (13/13) Accurately ripped
4 | (13/13) Accurately ripped
5 | (13/13) Accurately ripped
6 | (13/13) Accurately ripped
7 | (13/13) Accurately ripped
8 | (13/13) Accurately ripped
9 | (13/13) Accurately ripped
10 | (13/13) Accurately ripped
11 | (13/13) Accurately ripped
12 | (13/13) Accurately ripped


==== Log checksum AA1B9D5E6CB8A374CA628A4AD8BA52E39A384C1B4249487FA69903A69E94DC34 ====
Exact Audio Copy V1.3 from 2. September 2016

EAC extraction logfile from 10. May 2021, 14:13

Tower Of Power / 50 Years Of Funk & Soul

Used drive : HL-DT-STBD-RE BH16NS55 Adapter: 1 ID: 0

Read mode : Secure
Utilize accurate stream : Yes
Defeat audio cache : Yes
Make use of C2 pointers : No

Read offset correction : 6
Overread into Lead-In and Lead-Out : No
Fill up missing offset samples with silence : Yes
Delete leading and trailing silent blocks : No
Null samples used in CRC calculations : Yes
Used interface : Native Win32 interface for Win NT & 2000
Gap handling : Appended to previous track

Used output format : User Defined Encoder
Selected bitrate : 1024 kBit/s
Quality : High
Add ID3 tag : No
Command line compressor : C:\Program Files (x86)\Exact Audio Copy\Flac\flac.exe
Additional command line options : -8 -V -T "ARTIST=%artist%" -T "TITLE=%title%" -T "ALBUM=%albumtitle%" -T "DATE=%year%" -T "TRACKNUMBER=%tracknr%" -T "GENRE=%genre%" -T "PERFORMER=%albuminterpret%" -T "COMPOSER=%composer%" %haslyrics%–tag-from-file=LYRICS="%lyricsfile%"%haslyrics% -T "ALBUMARTIST=%albumartist%" -T "DISCNUMBER=%cdnumber%" -T "TOTALDISCS=%totalcds%" -T "TOTALTRACKS=%numtracks%" -T "COMMENT=%comment%" %source% -o %dest%


TOC of the extracted CD

Track | Start | Length | Start sector | End sector
––––––––––––––––––––––––––––-
1 | 0:00.00 | 3:54.72 | 0 | 17621
2 | 3:54.72 | 3:12.10 | 17622 | 32031
3 | 7:07.07 | 6:28.70 | 32032 | 61201
4 | 13:36.02 | 6:24.19 | 61202 | 90020
5 | 20:00.21 | 5:13.44 | 90021 | 113539
6 | 25:13.65 | 9:20.40 | 113540 | 155579
7 | 34:34.30 | 3:59.60 | 155580 | 173564
8 | 38:34.15 | 8:37.22 | 173565 | 212361
9 | 47:11.37 | 6:01.30 | 212362 | 239466
10 | 53:12.67 | 4:36.56 | 239467 | 260222


Track 1

Filename D:\#cdr\#wav+flac\#New\Tower Of Power - 50 Years Of Funk & Soul\cd 2\01. Tower of Power - Can't You See (You Doin' Me Wrong).wav

Pre-gap length 0:00:02.00

Peak level 91.8 %
Extraction speed 1.9 X
Track quality 100.0 %
Test CRC 73392326
Copy CRC 73392326
Track not present in AccurateRip database
Copy OK

Track 2

Filename D:\#cdr\#wav+flac\#New\Tower Of Power - 50 Years Of Funk & Soul\cd 2\02. Tower of Power - Maybe It'll Rub Off.wav

Peak level 92.1 %
Extraction speed 2.1 X
Track quality 100.0 %
Test CRC 2F861731
Copy CRC 2F861731
Track not present in AccurateRip database
Copy OK

Track 3

Filename D:\#cdr\#wav+flac\#New\Tower Of Power - 50 Years Of Funk & Soul\cd 2\03. Tower of Power - Don't Change Horses.wav

Peak level 91.3 %
Extraction speed 2.5 X
Track quality 100.0 %
Test CRC C17DBEB0
Copy CRC C17DBEB0
Track not present in AccurateRip database
Copy OK

Track 4

Filename D:\#cdr\#wav+flac\#New\Tower Of Power - 50 Years Of Funk & Soul\cd 2\04. Tower of Power - Squib Cakes.wav

Peak level 92.6 %
Extraction speed 2.8 X
Track quality 100.0 %
Test CRC 4D0306A6
Copy CRC 4D0306A6
Track not present in AccurateRip database
Copy OK

Track 5

Filename D:\#cdr\#wav+flac\#New\Tower Of Power - 50 Years Of Funk & Soul\cd 2\05. Tower of Power - On The Soul Side Of Town.wav

Peak level 92.3 %
Extraction speed 3.0 X
Track quality 100.0 %
Test CRC B57C962D
Copy CRC B57C962D
Track not present in AccurateRip database
Copy OK

Track 6

Filename D:\#cdr\#wav+flac\#New\Tower Of Power - 50 Years Of Funk & Soul\cd 2\06. Tower of Power - Diggin' On James Brown (Medley).wav

Peak level 93.8 %
Extraction speed 3.4 X
Track quality 100.0 %
Test CRC 93A1FABB
Copy CRC 93A1FABB
Track not present in AccurateRip database
Copy OK

Track 7

Filename D:\#cdr\#wav+flac\#New\Tower Of Power - 50 Years Of Funk & Soul\cd 2\07. Tower of Power - So Very Hard To Go.wav

Peak level 90.8 %
Extraction speed 3.3 X
Track quality 100.0 %
Test CRC CBCB4D93
Copy CRC CBCB4D93
Track not present in AccurateRip database
Copy OK

Track 8

Filename D:\#cdr\#wav+flac\#New\Tower Of Power - 50 Years Of Funk & Soul\cd 2\08. Tower of Power - Knock Yourself Out.wav

Peak level 91.6 %
Extraction speed 3.8 X
Track quality 100.0 %
Test CRC 6E1F6E04
Copy CRC 6E1F6E04
Track not present in AccurateRip database
Copy OK

Track 9

Filename D:\#cdr\#wav+flac\#New\Tower Of Power - 50 Years Of Funk & Soul\cd 2\09. Tower of Power - You're Still A Young Man.wav

Peak level 92.6 %
Extraction speed 3.9 X
Track quality 100.0 %
Test CRC 8B4263FB
Copy CRC 8B4263FB
Track not present in AccurateRip database
Copy OK

Track 10

Filename D:\#cdr\#wav+flac\#New\Tower Of Power - 50 Years Of Funk & Soul\cd 2\10. Tower of Power - Souled Out.wav

Peak level 92.4 %
Extraction speed 3.9 X
Track quality 100.0 %
Test CRC 548B2845
Copy CRC 548B2845
Track not present in AccurateRip database
Copy OK


None of the tracks are present in the AccurateRip database

No errors occurred

End of status report

–– CUETools DB Plugin V2.1.6

[CTDB TOCID: lKqKT6T5j_k88C8ihxvUQOPJ.mk-] found
Submit result: lKqKT6T5j_k88C8ihxvUQOPJ.mk- has been confirmed
Track | CTDB Status
1 | (13/13) Accurately ripped
2 | (13/13) Accurately ripped
3 | (13/13) Accurately ripped
4 | (13/13) Accurately ripped
5 | (13/13) Accurately ripped
6 | (13/13) Accurately ripped
7 | (13/13) Accurately ripped
8 | (13/13) Accurately ripped
9 | (12/13) Accurately ripped
10 | (13/13) Accurately ripped


==== Log checksum 173610C4AD322FFF77BB8D17D8E67D33405489D80AEC39494B2122C657E58F13 ====

––––––––––––––––––––––––––––––

Exact Audio Copy V1.3 from 2. September 2016

EAC extraction logfile from 10. May 2021, 14:14

Tower Of Power / 50 Years Of Funk & Soul

Used drive : HL-DT-STBD-RE BH16NS55 Adapter: 1 ID: 0

Read mode : Secure
Utilize accurate stream : Yes
Defeat audio cache : Yes
Make use of C2 pointers : No

Read offset correction : 6
Overread into Lead-In and Lead-Out : No
Fill up missing offset samples with silence : Yes
Delete leading and trailing silent blocks : No
Null samples used in CRC calculations : Yes
Used interface : Native Win32 interface for Win NT & 2000
Gap handling : Appended to previous track

Used output format : User Defined Encoder
Selected bitrate : 1024 kBit/s
Quality : High
Add ID3 tag : No
Command line compressor : C:\Program Files (x86)\Exact Audio Copy\Flac\flac.exe
Additional command line options : -8 -V -T "ARTIST=%artist%" -T "TITLE=%title%" -T "ALBUM=%albumtitle%" -T "DATE=%year%" -T "TRACKNUMBER=%tracknr%" -T "GENRE=%genre%" -T "PERFORMER=%albuminterpret%" -T "COMPOSER=%composer%" %haslyrics%–tag-from-file=LYRICS="%lyricsfile%"%haslyrics% -T "ALBUMARTIST=%albumartist%" -T "DISCNUMBER=%cdnumber%" -T "TOTALDISCS=%totalcds%" -T "TOTALTRACKS=%numtracks%" -T "COMMENT=%comment%" %source% -o %dest%


TOC of the extracted CD

Track | Start | Length | Start sector | End sector
––––––––––––––––––––––––––––-
1 | 0:00.00 | 3:54.72 | 0 | 17621
2 | 3:54.72 | 3:12.10 | 17622 | 32031
3 | 7:07.07 | 6:28.70 | 32032 | 61201
4 | 13:36.02 | 6:24.19 | 61202 | 90020
5 | 20:00.21 | 5:13.44 | 90021 | 113539
6 | 25:13.65 | 9:20.40 | 113540 | 155579
7 | 34:34.30 | 3:59.60 | 155580 | 173564
8 | 38:34.15 | 8:37.22 | 173565 | 212361
9 | 47:11.37 | 6:01.30 | 212362 | 239466
10 | 53:12.67 | 4:36.56 | 239467 | 260222


Track 1

Filename D:\#cdr\#wav+flac\#New\Tower Of Power - 50 Years Of Funk & Soul\cd 2\01. Tower of Power - Can't You See (You Doin' Me Wrong).wav

Pre-gap length 0:00:02.00

Peak level 91.8 %
Extraction speed 1.9 X
Track quality 100.0 %
Test CRC 73392326
Copy CRC 73392326
Track not present in AccurateRip database
Copy OK

Track 2

Filename D:\#cdr\#wav+flac\#New\Tower Of Power - 50 Years Of Funk & Soul\cd 2\02. Tower of Power - Maybe It'll Rub Off.wav

Peak level 92.1 %
Extraction speed 2.1 X
Track quality 100.0 %
Test CRC 2F861731
Copy CRC 2F861731
Track not present in AccurateRip database
Copy OK

Track 3

Filename D:\#cdr\#wav+flac\#New\Tower Of Power - 50 Years Of Funk & Soul\cd 2\03. Tower of Power - Don't Change Horses.wav

Peak level 91.3 %
Extraction speed 2.5 X
Track quality 100.0 %
Test CRC C17DBEB0
Copy CRC C17DBEB0
Track not present in AccurateRip database
Copy OK

Track 4

Filename D:\#cdr\#wav+flac\#New\Tower Of Power - 50 Years Of Funk & Soul\cd 2\04. Tower of Power - Squib Cakes.wav

Peak level 92.6 %
Extraction speed 2.8 X
Track quality 100.0 %
Test CRC 4D0306A6
Copy CRC 4D0306A6
Track not present in AccurateRip database
Copy OK

Track 5

Filename D:\#cdr\#wav+flac\#New\Tower Of Power - 50 Years Of Funk & Soul\cd 2\05. Tower of Power - On The Soul Side Of Town.wav

Peak level 92.3 %
Extraction speed 3.0 X
Track quality 100.0 %
Test CRC B57C962D
Copy CRC B57C962D
Track not present in AccurateRip database
Copy OK

Track 6

Filename D:\#cdr\#wav+flac\#New\Tower Of Power - 50 Years Of Funk & Soul\cd 2\06. Tower of Power - Diggin' On James Brown (Medley).wav

Peak level 93.8 %
Extraction speed 3.4 X
Track quality 100.0 %
Test CRC 93A1FABB
Copy CRC 93A1FABB
Track not present in AccurateRip database
Copy OK

Track 7

Filename D:\#cdr\#wav+flac\#New\Tower Of Power - 50 Years Of Funk & Soul\cd 2\07. Tower of Power - So Very Hard To Go.wav

Peak level 90.8 %
Extraction speed 3.3 X
Track quality 100.0 %
Test CRC CBCB4D93
Copy CRC CBCB4D93
Track not present in AccurateRip database
Copy OK

Track 8

Filename D:\#cdr\#wav+flac\#New\Tower Of Power - 50 Years Of Funk & Soul\cd 2\08. Tower of Power - Knock Yourself Out.wav

Peak level 91.6 %
Extraction speed 3.8 X
Track quality 100.0 %
Test CRC 6E1F6E04
Copy CRC 6E1F6E04
Track not present in AccurateRip database
Copy OK

Track 9

Filename D:\#cdr\#wav+flac\#New\Tower Of Power - 50 Years Of Funk & Soul\cd 2\09. Tower of Power - You're Still A Young Man.wav

Peak level 92.6 %
Extraction speed 3.9 X
Track quality 100.0 %
Test CRC 8B4263FB
Copy CRC 8B4263FB
Track not present in AccurateRip database
Copy OK

Track 10

Filename D:\#cdr\#wav+flac\#New\Tower Of Power - 50 Years Of Funk & Soul\cd 2\10. Tower of Power - Souled Out.wav

Peak level 92.4 %
Extraction speed 3.9 X
Track quality 100.0 %
Test CRC 548B2845
Copy CRC 548B2845
Track not present in AccurateRip database
Copy OK


None of the tracks are present in the AccurateRip database

No errors occurred

End of status report

–– CUETools DB Plugin V2.1.6

[CTDB TOCID: lKqKT6T5j_k88C8ihxvUQOPJ.mk-] found
Submit result: lKqKT6T5j_k88C8ihxvUQOPJ.mk- has been confirmed
Track | CTDB Status
1 | (13/13) Accurately ripped
2 | (13/13) Accurately ripped
3 | (13/13) Accurately ripped
4 | (13/13) Accurately ripped
5 | (13/13) Accurately ripped
6 | (13/13) Accurately ripped
7 | (13/13) Accurately ripped
8 | (13/13) Accurately ripped
9 | (12/13) Accurately ripped
10 | (13/13) Accurately ripped


==== Log checksum 437162CF7C9E6D666E63467A9A7B63A4398EE64C94C637D9E6BDC8ACACCBA8F4 ====

Thanks to the Original ripper !