Tags
Language
Tags
April 2024
Su Mo Tu We Th Fr Sa
31 1 2 3 4 5 6
7 8 9 10 11 12 13
14 15 16 17 18 19 20
21 22 23 24 25 26 27
28 29 30 1 2 3 4

VA - Millions Like Us: The Story of the Mod Revival 1977 - 1989 (2014)

Posted By: delpotro
VA - Millions Like Us: The Story of the Mod Revival 1977 - 1989 (2014)

VA - Millions Like Us: The Story of the Mod Revival 1977 - 1989 (2014)
EAC Rip | FLAC (tracks+log+.cue) | 04:59:01 | 2,02 Gb
Mod Revival, Alternative Rock, Punk Rock, New Wave | Label: Cherry Red Records

MILLIONS LIKE US is the first-ever box set to properly document the Mod Revival scene of the late Seventies and Eighties. Across 100 tracks by all the key bands, the story of the Mod Revival is told, from its roots in Punk/New Wave through to its commercial heyday in 1979 with bands like Secret Affair and The Lambrettas and its resurrection in 1985 with The Untouchables and Makin Time.

Millions Like Us follows the success of other genre-defining Cherry Red box sets (e.g. Scared To Get Happy).

Many tracks have never been on CD before and The Upsets Only For Sheep is previously unissued.

The box set boasts several Top 40 UK hit singles by Secret Affair, The Chords, The Lambrettas, The Untouchables and The Truth.

The Mod scene continues to endure, with several books, films and TV programmes in 2014 to coincide with the 50th anniversary of Mods breakthrough back in 1964.
Tracklist:
DISC ONE :

1. THE NEW HEARTS - Just Another Teenage Anthem
2. THE EXITS - The Fashion Plague
3. THE REACTION - I Cant Resist
4. STRANGEWAYS - All The Sounds Of Fear (Demo)
5. SEMA 4 - Sema 4 Messages
6. SPEEDBALL - No Survivors
7. THE JOLT - See Saw
8. THE CIGARETTES - Theyre Back Again, Here They Come
9. THE KILLERMETERS - Why Should It Happen To Me
10. THE DONKEYS - What I Want
11. SECRET AFFAIR - Time For Action
12. PURPLE HEARTS - Millions Like Us
13. THE CHORDS - Now Its Gone
14. BACK TO ZERO - Your Side Of Heaven
15. SQUIRE - Walking Down The Kings Road
16. MERTON PARKAS - Plastic Smile
17. THE CROOKS - Modern Boys
18. UNTAMED YOUTH Untamed Youth
19. THE FIRST STEPS - The Beat Is Back
20. THE NIPS - Gabrielle
21. THE TEENBEATS - Strength Of The Nation
22. THE LAMBRETTAS - Go Steady
23. LONG TALL SHORTY - 1970s Boy
24. LES ELITE - Career Girls
25. BEGGAR - Dont Throw Your Life Away (live)
26. THE MODS - Let Me Be The One (live)

DISC TWO :

1. THE CIRCLES - Opening Up
2. THE ODDS - Saturday Night
3. SEVENTEEN - Bank Holiday Weekend
4. THE MOST - Carefree
5. THE SCENE - Hey Girl
6. THE SAME - Wild About You
7. THE VANDELLS - Bank Holiday
8. THE DIRECTIONS - Three Bands Tonite
9. THE CHORDS - Maybe Tomorrow
10. STA-PREST - School Days
11. 9 BELOW ZERO - Pack Fair And Square (previously unissued demo)
12. THE ACCIDENTS - Blood Spattered With Guitars
13. MI5 - Television Screen Heroes
14. SECRET AFFAIR - My World
15. Q-TIPS - S.Y.S.L.J.F.M. (The Letter Song)
16. RED BEANS AND RICE - That Driving Beat
17. DEAD BEATS - Choose You
18. THE LETTERS - Nobody Loves Me
19. THE NAME - Fuck Art Lets Dance (Demo)
20. THE LAMBRETTAS - D-a-a-ance
21. SQUIRE - My Mind Goes Round In Circles
22. THE SCENE - Ive Had Enough
23. D.C.10s - I Can See Through Walls
24. RUN 229 - Soho
25. THE FIXATIONS - No Way Out
26. TWO TONE PINKS - Dont Lecture Me

DISC THREE :

1. SMALL HOURS - The Kid
2. WEEKEND - Tinas Party
3. THE UPSET - Only For Sheep (previously unissued)
4. THE AMBER SQUAD - Can We Go Dancing
5. THE TIMES - Red With Purple Flashes
6. THE HEARTBEATS - Go
7. THE DODOS Blind To Fiction
8. THE RETREADS - Would You Listen Girl
9. LONG TALL SHORTY - Win Or Lose
10. THE GENTS - The Faker
11. THE CLUES - No Vacancies
12. THE ONLOOKERS - You And I
13. SMALL WORLD - Love Is Dead
14. PURPLE HEARTS - Plane Crash (Respond version)
15. THE STRIPES - One Step Ahead
16. DIRECT HITS - Modesty Blaise
17. THE DIPLOMATS - Ill Keep On Holding On
18. THE TRUTH - Confusion (Hits Us Everytime)
19. THE PRISONERS - Hurricane
20. FAST EDDIE - I Dont Need No Doctor
21. THE JETSET - Wednesday Girl
22. DEE WALKER - Jump Back
23. THE WAY OUT - Time Moves Us On
24. MANUAL SCAN - Nothing You Can Do
25. MOD FUN - I Am With You

DISC FOUR :

1. THE SCENE - Something That You Said
2. STUPIDITY - Bend Dont Break
3. THE MOMENT - In This Town
4. THE UNTOUCHABLES - Free Yourself
5. THE COMBINE - Dreams Come True
6. THE ALLJACKS - Guilty
7. MAKIN TIME - Here Is My Number
8. THE CO-STARS - Kiss And Make Up
9. THE BOSS - One Good Reason
10. THE BLADES - The Last Man In Europe
11. 5:30! - Catcher In The Rye
12. SOLID STATE - Train To London Town
13. ELEANOR RIGBY - I Want To Sleep With You
14. THE RAGE - Looking For You
15. THE THREADS - Step Back
16. THE RISK - Jobs For The Boys
17. JAMES TAYLOR QUARTET - Blow Up
18. THE KICK - Julie London
19. THE REFLECTION A.O.B. - All I Want To Be
20. STUDIO 68 - Get Out Of My Hair
21. THE LEEPERS - Paint In A Day
22. THE CLIQUE - Worming
23. THE AARDVARKS - Arthur C. Clarke

Exact Audio Copy V1.0 beta 3 from 29. August 2011

EAC extraction logfile from 22. February 2015, 14:36

Various Artists / Millions Like Us - The Mod Revival 1977-89 (disc 1)

Used drive : HL-DT-STDVDRWBD CH30N Adapter: 0 ID: 0

Read mode : Secure
Utilize accurate stream : Yes
Defeat audio cache : Yes
Make use of C2 pointers : No

Read offset correction : 6
Overread into Lead-In and Lead-Out : No
Fill up missing offset samples with silence : Yes
Delete leading and trailing silent blocks : No
Null samples used in CRC calculations : Yes
Used interface : Native Win32 interface for Win NT & 2000
Gap handling : Appended to previous track

Used output format : User Defined Encoder
Selected bitrate : 1024 kBit/s
Quality : High
Add ID3 tag : No
Command line compressor : C:\Program Files (x86)\Exact Audio Copy\Flac\flac.exe
Additional command line options : -8 -V -T "ARTIST=%artist%" -T "TITLE=%title%" -T "ALBUM=%albumtitle%" -T "DATE=%year%" -T "TRACKNUMBER=%tracknr%" -T "GENRE=%genre%" -T "PERFORMER=%albuminterpret%" -T "COMPOSER=%composer%" %haslyrics%–tag-from-file=LYRICS="%lyricsfile%"%haslyrics% -T "ALBUMARTIST=%albumartist%" -T "DISCNUMBER=%cdnumber%" -T "TOTALDISCS=%totalcds%" -T "TOTALTRACKS=%numtracks%" -T "COMMENT=%comment%" %source% -o %dest%


TOC of the extracted CD

Track | Start | Length | Start sector | End sector
––––––––––––––––––––––––––––-
1 | 0:00.00 | 1:56.51 | 0 | 8750
2 | 1:56.51 | 2:39.46 | 8751 | 20721
3 | 4:36.22 | 2:14.04 | 20722 | 30775
4 | 6:50.26 | 3:21.02 | 30776 | 45852
5 | 10:11.28 | 2:59.20 | 45853 | 59297
6 | 13:10.48 | 3:24.31 | 59298 | 74628
7 | 16:35.04 | 2:42.65 | 74629 | 86843
8 | 19:17.69 | 3:58.62 | 86844 | 104755
9 | 23:16.56 | 3:25.44 | 104756 | 120174
10 | 26:42.25 | 2:26.22 | 120175 | 131146
11 | 29:08.47 | 2:44.43 | 131147 | 143489
12 | 31:53.15 | 3:07.62 | 143490 | 157576
13 | 35:01.02 | 3:53.09 | 157577 | 175060
14 | 38:54.11 | 2:37.03 | 175061 | 186838
15 | 41:31.14 | 3:36.35 | 186839 | 203073
16 | 45:07.49 | 2:11.52 | 203074 | 212950
17 | 47:19.26 | 2:48.05 | 212951 | 225555
18 | 50:07.31 | 3:38.12 | 225556 | 241917
19 | 53:45.43 | 2:43.09 | 241918 | 254151
20 | 56:28.52 | 3:35.09 | 254152 | 270285
21 | 60:03.61 | 2:51.17 | 270286 | 283127
22 | 62:55.03 | 2:55.49 | 283128 | 296301
23 | 65:50.52 | 1:57.21 | 296302 | 305097
24 | 67:47.73 | 2:19.17 | 305098 | 315539
25 | 70:07.15 | 2:29.57 | 315540 | 326771
26 | 72:36.72 | 2:12.06 | 326772 | 336677


Track 1

Filename L:\Music Flac\VA - Millions Like Us {FLAC]\CD1\01 Just Another Teenage Anthem.wav

Pre-gap length 0:00:02.00

Peak level 96.6 %
Extraction speed 2.4 X
Track quality 100.0 %
Test CRC 41084169
Copy CRC 41084169
Accurately ripped (confidence 1) [DB7B3684] (AR v2)
Copy OK

Track 2

Filename L:\Music Flac\VA - Millions Like Us {FLAC]\CD1\02 The Fashion Plague.wav

Pre-gap length 0:00:01.00

Peak level 96.6 %
Extraction speed 2.0 X
Track quality 100.0 %
Test CRC 896EB232
Copy CRC 896EB232
Accurately ripped (confidence 1) [DB02F00E] (AR v2)
Copy OK

Track 3

Filename L:\Music Flac\VA - Millions Like Us {FLAC]\CD1\03 I Can't Resist.wav

Pre-gap length 0:00:01.00

Peak level 96.6 %
Extraction speed 2.1 X
Track quality 100.0 %
Test CRC 5391424E
Copy CRC 5391424E
Accurately ripped (confidence 1) [912BFA21] (AR v2)
Copy OK

Track 4

Filename L:\Music Flac\VA - Millions Like Us {FLAC]\CD1\04 All The Sounds Of Fear.wav

Pre-gap length 0:00:01.00

Peak level 96.6 %
Extraction speed 2.4 X
Track quality 100.0 %
Test CRC 24AE80FC
Copy CRC 24AE80FC
Accurately ripped (confidence 1) [00551DD7] (AR v2)
Copy OK

Track 5

Filename L:\Music Flac\VA - Millions Like Us {FLAC]\CD1\05 Sema 4 Messages.wav

Pre-gap length 0:00:01.00

Peak level 96.6 %
Extraction speed 1.7 X
Track quality 99.9 %
Test CRC C9249F7F
Copy CRC C9249F7F
Accurately ripped (confidence 1) [9A2D444B] (AR v2)
Copy OK

Track 6

Filename L:\Music Flac\VA - Millions Like Us {FLAC]\CD1\06 No Survivors.wav

Pre-gap length 0:00:01.00

Peak level 96.6 %
Extraction speed 2.7 X
Track quality 100.0 %
Test CRC 0BDE1BE1
Copy CRC 0BDE1BE1
Accurately ripped (confidence 1) [CC2BA61F] (AR v2)
Copy OK

Track 7

Filename L:\Music Flac\VA - Millions Like Us {FLAC]\CD1\07 See Saw.wav

Pre-gap length 0:00:01.00

Peak level 96.6 %
Extraction speed 2.7 X
Track quality 100.0 %
Test CRC 8F99C93F
Copy CRC 8F99C93F
Accurately ripped (confidence 1) [03F1EE2D] (AR v2)
Copy OK

Track 8

Filename L:\Music Flac\VA - Millions Like Us {FLAC]\CD1\08 They're Back Again, Here They Come.wav

Pre-gap length 0:00:01.00

Peak level 96.6 %
Extraction speed 3.0 X
Track quality 100.0 %
Test CRC 8067FA42
Copy CRC 8067FA42
Accurately ripped (confidence 1) [7F364FA1] (AR v2)
Copy OK

Track 9

Filename L:\Music Flac\VA - Millions Like Us {FLAC]\CD1\09 Why Should It Happen To Me.wav

Pre-gap length 0:00:01.00

Peak level 96.6 %
Extraction speed 3.0 X
Track quality 100.0 %
Test CRC 8EB99010
Copy CRC 8EB99010
Accurately ripped (confidence 1) [E80C58B2] (AR v2)
Copy OK

Track 10

Filename L:\Music Flac\VA - Millions Like Us {FLAC]\CD1\10 What I Want.wav

Pre-gap length 0:00:01.00

Peak level 96.6 %
Extraction speed 3.0 X
Track quality 100.0 %
Test CRC B46BAF0B
Copy CRC B46BAF0B
Accurately ripped (confidence 1) [D3757319] (AR v2)
Copy OK

Track 11

Filename L:\Music Flac\VA - Millions Like Us {FLAC]\CD1\11 Time For Action.wav

Pre-gap length 0:00:01.00

Peak level 93.3 %
Extraction speed 3.1 X
Track quality 100.0 %
Test CRC 477FE476
Copy CRC 477FE476
Accurately ripped (confidence 1) [17D28EF8] (AR v2)
Copy OK

Track 12

Filename L:\Music Flac\VA - Millions Like Us {FLAC]\CD1\12 Millions Like Us.wav

Pre-gap length 0:00:01.00

Peak level 91.2 %
Extraction speed 3.2 X
Track quality 100.0 %
Test CRC 82D39182
Copy CRC 82D39182
Accurately ripped (confidence 1) [245CBE12] (AR v2)
Copy OK

Track 13

Filename L:\Music Flac\VA - Millions Like Us {FLAC]\CD1\13 Now It's Gone.wav

Pre-gap length 0:00:01.00

Peak level 96.6 %
Extraction speed 3.5 X
Track quality 100.0 %
Test CRC 4FE869F7
Copy CRC 4FE869F7
Accurately ripped (confidence 1) [DDAD6D33] (AR v2)
Copy OK

Track 14

Filename L:\Music Flac\VA - Millions Like Us {FLAC]\CD1\14 Your Side Of Heaven.wav

Pre-gap length 0:00:01.00

Peak level 96.6 %
Extraction speed 2.7 X
Track quality 99.9 %
Test CRC FC0D12F2
Copy CRC FC0D12F2
Accurately ripped (confidence 1) [72A44B42] (AR v2)
Copy OK

Track 15

Filename L:\Music Flac\VA - Millions Like Us {FLAC]\CD1\15 Walking Down The King's Road.wav

Pre-gap length 0:00:01.00

Peak level 96.6 %
Extraction speed 2.6 X
Track quality 99.9 %
Test CRC A386AE59
Copy CRC A386AE59
Accurately ripped (confidence 1) [B0239F93] (AR v2)
Copy OK

Track 16

Filename L:\Music Flac\VA - Millions Like Us {FLAC]\CD1\16 Plastic Smile.wav

Pre-gap length 0:00:01.00

Peak level 96.6 %
Extraction speed 3.4 X
Track quality 100.0 %
Test CRC 42EDE994
Copy CRC 42EDE994
Accurately ripped (confidence 1) [CDAD6B8F] (AR v2)
Copy OK

Track 17

Filename L:\Music Flac\VA - Millions Like Us {FLAC]\CD1\17 Modern Boys.wav

Pre-gap length 0:00:01.00

Peak level 96.6 %
Extraction speed 3.6 X
Track quality 100.0 %
Test CRC 0CFE0916
Copy CRC 0CFE0916
Accurately ripped (confidence 1) [AA8A9446] (AR v2)
Copy OK

Track 18

Filename L:\Music Flac\VA - Millions Like Us {FLAC]\CD1\18 Untamed Youth.wav

Pre-gap length 0:00:01.00

Peak level 96.6 %
Extraction speed 3.9 X
Track quality 100.0 %
Test CRC F64A3685
Copy CRC F64A3685
Accurately ripped (confidence 1) [F2968468] (AR v2)
Copy OK

Track 19

Filename L:\Music Flac\VA - Millions Like Us {FLAC]\CD1\19 The Beat Is Back.wav

Pre-gap length 0:00:01.00

Peak level 96.6 %
Extraction speed 3.8 X
Track quality 100.0 %
Test CRC 155227A0
Copy CRC 155227A0
Accurately ripped (confidence 1) [10BBB0E9] (AR v2)
Copy OK

Track 20

Filename L:\Music Flac\VA - Millions Like Us {FLAC]\CD1\20 Gabrielle.wav

Pre-gap length 0:00:01.00

Peak level 96.6 %
Extraction speed 3.5 X
Track quality 99.9 %
Test CRC 2807D9E7
Copy CRC 2807D9E7
Accurately ripped (confidence 1) [74514A06] (AR v2)
Copy OK

Track 21

Filename L:\Music Flac\VA - Millions Like Us {FLAC]\CD1\21 Strength Of The Nation.wav

Pre-gap length 0:00:01.00

Peak level 96.6 %
Extraction speed 4.0 X
Track quality 100.0 %
Test CRC 896AAD81
Copy CRC 896AAD81
Accurately ripped (confidence 1) [040A37B9] (AR v2)
Copy OK

Track 22

Filename L:\Music Flac\VA - Millions Like Us {FLAC]\CD1\22 Go Steady.wav

Pre-gap length 0:00:01.00

Peak level 96.6 %
Extraction speed 4.1 X
Track quality 100.0 %
Test CRC 2470030A
Copy CRC 2470030A
Accurately ripped (confidence 1) [33AD3886] (AR v2)
Copy OK

Track 23

Filename L:\Music Flac\VA - Millions Like Us {FLAC]\CD1\23 1970's Boy.wav

Pre-gap length 0:00:01.00

Peak level 96.6 %
Extraction speed 3.8 X
Track quality 100.0 %
Test CRC BBB4643D
Copy CRC BBB4643D
Accurately ripped (confidence 1) [D03E603F] (AR v2)
Copy OK

Track 24

Filename L:\Music Flac\VA - Millions Like Us {FLAC]\CD1\24 Career Girls.wav

Pre-gap length 0:00:01.00

Peak level 96.6 %
Extraction speed 4.0 X
Track quality 100.0 %
Test CRC 5C190CC4
Copy CRC 5C190CC4
Accurately ripped (confidence 1) [E4B1A62E] (AR v2)
Copy OK

Track 25

Filename L:\Music Flac\VA - Millions Like Us {FLAC]\CD1\25 Don't Throw Your Life Away (live).wav

Pre-gap length 0:00:01.00

Peak level 96.6 %
Extraction speed 4.1 X
Track quality 100.0 %
Test CRC 8C32C693
Copy CRC 8C32C693
Accurately ripped (confidence 1) [FF76993D] (AR v2)
Copy OK

Track 26

Filename L:\Music Flac\VA - Millions Like Us {FLAC]\CD1\26 Let Me Be The One (live).wav

Pre-gap length 0:00:01.00

Peak level 96.6 %
Extraction speed 4.1 X
Track quality 100.0 %
Test CRC 8612BE83
Copy CRC 8612BE83
Accurately ripped (confidence 1) [FAE5E237] (AR v2)
Copy OK


All tracks accurately ripped

No errors occurred

End of status report

==== Log checksum 0EB0D1E46321D0F96B8E17B698B92355542733BB02BFA8551DC730633115065E ====

Exact Audio Copy V1.0 beta 3 from 29. August 2011

EAC extraction logfile from 22. February 2015, 15:09

Various Artists / Millions Like Us - The Mod Revival 1977-89 (disc 2)

Used drive : HL-DT-STDVDRWBD CH30N Adapter: 0 ID: 0

Read mode : Secure
Utilize accurate stream : Yes
Defeat audio cache : Yes
Make use of C2 pointers : No

Read offset correction : 6
Overread into Lead-In and Lead-Out : No
Fill up missing offset samples with silence : Yes
Delete leading and trailing silent blocks : No
Null samples used in CRC calculations : Yes
Used interface : Native Win32 interface for Win NT & 2000
Gap handling : Appended to previous track

Used output format : User Defined Encoder
Selected bitrate : 1024 kBit/s
Quality : High
Add ID3 tag : No
Command line compressor : C:\Program Files (x86)\Exact Audio Copy\Flac\flac.exe
Additional command line options : -8 -V -T "ARTIST=%artist%" -T "TITLE=%title%" -T "ALBUM=%albumtitle%" -T "DATE=%year%" -T "TRACKNUMBER=%tracknr%" -T "GENRE=%genre%" -T "PERFORMER=%albuminterpret%" -T "COMPOSER=%composer%" %haslyrics%–tag-from-file=LYRICS="%lyricsfile%"%haslyrics% -T "ALBUMARTIST=%albumartist%" -T "DISCNUMBER=%cdnumber%" -T "TOTALDISCS=%totalcds%" -T "TOTALTRACKS=%numtracks%" -T "COMMENT=%comment%" %source% -o %dest%


TOC of the extracted CD

Track | Start | Length | Start sector | End sector
––––––––––––––––––––––––––––-
1 | 0:00.00 | 3:13.15 | 0 | 14489
2 | 3:13.15 | 2:39.53 | 14490 | 26467
3 | 5:52.68 | 3:08.33 | 26468 | 40600
4 | 9:01.26 | 2:31.06 | 40601 | 51931
5 | 11:32.32 | 2:12.16 | 51932 | 61847
6 | 13:44.48 | 2:33.20 | 61848 | 73342
7 | 16:17.68 | 2:19.02 | 73343 | 83769
8 | 18:36.70 | 4:01.41 | 83770 | 101885
9 | 22:38.36 | 3:13.74 | 101886 | 116434
10 | 25:52.35 | 3:16.12 | 116435 | 131146
11 | 29:08.47 | 1:58.00 | 131147 | 139996
12 | 31:06.47 | 3:50.13 | 139997 | 157259
13 | 34:56.60 | 4:10.68 | 157260 | 176077
14 | 39:07.53 | 3:39.38 | 176078 | 192540
15 | 42:47.16 | 2:34.58 | 192541 | 204148
16 | 45:21.74 | 2:37.41 | 204149 | 215964
17 | 47:59.40 | 2:32.02 | 215965 | 227366
18 | 50:31.42 | 2:12.01 | 227367 | 237267
19 | 52:43.43 | 2:44.48 | 237268 | 249615
20 | 55:28.16 | 2:19.09 | 249616 | 260049
21 | 57:47.25 | 3:42.51 | 260050 | 276750
22 | 61:30.01 | 3:19.74 | 276751 | 291749
23 | 64:50.00 | 1:38.20 | 291750 | 299119
24 | 66:28.20 | 2:49.03 | 299120 | 311797
25 | 69:17.23 | 2:35.56 | 311798 | 323478
26 | 71:53.04 | 2:46.49 | 323479 | 335977


Track 1

Filename L:\Music Flac\VA - Millions Like Us {FLAC]\CD2\01 Opening Up.wav

Pre-gap length 0:00:02.00

Peak level 96.6 %
Extraction speed 2.4 X
Track quality 99.9 %
Copy CRC 28312182
Track not present in AccurateRip database
Copy OK

Track 2

Filename L:\Music Flac\VA - Millions Like Us {FLAC]\CD2\02 Saturday Night.wav

Pre-gap length 0:00:01.00

Peak level 96.6 %
Extraction speed 1.4 X
Track quality 99.9 %
Copy CRC E71E7420
Track not present in AccurateRip database
Copy OK

Track 3

Filename L:\Music Flac\VA - Millions Like Us {FLAC]\CD2\03 Bank Holiday Weekend.wav

Pre-gap length 0:00:01.00

Peak level 96.6 %
Extraction speed 2.3 X
Track quality 100.0 %
Copy CRC A5575EAA
Track not present in AccurateRip database
Copy OK

Track 4

Filename L:\Music Flac\VA - Millions Like Us {FLAC]\CD2\04 Carefree.wav

Pre-gap length 0:00:01.00

Peak level 96.6 %
Extraction speed 1.9 X
Track quality 99.9 %
Copy CRC 6130CC74
Track not present in AccurateRip database
Copy OK

Track 5

Filename L:\Music Flac\VA - Millions Like Us {FLAC]\CD2\05 Hey Girl.wav

Pre-gap length 0:00:01.00

Peak level 96.6 %
Extraction speed 2.4 X
Track quality 100.0 %
Copy CRC FD1DBA5A
Track not present in AccurateRip database
Copy OK

Track 6

Filename L:\Music Flac\VA - Millions Like Us {FLAC]\CD2\06 Wild About You.wav

Pre-gap length 0:00:01.00

Peak level 96.6 %
Extraction speed 2.5 X
Track quality 100.0 %
Copy CRC 5BA30530
Track not present in AccurateRip database
Copy OK

Track 7

Filename L:\Music Flac\VA - Millions Like Us {FLAC]\CD2\07 Bank Holiday.wav

Pre-gap length 0:00:01.00

Peak level 96.6 %
Extraction speed 2.6 X
Track quality 100.0 %
Copy CRC D6519B29
Track not present in AccurateRip database
Copy OK

Track 8

Filename L:\Music Flac\VA - Millions Like Us {FLAC]\CD2\08 Three Bands Tonite.wav

Pre-gap length 0:00:01.00

Peak level 96.6 %
Extraction speed 3.0 X
Track quality 100.0 %
Copy CRC FE95B93B
Track not present in AccurateRip database
Copy OK

Track 9

Filename L:\Music Flac\VA - Millions Like Us {FLAC]\CD2\09 Maybe Tomorrow.wav

Pre-gap length 0:00:01.00

Peak level 96.6 %
Extraction speed 3.0 X
Track quality 100.0 %
Copy CRC F5BF3635
Track not present in AccurateRip database
Copy OK

Track 10

Filename L:\Music Flac\VA - Millions Like Us {FLAC]\CD2\10 School Days.wav

Pre-gap length 0:00:01.00

Peak level 96.6 %
Extraction speed 3.1 X
Track quality 100.0 %
Copy CRC 3EDAA86B
Track not present in AccurateRip database
Copy OK

Track 11

Filename L:\Music Flac\VA - Millions Like Us {FLAC]\CD2\11 Pack Fair And Square.wav

Pre-gap length 0:00:01.00

Peak level 96.6 %
Extraction speed 2.9 X
Track quality 100.0 %
Copy CRC 3AF849B2
Track not present in AccurateRip database
Copy OK

Track 12

Filename L:\Music Flac\VA - Millions Like Us {FLAC]\CD2\12 Blood Spattered With Guitars.wav

Pre-gap length 0:00:01.00

Peak level 96.6 %
Extraction speed 3.4 X
Track quality 100.0 %
Copy CRC BB871534
Track not present in AccurateRip database
Copy OK

Track 13

Filename L:\Music Flac\VA - Millions Like Us {FLAC]\CD2\13 Television Screen Heroes.wav

Pre-gap length 0:00:01.00

Peak level 96.6 %
Extraction speed 3.6 X
Track quality 100.0 %
Copy CRC F39A0000
Track not present in AccurateRip database
Copy OK

Track 14

Filename L:\Music Flac\VA - Millions Like Us {FLAC]\CD2\14 My World.wav

Pre-gap length 0:00:01.00

Peak level 95.7 %
Extraction speed 3.6 X
Track quality 100.0 %
Copy CRC 4A9D8E99
Track not present in AccurateRip database
Copy OK

Track 15

Filename L:\Music Flac\VA - Millions Like Us {FLAC]\CD2\15 S.Y.S.L.J.F.M. (The Letter Song).wav

Pre-gap length 0:00:01.00

Peak level 96.6 %
Extraction speed 3.5 X
Track quality 100.0 %
Copy CRC DF7D73D0
Track not present in AccurateRip database
Copy OK

Track 16

Filename L:\Music Flac\VA - Millions Like Us {FLAC]\CD2\16 That Driving Beat.wav

Pre-gap length 0:00:01.00

Peak level 96.6 %
Extraction speed 3.6 X
Track quality 100.0 %
Copy CRC E7C8E9C6
Track not present in AccurateRip database
Copy OK

Track 17

Filename L:\Music Flac\VA - Millions Like Us {FLAC]\CD2\17 Choose You.wav

Pre-gap length 0:00:01.00

Peak level 96.6 %
Extraction speed 2.9 X
Track quality 99.9 %
Copy CRC B06A0AD1
Track not present in AccurateRip database
Copy OK

Track 18

Filename L:\Music Flac\VA - Millions Like Us {FLAC]\CD2\18 Nobody Loves Me.wav

Pre-gap length 0:00:01.00

Peak level 96.6 %
Extraction speed 3.6 X
Track quality 100.0 %
Copy CRC F720D99A
Track not present in AccurateRip database
Copy OK

Track 19

Filename L:\Music Flac\VA - Millions Like Us {FLAC]\CD2\19 Fuck Art Let's Dance.wav

Pre-gap length 0:00:01.00

Peak level 96.6 %
Extraction speed 2.6 X
Track quality 99.9 %
Copy CRC F08D0262
Track not present in AccurateRip database
Copy OK

Track 20

Filename L:\Music Flac\VA - Millions Like Us {FLAC]\CD2\20 D-a-a-ance.wav

Pre-gap length 0:00:01.00

Peak level 96.6 %
Extraction speed 2.9 X
Track quality 99.9 %
Copy CRC E8F62E7A
Track not present in AccurateRip database
Copy OK

Track 21

Filename L:\Music Flac\VA - Millions Like Us {FLAC]\CD2\21 My Mind Goes Round In Circles.wav

Pre-gap length 0:00:01.00

Peak level 96.6 %
Extraction speed 4.1 X
Track quality 100.0 %
Copy CRC 82ABE01C
Track not present in AccurateRip database
Copy OK

Track 22

Filename L:\Music Flac\VA - Millions Like Us {FLAC]\CD2\22 I've Had Enough.wav

Pre-gap length 0:00:01.00

Peak level 96.6 %
Extraction speed 4.1 X
Track quality 100.0 %
Copy CRC CD8C2ACD
Track not present in AccurateRip database
Copy OK

Track 23

Filename L:\Music Flac\VA - Millions Like Us {FLAC]\CD2\23 I Can See Through Walls.wav

Pre-gap length 0:00:01.00

Peak level 96.6 %
Extraction speed 2.2 X
Track quality 99.8 %
Copy CRC 8535E110
Track not present in AccurateRip database
Copy OK

Track 24

Filename L:\Music Flac\VA - Millions Like Us {FLAC]\CD2\24 Soho.wav

Pre-gap length 0:00:01.00

Peak level 96.6 %
Extraction speed 4.1 X
Track quality 100.0 %
Copy CRC 448DB2D2
Track not present in AccurateRip database
Copy OK

Track 25

Filename L:\Music Flac\VA - Millions Like Us {FLAC]\CD2\25 No Way Out.wav

Pre-gap length 0:00:01.00

Peak level 96.6 %
Extraction speed 4.2 X
Track quality 100.0 %
Copy CRC BD208400
Track not present in AccurateRip database
Copy OK

Track 26

Filename L:\Music Flac\VA - Millions Like Us {FLAC]\CD2\26 Don't Lecture Me.wav

Pre-gap length 0:00:01.00

Peak level 96.6 %
Extraction speed 3.5 X
Track quality 99.9 %
Copy CRC 0561DFD8
Track not present in AccurateRip database
Copy OK


None of the tracks are present in the AccurateRip database

No errors occurred

End of status report

==== Log checksum 5E09D19A5E92051B17C085D7391B7AADAEA892BDF3F13F84631109BE12892DA5 ====

Exact Audio Copy V1.0 beta 3 from 29. August 2011

EAC extraction logfile from 22. February 2015, 16:17

Various Artists / Millions Like Us - The Mod Revival 1977-89 (disc 3)

Used drive : HL-DT-STDVDRWBD CH30N Adapter: 0 ID: 0

Read mode : Secure
Utilize accurate stream : Yes
Defeat audio cache : Yes
Make use of C2 pointers : No

Read offset correction : 6
Overread into Lead-In and Lead-Out : No
Fill up missing offset samples with silence : Yes
Delete leading and trailing silent blocks : No
Null samples used in CRC calculations : Yes
Used interface : Native Win32 interface for Win NT & 2000
Gap handling : Appended to previous track

Used output format : User Defined Encoder
Selected bitrate : 1024 kBit/s
Quality : High
Add ID3 tag : No
Command line compressor : C:\Program Files (x86)\Exact Audio Copy\Flac\flac.exe
Additional command line options : -8 -V -T "ARTIST=%artist%" -T "TITLE=%title%" -T "ALBUM=%albumtitle%" -T "DATE=%year%" -T "TRACKNUMBER=%tracknr%" -T "GENRE=%genre%" -T "PERFORMER=%albuminterpret%" -T "COMPOSER=%composer%" %haslyrics%–tag-from-file=LYRICS="%lyricsfile%"%haslyrics% -T "ALBUMARTIST=%albumartist%" -T "DISCNUMBER=%cdnumber%" -T "TOTALDISCS=%totalcds%" -T "TOTALTRACKS=%numtracks%" -T "COMMENT=%comment%" %source% -o %dest%


TOC of the extracted CD

Track | Start | Length | Start sector | End sector
––––––––––––––––––––––––––––-
1 | 0:00.00 | 3:41.03 | 0 | 16577
2 | 3:41.03 | 2:30.53 | 16578 | 27880
3 | 6:11.56 | 4:05.51 | 27881 | 46306
4 | 10:17.32 | 2:35.38 | 46307 | 57969
5 | 12:52.70 | 3:10.65 | 57970 | 72284
6 | 16:03.60 | 3:00.33 | 72285 | 85817
7 | 19:04.18 | 1:41.57 | 85818 | 93449
8 | 20:46.00 | 2:05.62 | 93450 | 102886
9 | 22:51.62 | 2:44.63 | 102887 | 115249
10 | 25:36.50 | 3:31.34 | 115250 | 131108
11 | 29:08.09 | 3:17.11 | 131109 | 145894
12 | 32:25.20 | 2:47.62 | 145895 | 158481
13 | 35:13.07 | 2:56.72 | 158482 | 171753
14 | 38:10.04 | 2:51.58 | 171754 | 184636
15 | 41:01.62 | 3:48.62 | 184637 | 201798
16 | 44:50.49 | 2:33.72 | 201799 | 213345
17 | 47:24.46 | 3:35.12 | 213346 | 229482
18 | 50:59.58 | 3:01.45 | 229483 | 243102
19 | 54:01.28 | 2:33.54 | 243103 | 254631
20 | 56:35.07 | 2:04.04 | 254632 | 263935
21 | 58:39.11 | 2:28.45 | 263936 | 275080
22 | 61:07.56 | 2:52.20 | 275081 | 288000
23 | 64:00.01 | 2:44.65 | 288001 | 300365
24 | 66:44.66 | 1:25.53 | 300366 | 306793
25 | 68:10.44 | 4:09.58 | 306794 | 325526


Track 1

Filename L:\Music Flac\VA - Millions Like Us {FLAC]\CD3\01 The Kid.wav

Pre-gap length 0:00:02.00

Peak level 96.6 %
Extraction speed 2.9 X
Track quality 100.0 %
Test CRC 5D908D64
Copy CRC 5D908D64
Track not present in AccurateRip database
Copy OK

Track 2

Filename L:\Music Flac\VA - Millions Like Us {FLAC]\CD3\02 Tina's Party.wav

Pre-gap length 0:00:01.00

Peak level 96.6 %
Extraction speed 1.7 X
Track quality 99.9 %
Test CRC E58EBDB5
Copy CRC E58EBDB5
Track not present in AccurateRip database
Copy OK

Track 3

Filename L:\Music Flac\VA - Millions Like Us {FLAC]\CD3\03 Only For Sheep.wav

Pre-gap length 0:00:00.94

Peak level 96.6 %
Extraction speed 1.7 X
Track quality 99.9 %
Test CRC 95CB0E62
Copy CRC 95CB0E62
Track not present in AccurateRip database
Copy OK

Track 4

Filename L:\Music Flac\VA - Millions Like Us {FLAC]\CD3\04 Can We Go Dancing.wav

Pre-gap length 0:00:00.93

Peak level 96.6 %
Extraction speed 2.3 X
Track quality 100.0 %
Test CRC 9DC3E31F
Copy CRC 9DC3E31F
Track not present in AccurateRip database
Copy OK

Track 5

Filename L:\Music Flac\VA - Millions Like Us {FLAC]\CD3\05 Red With Purple Flashes.wav

Pre-gap length 0:00:00.98

Peak level 96.6 %
Extraction speed 2.1 X
Track quality 99.9 %
Test CRC 7579AF49
Copy CRC 7579AF49
Track not present in AccurateRip database
Copy OK

Track 6

Filename L:\Music Flac\VA - Millions Like Us {FLAC]\CD3\06 Go.wav

Pre-gap length 0:00:00.97

Peak level 96.6 %
Extraction speed 2.6 X
Track quality 100.0 %
Test CRC 8B03DF84
Copy CRC 8B03DF84
Track not present in AccurateRip database
Copy OK

Track 7

Filename L:\Music Flac\VA - Millions Like Us {FLAC]\CD3\07 Blind To Fiction.wav

Pre-gap length 0:00:00.98

Peak level 96.6 %
Extraction speed 2.4 X
Track quality 100.0 %
Test CRC 6F0D7266
Copy CRC 6F0D7266
Track not present in AccurateRip database
Copy OK

Track 8

Filename L:\Music Flac\VA - Millions Like Us {FLAC]\CD3\08 Would You Listen Girl.wav

Pre-gap length 0:00:00.98

Peak level 96.6 %
Extraction speed 2.1 X
Track quality 99.9 %
Test CRC 0588F113
Copy CRC 0588F113
Track not present in AccurateRip database
Copy OK

Track 9

Filename L:\Music Flac\VA - Millions Like Us {FLAC]\CD3\09 Win Or Lose.wav

Pre-gap length 0:00:00.98

Peak level 96.6 %
Extraction speed 2.8 X
Track quality 100.0 %
Test CRC 281B9104
Copy CRC 281B9104
Track not present in AccurateRip database
Copy OK

Track 10

Filename L:\Music Flac\VA - Millions Like Us {FLAC]\CD3\10 The Faker.wav

Pre-gap length 0:00:00.98

Peak level 96.6 %
Extraction speed 2.6 X
Track quality 99.9 %
Test CRC C830563F
Copy CRC C830563F
Track not present in AccurateRip database
Copy OK

Track 11

Filename L:\Music Flac\VA - Millions Like Us {FLAC]\CD3\11 No Vacancies.wav

Pre-gap length 0:00:00.97

Peak level 96.6 %
Extraction speed 3.1 X
Track quality 100.0 %
Test CRC F7EE808A
Copy CRC F7EE808A
Track not present in AccurateRip database
Copy OK

Track 12

Filename L:\Music Flac\VA - Millions Like Us {FLAC]\CD3\12 You And I.wav

Pre-gap length 0:00:00.97

Peak level 96.6 %
Extraction speed 3.1 X
Track quality 100.0 %
Test CRC 77104C37
Copy CRC 77104C37
Track not present in AccurateRip database
Copy OK

Track 13

Filename L:\Music Flac\VA - Millions Like Us {FLAC]\CD3\13 Love Is Dead.wav

Pre-gap length 0:00:00.98

Peak level 96.6 %
Extraction speed 2.7 X
Track quality 99.9 %
Test CRC C1BC1768
Copy CRC C1BC1768
Track not present in AccurateRip database
Copy OK

Track 14

Filename L:\Music Flac\VA - Millions Like Us {FLAC]\CD3\14 Plane Crash.wav

Pre-gap length 0:00:00.98

Peak level 96.6 %
Extraction speed 3.4 X
Track quality 100.0 %
Test CRC 2734B605
Copy CRC 2734B605
Track not present in AccurateRip database
Copy OK

Track 15

Filename L:\Music Flac\VA - Millions Like Us {FLAC]\CD3\15 One Step Ahead.wav

Pre-gap length 0:00:00.98

Peak level 96.6 %
Extraction speed 3.6 X
Track quality 100.0 %
Test CRC 7BDC4259
Copy CRC 7BDC4259
Track not present in AccurateRip database
Copy OK

Track 16

Filename L:\Music Flac\VA - Millions Like Us {FLAC]\CD3\16 Modesty Blaise.wav

Pre-gap length 0:00:00.98

Peak level 92.2 %
Extraction speed 3.4 X
Track quality 100.0 %
Test CRC 19FF4D9E
Copy CRC 19FF4D9E
Track not present in AccurateRip database
Copy OK

Track 17

Filename L:\Music Flac\VA - Millions Like Us {FLAC]\CD3\17 I'll Keep On Holding On.wav

Pre-gap length 0:00:00.98

Peak level 96.6 %
Extraction speed 3.7 X
Track quality 100.0 %
Test CRC 0C0C3743
Copy CRC 0C0C3743
Track not present in AccurateRip database
Copy OK

Track 18

Filename L:\Music Flac\VA - Millions Like Us {FLAC]\CD3\18 Confusion (Hits Us Everytime).wav

Pre-gap length 0:00:00.96

Peak level 91.2 %
Extraction speed 2.6 X
Track quality 99.9 %
Test CRC 4A88EA97
Copy CRC 4A88EA97
Track not present in AccurateRip database
Copy OK

Track 19

Filename L:\Music Flac\VA - Millions Like Us {FLAC]\CD3\19 Hurricane.wav

Pre-gap length 0:00:00.97

Peak level 96.6 %
Extraction speed 3.0 X
Track quality 99.9 %
Test CRC 41FB67D7
Copy CRC 41FB67D7
Track not present in AccurateRip database
Copy OK

Track 20

Filename L:\Music Flac\VA - Millions Like Us {FLAC]\CD3\20 I Don't Need No Doctor.wav

Pre-gap length 0:00:00.98

Peak level 96.6 %
Extraction speed 3.6 X
Track quality 100.0 %
Test CRC 4E6D515B
Copy CRC 4E6D515B
Track not present in AccurateRip database
Copy OK

Track 21

Filename L:\Music Flac\VA - Millions Like Us {FLAC]\CD3\21 Wednesday Girl.wav

Pre-gap length 0:00:00.98

Peak level 96.6 %
Extraction speed 3.8 X
Track quality 100.0 %
Test CRC DE010615
Copy CRC DE010615
Track not present in AccurateRip database
Copy OK

Track 22

Filename L:\Music Flac\VA - Millions Like Us {FLAC]\CD3\22 Jump Back.wav

Pre-gap length 0:00:00.98

Peak level 96.6 %
Extraction speed 4.0 X
Track quality 100.0 %
Test CRC 04818639
Copy CRC 04818639
Track not present in AccurateRip database
Copy OK

Track 23

Filename L:\Music Flac\VA - Millions Like Us {FLAC]\CD3\23 Time Moves Us On.wav

Pre-gap length 0:00:00.98

Peak level 96.6 %
Extraction speed 4.0 X
Track quality 100.0 %
Test CRC 4EF98FB1
Copy CRC 4EF98FB1
Track not present in AccurateRip database
Copy OK

Track 24

Filename L:\Music Flac\VA - Millions Like Us {FLAC]\CD3\24 Nothing You Can Do.wav

Pre-gap length 0:00:00.98

Peak level 96.6 %
Extraction speed 3.5 X
Track quality 100.0 %
Test CRC 9909DB7E
Copy CRC 9909DB7E
Track not present in AccurateRip database
Copy OK

Track 25

Filename L:\Music Flac\VA - Millions Like Us {FLAC]\CD3\25 I Am With You.wav

Pre-gap length 0:00:00.98

Peak level 96.6 %
Extraction speed 2.0 X
Track quality 100.0 %
Test CRC 46CE863C
Copy CRC 46CE863C
Track not present in AccurateRip database
Copy OK


None of the tracks are present in the AccurateRip database

No errors occurred

End of status report

==== Log checksum 1451821AD3D13967B6ED1BD1FB83EA9D230A6C77F19F80C7DFB208AD7C647755 ====

Exact Audio Copy V1.0 beta 3 from 29. August 2011

EAC extraction logfile from 22. February 2015, 18:34

Various Artists / Millions Like Us - The Mod Revival 1977-89 (disc 4)

Used drive : HL-DT-STDVDRWBD CH30N Adapter: 0 ID: 0

Read mode : Secure
Utilize accurate stream : Yes
Defeat audio cache : Yes
Make use of C2 pointers : No

Read offset correction : 6
Overread into Lead-In and Lead-Out : No
Fill up missing offset samples with silence : Yes
Delete leading and trailing silent blocks : No
Null samples used in CRC calculations : Yes
Used interface : Native Win32 interface for Win NT & 2000
Gap handling : Appended to previous track

Used output format : User Defined Encoder
Selected bitrate : 1024 kBit/s
Quality : High
Add ID3 tag : No
Command line compressor : C:\Program Files (x86)\Exact Audio Copy\Flac\flac.exe
Additional command line options : -8 -V -T "ARTIST=%artist%" -T "TITLE=%title%" -T "ALBUM=%albumtitle%" -T "DATE=%year%" -T "TRACKNUMBER=%tracknr%" -T "GENRE=%genre%" -T "PERFORMER=%albuminterpret%" -T "COMPOSER=%composer%" %haslyrics%–tag-from-file=LYRICS="%lyricsfile%"%haslyrics% -T "ALBUMARTIST=%albumartist%" -T "DISCNUMBER=%cdnumber%" -T "TOTALDISCS=%totalcds%" -T "TOTALTRACKS=%numtracks%" -T "COMMENT=%comment%" %source% -o %dest%


TOC of the extracted CD

Track | Start | Length | Start sector | End sector
––––––––––––––––––––––––––––-
1 | 0:00.00 | 2:25.22 | 0 | 10896
2 | 2:25.22 | 3:48.17 | 10897 | 28013
3 | 6:13.39 | 3:40.36 | 28014 | 44549
4 | 9:54.00 | 3:39.18 | 44550 | 60992
5 | 13:33.18 | 3:55.38 | 60993 | 78655
6 | 17:28.56 | 3:37.35 | 78656 | 94965
7 | 21:06.16 | 2:50.34 | 94966 | 107749
8 | 23:56.50 | 3:16.27 | 107750 | 122476
9 | 27:13.02 | 3:32.59 | 122477 | 138435
10 | 30:45.61 | 3:22.37 | 138436 | 153622
11 | 34:08.23 | 3:02.39 | 153623 | 167311
12 | 37:10.62 | 3:34.28 | 167312 | 183389
13 | 40:45.15 | 3:45.55 | 183390 | 200319
14 | 44:30.70 | 3:58.66 | 200320 | 218235
15 | 48:29.61 | 2:42.70 | 218236 | 230455
16 | 51:12.56 | 3:00.53 | 230456 | 244008
17 | 54:13.34 | 3:54.05 | 244009 | 261563
18 | 58:07.39 | 3:34.17 | 261564 | 277630
19 | 61:41.56 | 3:52.17 | 277631 | 295047
20 | 65:33.73 | 2:48.65 | 295048 | 307712
21 | 68:22.63 | 3:11.41 | 307713 | 322078
22 | 71:34.29 | 2:43.71 | 322079 | 334374
23 | 74:18.25 | 2:54.11 | 334375 | 347435


Track 1

Filename L:\Music Flac\VA - Millions Like Us {FLAC]\CD4\01 Something That You Said.wav

Pre-gap length 0:00:02.00

Peak level 96.6 %
Extraction speed 2.5 X
Track quality 100.0 %
Test CRC EED70818
Copy CRC EED70818
Track not present in AccurateRip database
Copy OK

Track 2

Filename L:\Music Flac\VA - Millions Like Us {FLAC]\CD4\02 Bend, Don't Break.wav

Pre-gap length 0:00:01.00

Peak level 96.6 %
Extraction speed 2.3 X
Track quality 100.0 %
Test CRC 0670F0A9
Copy CRC 0670F0A9
Track not present in AccurateRip database
Copy OK

Track 3

Filename L:\Music Flac\VA - Millions Like Us {FLAC]\CD4\03 In This Town.wav

Pre-gap length 0:00:01.00

Peak level 96.6 %
Extraction speed 2.5 X
Track quality 100.0 %
Test CRC 90B4C9B3
Copy CRC 90B4C9B3
Track not present in AccurateRip database
Copy OK

Track 4

Filename L:\Music Flac\VA - Millions Like Us {FLAC]\CD4\04 Free Yourself.wav

Pre-gap length 0:00:01.00

Peak level 96.6 %
Extraction speed 2.6 X
Track quality 100.0 %
Test CRC 543F8B78
Copy CRC 543F8B78
Track not present in AccurateRip database
Copy OK

Track 5

Filename L:\Music Flac\VA - Millions Like Us {FLAC]\CD4\05 Dreams Come True.wav

Pre-gap length 0:00:01.00

Peak level 96.6 %
Extraction speed 2.8 X
Track quality 100.0 %
Test CRC 8DA91C04
Copy CRC 8DA91C04
Track not present in AccurateRip database
Copy OK

Track 6

Filename L:\Music Flac\VA - Millions Like Us {FLAC]\CD4\06 Guilty.wav

Pre-gap length 0:00:01.00

Peak level 96.6 %
Extraction speed 2.5 X
Track quality 99.9 %
Test CRC 992B0168
Copy CRC 992B0168
Track not present in AccurateRip database
Copy OK

Track 7

Filename L:\Music Flac\VA - Millions Like Us {FLAC]\CD4\07 Here Is My Number.wav

Pre-gap length 0:00:01.00

Peak level 96.6 %
Extraction speed 3.0 X
Track quality 100.0 %
Test CRC 0FE00313
Copy CRC 0FE00313
Track not present in AccurateRip database
Copy OK

Track 8

Filename L:\Music Flac\VA - Millions Like Us {FLAC]\CD4\08 Kiss And Make Up.wav

Pre-gap length 0:00:01.00

Peak level 96.6 %
Extraction speed 3.1 X
Track quality 100.0 %
Test CRC 6FFC2AB3
Copy CRC 6FFC2AB3
Track not present in AccurateRip database
Copy OK

Track 9

Filename L:\Music Flac\VA - Millions Like Us {FLAC]\CD4\09 One Good Reason.wav

Pre-gap length 0:00:01.00

Peak level 96.6 %
Extraction speed 2.3 X
Track quality 99.9 %
Test CRC 9B72CD11
Copy CRC 9B72CD11
Track not present in AccurateRip database
Copy OK

Track 10

Filename L:\Music Flac\VA - Millions Like Us {FLAC]\CD4\10 The Last Man In Europe.wav

Pre-gap length 0:00:01.00

Peak level 91.2 %
Extraction speed 2.8 X
Track quality 99.9 %
Test CRC 7B607A33
Copy CRC 7B607A33
Track not present in AccurateRip database
Copy OK

Track 11

Filename L:\Music Flac\VA - Millions Like Us {FLAC]\CD4\11 Catcher In The Rye.wav

Pre-gap length 0:00:01.00

Peak level 96.6 %
Extraction speed 3.4 X
Track quality 100.0 %
Test CRC 467C58CC
Copy CRC 467C58CC
Track not present in AccurateRip database
Copy OK

Track 12

Filename L:\Music Flac\VA - Millions Like Us {FLAC]\CD4\12 Train To London Town.wav

Pre-gap length 0:00:01.00

Peak level 96.6 %
Extraction speed 3.6 X
Track quality 100.0 %
Test CRC EF8319A4
Copy CRC EF8319A4
Track not present in AccurateRip database
Copy OK

Track 13

Filename L:\Music Flac\VA - Millions Like Us {FLAC]\CD4\13 I Want To Sleep With You.wav

Pre-gap length 0:00:01.00

Peak level 96.6 %
Extraction speed 2.7 X
Track quality 99.9 %
Test CRC 67C608EB
Copy CRC 67C608EB
Track not present in AccurateRip database
Copy OK

Track 14

Filename L:\Music Flac\VA - Millions Like Us {FLAC]\CD4\14 Looking For You.wav

Pre-gap length 0:00:01.00

Peak level 96.6 %
Extraction speed 3.9 X
Track quality 100.0 %
Test CRC FA862D54
Copy CRC FA862D54
Track not present in AccurateRip database
Copy OK

Track 15

Filename L:\Music Flac\VA - Millions Like Us {FLAC]\CD4\15 Step Back.wav

Pre-gap length 0:00:01.00

Peak level 96.6 %
Extraction speed 3.8 X
Track quality 100.0 %
Test CRC 9D432B9C
Copy CRC 9D432B9C
Track not present in AccurateRip database
Copy OK

Track 16

Filename L:\Music Flac\VA - Millions Like Us {FLAC]\CD4\16 Jobs For The Boys.wav

Pre-gap length 0:00:01.00

Peak level 96.6 %
Extraction speed 3.9 X
Track quality 100.0 %
Test CRC 65E5B2FF
Copy CRC 65E5B2FF
Track not present in AccurateRip database
Copy OK

Track 17

Filename L:\Music Flac\VA - Millions Like Us {FLAC]\CD4\17 Blow Up.wav

Pre-gap length 0:00:01.00

Peak level 96.6 %
Extraction speed 3.1 X
Track quality 99.9 %
Test CRC CE2C280F
Copy CRC CE2C280F
Track not present in AccurateRip database
Copy OK

Track 18

Filename L:\Music Flac\VA - Millions Like Us {FLAC]\CD4\18 Julie London.wav

Pre-gap length 0:00:01.00

Peak level 96.6 %
Extraction speed 4.2 X
Track quality 100.0 %
Test CRC A58706E8
Copy CRC A58706E8
Track not present in AccurateRip database
Copy OK

Track 19

Filename L:\Music Flac\VA - Millions Like Us {FLAC]\CD4\19 All I Want To Be.wav

Pre-gap length 0:00:01.00

Peak level 96.6 %
Extraction speed 4.4 X
Track quality 100.0 %
Test CRC 82BE5AB7
Copy CRC 82BE5AB7
Track not present in AccurateRip database
Copy OK

Track 20

Filename L:\Music Flac\VA - Millions Like Us {FLAC]\CD4\20 Get Out Of My Hair.wav

Pre-gap length 0:00:01.00

Peak level 96.6 %
Extraction speed 4.2 X
Track quality 100.0 %
Test CRC AE062D85
Copy CRC AE062D85
Track not present in AccurateRip database
Copy OK

Track 21

Filename L:\Music Flac\VA - Millions Like Us {FLAC]\CD4\21 Paint A Day.wav

Pre-gap length 0:00:01.00

Peak level 96.6 %
Extraction speed 3.2 X
Track quality 99.9 %
Test CRC BEE0D06D
Copy CRC BEE0D06D
Track not present in AccurateRip database
Copy OK

Track 22

Filename L:\Music Flac\VA - Millions Like Us {FLAC]\CD4\22 Worming.wav

Pre-gap length 0:00:01.00

Peak level 96.6 %
Extraction speed 4.4 X
Track quality 100.0 %
Test CRC C9823128
Copy CRC C9823128
Track not present in AccurateRip database
Copy OK

Track 23

Filename L:\Music Flac\VA - Millions Like Us {FLAC]\CD4\23 Arthur C. Clarke.wav

Pre-gap length 0:00:01.00

Peak level 96.6 %
Extraction speed 4.5 X
Track quality 100.0 %
Test CRC 34539C43
Copy CRC 34539C43
Track not present in AccurateRip database
Copy OK


None of the tracks are present in the AccurateRip database

No errors occurred

End of status report

==== Log checksum 1F43DB92A065767546F0F07F6EC81BDF86BD042A234C3A408F2947C2A66C868F ====

Thanks to the Original ripper lagerlout !