Tags
Language
Tags

VA - No Other Love: Midwest Gospel (1965-1978) (2019)

Posted By: delpotro
VA - No Other Love: Midwest Gospel (1965-1978) (2019)

VA - No Other Love: Midwest Gospel (1965-1978) (2019)
EAC Rip | FLAC (tracks+log+.cue) - 225 Mb | MP3 CBR 320 kbps - 101 Mb | 00:44:07
Gospel | Label: Tompkins Square Records

This collection of rare black gospel from the Midwest—featuring church congregations, basement recordings sessions, family bands and children’s choirs—is drawn together by two threads. The first—hope—which holds fast and unchanging, even in the most trying of circumstances. The second—circumstance—the way these recordings fell into the hands of producer, Ramona Stout, in Chicago at the dawn of the Obama era, when she had just about lost hope in her American Dream.

Over the course of five years (2006-2011) of vinyl hustling in Chicago’s South and West Sides, these 45s came into Ramona’s hands, mixed up in milk-crates stacked with Northern Soul, water-damaged jazz and Hall and Oates LPs. After much travel and time, Ramona has articulated the spirit that drove this music forward. In this collection, she writes of this music and its relationship to the struggling communities where the records were found.

Sourced from exceedingly rare 45s—many of which were vanity pressings of less than 100 copies—all but one of the tracks found on this collection appear for the first time since their original release. Remastered by Grammy-winning producer Christopher King, these recordings have been resurrected for a new generation of listeners. With art direction by Grammy-winning graphic designer Susan Archie, this collection is a tangible, immersive experience in the struggles—the victories, the failures and the lingering hope—that defined Chicago in the post-Civil Rights era.

No Other Love is a singular, impressionistic journey into music that expresses faith, despair and exuberance. It is also a profound exploration of the very meaning of hope.
Tracklist:
1. Brother Randy Wilson – It's Going to Pay (03:13)
2. The Travelers of Zion – I Want You to Help Me (03:12)
3. Messiahs of Glory – No Other Love (02:50)
4. Rev. H.H. Harrington – Christmas in Heaven (03:04)
5. Gospel Carolets – Try Jesus (02:04)
6. The Wondering Gails – The Number (02:48)
7. Joanne & Sonny – Journey (03:02)
8. The Georgia Brooks Singers – You Can't Make It (02:49)
9. The Harmony Five – God Is Using Me (03:02)
10. Rev. John Thomas and the New Christian Fellowship Church Choirs – Christ Rose (04:01)
11. Rev. H. H. Harrington – Black Pride (03:04)
12. Re. Mack McCollum with Combined Choirs – I'm Gonna Stand Still (05:07)
13. Joanne & Sonny – Rocky Road (02:45)
14. Sister Mary Lucas and The Harambee Singers of Sacred Heart School – Why (03:07)

Exact Audio Copy V1.3 from 2. September 2016

EAC extraction logfile from 29. September 2020, 22:56

Various artists / No Other Love: Midwest Gospel [1965-1978]

Used drive : PLEXTOR DVDR PX-891SA Adapter: 1 ID: 0

Read mode : Secure
Utilize accurate stream : Yes
Defeat audio cache : Yes
Make use of C2 pointers : No

Read offset correction : 6
Overread into Lead-In and Lead-Out : No
Fill up missing offset samples with silence : Yes
Delete leading and trailing silent blocks : No
Null samples used in CRC calculations : Yes
Used interface : Native Win32 interface for Win NT & 2000
Gap handling : Appended to previous track

Used output format : User Defined Encoder
Selected bitrate : 1024 kBit/s
Quality : High
Add ID3 tag : No
Command line compressor : C:\Program Files (x86)\Exact Audio Copy\FLAC\FLAC.EXE
Additional command line options : -8 -V -T "ARTIST=%artist%" -T "TITLE=%title%" -T "ALBUM=%albumtitle%" -T "DATE=%year%" -T "TRACKNUMBER=%tracknr%" -T "GENRE=%genre%" -T "COMMENT=%comment%" -T "BAND=%albuminterpret%" -T "ALBUMARTIST=%albuminterpret%" -T "COMPOSER=%composer%" %haslyrics%–tag-from-file=LYRICS="%lyricsfile%"%haslyrics% -T "DISCNUMBER=%cdnumber%" -T "TOTALDISCS=%totalcds%" -T "TOTALTRACKS=%numtracks%" %hascover%–picture="%coverfile%"%hascover% %source% -o %dest%


TOC of the extracted CD

Track | Start | Length | Start sector | End sector
––––––––––––––––––––––––––––-
1 | 0:00.00 | 3:12.73 | 0 | 14472
2 | 3:12.73 | 3:12.06 | 14473 | 28878
3 | 6:25.04 | 2:49.67 | 28879 | 41620
4 | 9:14.71 | 3:04.23 | 41621 | 55443
5 | 12:19.19 | 2:04.35 | 55444 | 64778
6 | 14:23.54 | 2:47.51 | 64779 | 77354
7 | 17:11.30 | 3:01.59 | 77355 | 90988
8 | 20:13.14 | 2:48.66 | 90989 | 103654
9 | 23:02.05 | 3:01.54 | 103655 | 117283
10 | 26:03.59 | 4:00.52 | 117284 | 135335
11 | 30:04.36 | 3:03.63 | 135336 | 149123
12 | 33:08.24 | 5:06.67 | 149124 | 172140
13 | 38:15.16 | 2:45.01 | 172141 | 184516
14 | 41:00.17 | 3:06.72 | 184517 | 198538


Track 1

Filename I:\Tor H\Compilations\Tompkins Square\VA (2019) [TSQ 5661] No Other Love - Midwest Gospel [1965-1978]\01. Brother Randy Wilson - It's Going to Pay.wav

Pre-gap length 0:00:02.00

Peak level 92.0 %
Extraction speed 5.6 X
Track quality 100.0 %
Test CRC C648895E
Copy CRC C648895E
Accurately ripped (confidence 1) [FA6CAFFC] (AR v2)
Copy OK

Track 2

Filename I:\Tor H\Compilations\Tompkins Square\VA (2019) [TSQ 5661] No Other Love - Midwest Gospel [1965-1978]\02. The Travelers of Zion - I Want You to Help Me.wav

Peak level 90.5 %
Extraction speed 6.1 X
Track quality 100.0 %
Test CRC C1229B65
Copy CRC C1229B65
Accurately ripped (confidence 1) [6B4A1292] (AR v2)
Copy OK

Track 3

Filename I:\Tor H\Compilations\Tompkins Square\VA (2019) [TSQ 5661] No Other Love - Midwest Gospel [1965-1978]\03. Messiahs of Glory - No Other Love.wav

Peak level 94.0 %
Extraction speed 6.1 X
Track quality 100.0 %
Test CRC DD61D93F
Copy CRC DD61D93F
Accurately ripped (confidence 1) [C6729CE6] (AR v2)
Copy OK

Track 4

Filename I:\Tor H\Compilations\Tompkins Square\VA (2019) [TSQ 5661] No Other Love - Midwest Gospel [1965-1978]\04. Rev. H. H. Harrington - Christmas in Heaven.wav

Peak level 88.8 %
Extraction speed 6.7 X
Track quality 100.0 %
Test CRC E1EFCD7C
Copy CRC E1EFCD7C
Accurately ripped (confidence 1) [2E70AB78] (AR v2)
Copy OK

Track 5

Filename I:\Tor H\Compilations\Tompkins Square\VA (2019) [TSQ 5661] No Other Love - Midwest Gospel [1965-1978]\05. Gospel Carolets - Try Jesus.wav

Peak level 87.8 %
Extraction speed 4.9 X
Track quality 99.9 %
Test CRC 21F7727A
Copy CRC 21F7727A
Accurately ripped (confidence 1) [AF94B96F] (AR v2)
Copy OK

Track 6

Filename I:\Tor H\Compilations\Tompkins Square\VA (2019) [TSQ 5661] No Other Love - Midwest Gospel [1965-1978]\06. The Wondering Gails - The Number.wav

Peak level 94.6 %
Extraction speed 7.0 X
Track quality 100.0 %
Test CRC A3F5EC52
Copy CRC A3F5EC52
Accurately ripped (confidence 1) [70C75EE1] (AR v2)
Copy OK

Track 7

Filename I:\Tor H\Compilations\Tompkins Square\VA (2019) [TSQ 5661] No Other Love - Midwest Gospel [1965-1978]\07. Joanne & Sonny - Journey.wav

Peak level 80.0 %
Extraction speed 7.5 X
Track quality 100.0 %
Test CRC DE3279B0
Copy CRC DE3279B0
Accurately ripped (confidence 1) [1177BAFC] (AR v2)
Copy OK

Track 8

Filename I:\Tor H\Compilations\Tompkins Square\VA (2019) [TSQ 5661] No Other Love - Midwest Gospel [1965-1978]\08. The Georgia Brooks Singers - You Can't Make It.wav

Peak level 94.6 %
Extraction speed 7.4 X
Track quality 100.0 %
Test CRC CCAB882B
Copy CRC CCAB882B
Accurately ripped (confidence 1) [5AB4D7DB] (AR v2)
Copy OK

Track 9

Filename I:\Tor H\Compilations\Tompkins Square\VA (2019) [TSQ 5661] No Other Love - Midwest Gospel [1965-1978]\09. The Harmony Five - God Is Using Me.wav

Peak level 94.6 %
Extraction speed 8.1 X
Track quality 100.0 %
Test CRC C7BCC175
Copy CRC C7BCC175
Accurately ripped (confidence 1) [B583295E] (AR v2)
Copy OK

Track 10

Filename I:\Tor H\Compilations\Tompkins Square\VA (2019) [TSQ 5661] No Other Love - Midwest Gospel [1965-1978]\10. Rev. John Thomas & The New Christian Fellowship Church Choirs - Christ Rose.wav

Peak level 94.3 %
Extraction speed 7.4 X
Track quality 99.9 %
Test CRC B7C6DF67
Copy CRC B7C6DF67
Accurately ripped (confidence 1) [4F4960DD] (AR v2)
Copy OK

Track 11

Filename I:\Tor H\Compilations\Tompkins Square\VA (2019) [TSQ 5661] No Other Love - Midwest Gospel [1965-1978]\11. Rev. H. H. Harrington - Black Pride.wav

Peak level 94.3 %
Extraction speed 8.4 X
Track quality 100.0 %
Test CRC EBCD1788
Copy CRC EBCD1788
Accurately ripped (confidence 1) [369F8A2F] (AR v2)
Copy OK

Track 12

Filename I:\Tor H\Compilations\Tompkins Square\VA (2019) [TSQ 5661] No Other Love - Midwest Gospel [1965-1978]\12. Rev. Mack McCollum with combined choirs - I'm Gonna Stand Still.wav

Peak level 93.7 %
Extraction speed 9.7 X
Track quality 100.0 %
Test CRC 361375D9
Copy CRC 361375D9
Accurately ripped (confidence 1) [88299053] (AR v2)
Copy OK

Track 13

Filename I:\Tor H\Compilations\Tompkins Square\VA (2019) [TSQ 5661] No Other Love - Midwest Gospel [1965-1978]\13. Joanne & Sonny - Rocky Road.wav

Peak level 99.1 %
Extraction speed 7.3 X
Track quality 99.9 %
Test CRC C33FA0C8
Copy CRC C33FA0C8
Accurately ripped (confidence 1) [AA4F3E66] (AR v2)
Copy OK

Track 14

Filename I:\Tor H\Compilations\Tompkins Square\VA (2019) [TSQ 5661] No Other Love - Midwest Gospel [1965-1978]\14. Sister Mary Lucas & The Harambee Singers of Sacred Heart School - Why.wav

Peak level 94.6 %
Extraction speed 9.5 X
Track quality 100.0 %
Test CRC 46ECACFC
Copy CRC 46ECACFC
Accurately ripped (confidence 1) [99D1CA1F] (AR v2)
Copy OK


All tracks accurately ripped

No errors occurred

End of status report

==== Log checksum 03FBA0406AA4788F3C03EF394E9427B854F7C6C334BE4954F038CC96D9432630 ====

Thanks to the Original ripper !