Subcategories
Tags
Language
Tags

VA - NOW That's What I Call Party Anthems 4 (2018)

Posted By: delpotro
VA - NOW That's What I Call Party Anthems 4 (2018)

VA - NOW That's What I Call Party Anthems 4 (2018)
XLD Rip | FLAC (tracks+log+.cue) - 430 Mb | MP3 CBR 320 kbps - 145 Mb | 01:03:01
Pop, Electronic, R'n'B, Hip-Hop | Label: Sony Music

The fourth collection of party anthems from the NOW brand is here! This collection of songs is guaranteed to get your party started! NOW Party Anthems, Vol. 4 includes eighteen hot tracks from artists including Camila Cabello Feat. Young Thug, Demi Lovato, Maroon 5 Feat. SZA, Migos, Khalid, The Chainsmokers, Post Malone Feat. 21 Savage, Imagine Dragons and many others!
Tracklist:
1. Camila Cabello – Havana (feat. Young Thug) [Radio Edit] (02:54)
2. Maroon 5 – What Lovers Do (feat. SZA) (03:15)
3. Demi Lovato – Sorry Not Sorry (03:19)
4. Migos – Stir Fry (03:11)
5. Zay Hilfigerrr & Zayion McCall – Juju on That Beat (02:24)
6. Desiigner – Panda (Radio Edit) (03:44)
7. Post Malone – Rockstar (feat. 21 Savage) (03:37)
8. DJ Khaled – I'm the One (feat. Justin Bieber, Quavo, Chance the Rapper & Lil Wayne) (04:47)
9. Future – Mask Off (Marshmello Remix) (03:00)
10. Khalid – Young Dumb & Broke (03:19)
11. French Montana – Unforgettable (feat. Swae Lee) (03:49)
12. Imagine Dragons – Believer (03:21)
13. The Chainsmokers – Everybody Hates Me (03:37)
14. Martin Garrix & Dua Lipa – Scared to Be Lonely (03:39)
15. Sofi Tukker – Best Friend (feat. NERVO, The Knocks & Alisa Ueno) (03:01)
16. Pitbull – Greenlight (feat. Flo Rida & LunchMoney Lewis) [Radio Mix] (03:55)
17. Galantis – Peanut Butter Jelly (03:19)
18. Diana Ross – I'm Coming Out / Upside Down 2018 (04:41)

X Lossless Decoder version 20191004 (152.0)

XLD extraction logfile from 2020-01-20 06:44:42 -0800

Various Artists / Now That’s What I Call Party Anthems 4

Used drive : PIONEER BD-RW BDR-XD05 (revision 3.10)
Media type : Pressed CD

Ripper mode : XLD Secure Ripper
Disable audio cache : OK for the drive with a cache less than 1375KiB
Make use of C2 pointers : NO
Read offset correction : 667
Max retry count : 100
Gap status : Analyzed, Appended (except HTOA)

TOC of the extracted CD
Track | Start | Length | Start sector | End sector
––––––––––––––––––––––––––––-
1 | 00:00:00 | 02:54:32 | 0 | 13081
2 | 02:54:32 | 03:15:68 | 13082 | 27774
3 | 06:10:25 | 03:19:40 | 27775 | 42739
4 | 09:29:65 | 03:11:56 | 42740 | 57120
5 | 12:41:46 | 02:24:02 | 57121 | 67922
6 | 15:05:48 | 03:44:67 | 67923 | 84789
7 | 18:50:40 | 03:37:03 | 84790 | 101067
8 | 22:27:43 | 04:47:00 | 101068 | 122592
9 | 27:14:43 | 03:00:50 | 122593 | 136142
10 | 30:15:18 | 03:19:60 | 136143 | 151127
11 | 33:35:03 | 03:49:71 | 151128 | 168373
12 | 37:24:74 | 03:21:64 | 168374 | 183512
13 | 40:46:63 | 03:37:44 | 183513 | 199831
14 | 44:24:32 | 03:39:43 | 199832 | 216299
15 | 48:04:00 | 03:01:36 | 216300 | 229910
16 | 51:05:36 | 03:55:32 | 229911 | 247567
17 | 55:00:68 | 03:19:10 | 247568 | 262502
18 | 58:20:03 | 04:41:70 | 262503 | 283647

AccurateRip Summary (DiscID: 00279cac-02155629-fa0ec512)
Track 01 : OK (v2, confidence 12/12)
Track 02 : OK (v2, confidence 12/12)
Track 03 : OK (v2, confidence 12/12)
Track 04 : OK (v2, confidence 12/12)
Track 05 : OK (v2, confidence 10/10)
Track 06 : OK (v2, confidence 12/12)
Track 07 : OK (v2, confidence 12/12)
Track 08 : OK (v2, confidence 12/12)
Track 09 : OK (v2, confidence 12/12)
Track 10 : OK (v2, confidence 12/12)
Track 11 : OK (v2, confidence 12/12)
Track 12 : OK (v2, confidence 12/12)
Track 13 : OK (v2, confidence 12/12)
Track 14 : OK (v2, confidence 12/12)
Track 15 : OK (v2, confidence 12/12)
Track 16 : OK (v2, confidence 12/12)
Track 17 : OK (v2, confidence 12/12)
Track 18 : OK (v2, confidence 12/12)
->All tracks accurately ripped.

All Tracks
Album gain : -10.14 dB
Peak : 0.999969
Statistics
Read error : 0
Jitter error (maybe fixed) : 0
Retry sector count : 0
Damaged sector count : 0

Track 01
Filename : /Volumes/Hollywood and Vine/Rips/Various Artists - Now That’s What I Call Party Anthems 4 (2018) [FLAC]/01 Camila Cabello feat. Young Thug - Havana.flac
Pre-gap length : 00:02:00

Track gain : -9.12 dB
Peak : 0.998871
CRC32 hash (test run) : 52547E8E
CRC32 hash : 52547E8E
CRC32 hash (skip zero) : 98935424
AccurateRip v1 signature : B1881402
AccurateRip v2 signature : 6A425775
->Accurately ripped (v2, confidence 12/12)
Statistics
Read error : 0
Jitter error (maybe fixed) : 0
Retry sector count : 0
Damaged sector count : 0

Track 02
Filename : /Volumes/Hollywood and Vine/Rips/Various Artists - Now That’s What I Call Party Anthems 4 (2018) [FLAC]/02 Maroon 5 feat. SZA - What Lovers Do.flac

Track gain : -10.54 dB
Peak : 0.964813
CRC32 hash (test run) : E6EE5152
CRC32 hash : E6EE5152
CRC32 hash (skip zero) : 4A5A4BD8
AccurateRip v1 signature : E9CD95AD
AccurateRip v2 signature : BE78B6A0
->Accurately ripped (v2, confidence 12/12)
Statistics
Read error : 0
Jitter error (maybe fixed) : 0
Retry sector count : 0
Damaged sector count : 0

Track 03
Filename : /Volumes/Hollywood and Vine/Rips/Various Artists - Now That’s What I Call Party Anthems 4 (2018) [FLAC]/03 Demi Lovato - Sorry Not Sorry.flac

Track gain : -9.77 dB
Peak : 0.998871
CRC32 hash (test run) : 54B2343E
CRC32 hash : 54B2343E
CRC32 hash (skip zero) : D48B31D5
AccurateRip v1 signature : 8C2D9AD5
AccurateRip v2 signature : 7A349153
->Accurately ripped (v2, confidence 12/12)
Statistics
Read error : 0
Jitter error (maybe fixed) : 0
Retry sector count : 0
Damaged sector count : 0

Track 04
Filename : /Volumes/Hollywood and Vine/Rips/Various Artists - Now That’s What I Call Party Anthems 4 (2018) [FLAC]/04 Migos - Stir Fry.flac

Track gain : -10.14 dB
Peak : 0.999023
CRC32 hash (test run) : 241FCE16
CRC32 hash : 241FCE16
CRC32 hash (skip zero) : A91EA1FC
AccurateRip v1 signature : 1002099D
AccurateRip v2 signature : 4AE8CB29
->Accurately ripped (v2, confidence 12/12)
Statistics
Read error : 0
Jitter error (maybe fixed) : 0
Retry sector count : 0
Damaged sector count : 0

Track 05
Filename : /Volumes/Hollywood and Vine/Rips/Various Artists - Now That’s What I Call Party Anthems 4 (2018) [FLAC]/05 Zay Hilfigerrr & Zayion McCall - Juju on That Beat (TZ Anthem).flac

Track gain : -9.34 dB
Peak : 0.999969
CRC32 hash (test run) : 2CD02E5D
CRC32 hash : 2CD02E5D
CRC32 hash (skip zero) : 5687DC28
AccurateRip v1 signature : 81A577AC
AccurateRip v2 signature : 5484F6AE
->Accurately ripped (v2, confidence 10/10)
Statistics
Read error : 0
Jitter error (maybe fixed) : 0
Retry sector count : 0
Damaged sector count : 0

Track 06
Filename : /Volumes/Hollywood and Vine/Rips/Various Artists - Now That’s What I Call Party Anthems 4 (2018) [FLAC]/06 Desiigner - Panda.flac

Track gain : -9.28 dB
Peak : 0.977234
CRC32 hash (test run) : DE12BC97
CRC32 hash : DE12BC97
CRC32 hash (skip zero) : B7FF34F9
AccurateRip v1 signature : 3F4408DF
AccurateRip v2 signature : 4BD95CE2
->Accurately ripped (v2, confidence 12/12)
Statistics
Read error : 0
Jitter error (maybe fixed) : 0
Retry sector count : 0
Damaged sector count : 0

Track 07
Filename : /Volumes/Hollywood and Vine/Rips/Various Artists - Now That’s What I Call Party Anthems 4 (2018) [FLAC]/07 Post Malone feat. 21 Savage - rockstar.flac

Track gain : -9.39 dB
Peak : 0.990723
CRC32 hash (test run) : AC370559
CRC32 hash : AC370559
CRC32 hash (skip zero) : C900672F
AccurateRip v1 signature : 3CB2EC63
AccurateRip v2 signature : 9F842573
->Accurately ripped (v2, confidence 12/12)
Statistics
Read error : 0
Jitter error (maybe fixed) : 0
Retry sector count : 0
Damaged sector count : 0

Track 08
Filename : /Volumes/Hollywood and Vine/Rips/Various Artists - Now That’s What I Call Party Anthems 4 (2018) [FLAC]/08 DJ Khaled feat. Justin Bieber, Quavo, Chance the Rapper & Lil Wayne - I’m the One.flac

Track gain : -11.72 dB
Peak : 0.990204
CRC32 hash (test run) : 8A27F9A7
CRC32 hash : 8A27F9A7
CRC32 hash (skip zero) : 6E911AC8
AccurateRip v1 signature : 5DA81227
AccurateRip v2 signature : DD498A9E
->Accurately ripped (v2, confidence 12/12)
Statistics
Read error : 0
Jitter error (maybe fixed) : 0
Retry sector count : 0
Damaged sector count : 0

Track 09
Filename : /Volumes/Hollywood and Vine/Rips/Various Artists - Now That’s What I Call Party Anthems 4 (2018) [FLAC]/09 Future - Mask Off (Marshmello remix).flac

Track gain : -9.08 dB
Peak : 0.988953
CRC32 hash (test run) : 867D3978
CRC32 hash : 867D3978
CRC32 hash (skip zero) : 5F53576F
AccurateRip v1 signature : 9D699D0D
AccurateRip v2 signature : AD683A33
->Accurately ripped (v2, confidence 12/12)
Statistics
Read error : 0
Jitter error (maybe fixed) : 0
Retry sector count : 0
Damaged sector count : 0

Track 10
Filename : /Volumes/Hollywood and Vine/Rips/Various Artists - Now That’s What I Call Party Anthems 4 (2018) [FLAC]/10 Khalid - Young Dumb & Broke.flac

Track gain : -9.35 dB
Peak : 0.998871
CRC32 hash (test run) : ADFADF95
CRC32 hash : ADFADF95
CRC32 hash (skip zero) : 7D59FE3D
AccurateRip v1 signature : BDB2D928
AccurateRip v2 signature : 84B93CF8
->Accurately ripped (v2, confidence 12/12)
Statistics
Read error : 0
Jitter error (maybe fixed) : 0
Retry sector count : 0
Damaged sector count : 0

Track 11
Filename : /Volumes/Hollywood and Vine/Rips/Various Artists - Now That’s What I Call Party Anthems 4 (2018) [FLAC]/11 French Montana feat. Swae Lee - Unforgettable.flac

Track gain : -10.29 dB
Peak : 0.999969
CRC32 hash (test run) : 420FA192
CRC32 hash : 420FA192
CRC32 hash (skip zero) : 7CCAC4E9
AccurateRip v1 signature : A6E1C767
AccurateRip v2 signature : 5A595CA5
->Accurately ripped (v2, confidence 12/12)
Statistics
Read error : 0
Jitter error (maybe fixed) : 0
Retry sector count : 0
Damaged sector count : 0

Track 12
Filename : /Volumes/Hollywood and Vine/Rips/Various Artists - Now That’s What I Call Party Anthems 4 (2018) [FLAC]/12 Imagine Dragons - Believer.flac

Track gain : -11.46 dB
Peak : 0.999969
CRC32 hash (test run) : 07647D78
CRC32 hash : 07647D78
CRC32 hash (skip zero) : 8710CD89
AccurateRip v1 signature : EB38B92C
AccurateRip v2 signature : 96367DAE
->Accurately ripped (v2, confidence 12/12)
Statistics
Read error : 0
Jitter error (maybe fixed) : 0
Retry sector count : 0
Damaged sector count : 0

Track 13
Filename : /Volumes/Hollywood and Vine/Rips/Various Artists - Now That’s What I Call Party Anthems 4 (2018) [FLAC]/13 The Chainsmokers - Everybody Hates Me.flac

Track gain : -9.55 dB
Peak : 0.998871
CRC32 hash (test run) : 75B0DC43
CRC32 hash : 75B0DC43
CRC32 hash (skip zero) : B73B16AA
AccurateRip v1 signature : 5E280C3D
AccurateRip v2 signature : 5480C0B3
->Accurately ripped (v2, confidence 12/12)
Statistics
Read error : 0
Jitter error (maybe fixed) : 0
Retry sector count : 0
Damaged sector count : 0

Track 14
Filename : /Volumes/Hollywood and Vine/Rips/Various Artists - Now That’s What I Call Party Anthems 4 (2018) [FLAC]/14 Martin Garrix x Dua Lipa - Scared to Be Lonely.flac

Track gain : -8.33 dB
Peak : 0.984070
CRC32 hash (test run) : D7F6CBB2
CRC32 hash : D7F6CBB2
CRC32 hash (skip zero) : 5C6007AE
AccurateRip v1 signature : 03E5C198
AccurateRip v2 signature : 02CF2C74
->Accurately ripped (v2, confidence 12/12)
Statistics
Read error : 0
Jitter error (maybe fixed) : 0
Retry sector count : 0
Damaged sector count : 0

Track 15
Filename : /Volumes/Hollywood and Vine/Rips/Various Artists - Now That’s What I Call Party Anthems 4 (2018) [FLAC]/15 Sofi Tukker feat. NERVO, The Knocks & Alisa Ueno - Best Friend.flac

Track gain : -9.84 dB
Peak : 0.998840
CRC32 hash (test run) : 789F0BA1
CRC32 hash : 789F0BA1
CRC32 hash (skip zero) : C4DC2FEB
AccurateRip v1 signature : F786D382
AccurateRip v2 signature : BEB4CC72
->Accurately ripped (v2, confidence 12/12)
Statistics
Read error : 0
Jitter error (maybe fixed) : 0
Retry sector count : 0
Damaged sector count : 0

Track 16
Filename : /Volumes/Hollywood and Vine/Rips/Various Artists - Now That’s What I Call Party Anthems 4 (2018) [FLAC]/16 Pitbull feat. Flo Rida & LunchMoney Lewis - Greenlight.flac

Track gain : -9.79 dB
Peak : 0.984650
CRC32 hash (test run) : 1422CE97
CRC32 hash : 1422CE97
CRC32 hash (skip zero) : C065C75D
AccurateRip v1 signature : 4A9BA111
AccurateRip v2 signature : 734DDEBB
->Accurately ripped (v2, confidence 12/12)
Statistics
Read error : 0
Jitter error (maybe fixed) : 0
Retry sector count : 0
Damaged sector count : 0

Track 17
Filename : /Volumes/Hollywood and Vine/Rips/Various Artists - Now That’s What I Call Party Anthems 4 (2018) [FLAC]/17 Galantis - Peanut Butter Jelly.flac

Track gain : -10.59 dB
Peak : 0.970459
CRC32 hash (test run) : C59A3B71
CRC32 hash : C59A3B71
CRC32 hash (skip zero) : 3194E838
AccurateRip v1 signature : CDFA154F
AccurateRip v2 signature : 94D56FBA
->Accurately ripped (v2, confidence 12/12)
Statistics
Read error : 0
Jitter error (maybe fixed) : 0
Retry sector count : 0
Damaged sector count : 0

Track 18
Filename : /Volumes/Hollywood and Vine/Rips/Various Artists - Now That’s What I Call Party Anthems 4 (2018) [FLAC]/18 Diana Ross - I’m Coming Out x Upside Down 2018.flac

Track gain : -11.40 dB
Peak : 0.998871
CRC32 hash (test run) : 55BFCD36
CRC32 hash : 55BFCD36
CRC32 hash (skip zero) : 0231519E
AccurateRip v1 signature : E452F63F
AccurateRip v2 signature : FE19E47E
->Accurately ripped (v2, confidence 12/12)
Statistics
Read error : 0
Jitter error (maybe fixed) : 0
Retry sector count : 0
Damaged sector count : 0

No errors occurred

End of status report

––-BEGIN XLD SIGNATURE––-
Mwc.7mJxhm5jpgbBIWfUUSaVFO2f40nHBM_LbIXFkqkYbZRWxJzH3L8SGo13_1Fr87GDxyTojg4H6CHTqtGBdJTwErvXK9vWCFPjtna
––-END XLD SIGNATURE––-

Thanks to the Original ripper !