Subcategories
Tags
Language
Tags

VA - Greatest Ever! Punk & New Wave: The Definitive Collection (2013)

Posted By: delpotro
VA - Greatest Ever! Punk & New Wave: The Definitive Collection (2013)

VA - Greatest Ever! Punk & New Wave: The Definitive Collection (2013)
EAC Rip | FLAC (tracks+log+.cue) | 03:04:44 | 1,25 Gb
Punk Rock, Pop Punk, Post-Punk, New Wave | Label: Union Square Music

Greatest Ever Punk & New Wave brings together some of the most important tracks from this unique period of musical history. Taking material mainly from 1977 to 1982, the album features classic punk, new wave, ska and pop on 3CDs. From the scorching social commentary of Stiff Little Fingers 'Alternative Ulster', to the spooky groove of The Specials 'Ghost Town', Greatest Ever Punk & New Wave pays tribute to the artists - and the music - that shaped a new dawn of popular culture.
Tracklist:
Disc: 1
1. No More Heroes - The Stranglers
2. Alternative Ulster - Stiff Little Fingers
3. Into The Valley - Skids
4. Staring At The Rude Boys - The Ruts
5. Ever Fallen In Love - With Someone You Shouldn't've?
6. Jimmy Jimmy - The Undertones
7. Neat Neat Neat - The Damned
8. Borstal Breakout - Sham 69
9. I Got You - Split Enz
10. Do Anything You Wanna Do - Eddie and The Hot Rods
11. When I Dream - The Teardrop Explodes
12. Black Leather - The Runaways
13. Echo Beach - Martha and The Muffins
14. Is Vic There? - Department S
15. Swords Of A Thousand Men - Tenpole Tudor
16. Whole Wide World - Wreckless Eric
17. You'll Always Find Me In The Kitchen At Parties - Jona Lewie
18. Bingo - Masters Break
19. Johnny Was - Stiff Little Fingers

Disc: 2
1. One Step Beyond… - Madness
2. Ghost Town - The Specials
3. Mirror In The Bathroom - The Beat
4. Reasons To Be Cheerful - Part 3
5. I Don't Like Mondays - The Boomtown Rats
6. What I Like About You - The Romantics
7. Turning Japanese - The Vapors
8. Cool For Cats - Squeeze
9. Kings Of The Wild Frontier - Adam and the Ants
10. Reward - The Teardrop Explodes
11. On My Radio - The Selecter
12. Tears Of A Clown - The Beat
13. Lip Up Fatty - Bad Manners
14. I Heard It Through The Grapevine - The Slits
15. Police & Thieves - Junior Murvin
16. Baggy Trousers - Madness
17. Is She Really Going Out With Him? - Joe Jackson
18. Lucky Number - Lene Lovich
19. Special Brew - Bad Manners

Disc: 3
1. Don't Dictate - Penetration
2. Warhead - U.K. Subs
3. Holiday In Cambodia - Dead Kennedys
4. Woman In Disguise - Angelic Upstarts
5. Suspicious Minds - The Defects
6. Automatic Lover - The Vibrators
7. Action Time Vision - Alternative TV
8. Say When - Lene Lovich
9. Where's Captain Kirk - Spizzenergi
10. All Or Nothing - The Crack
11. Obsessed - 999
12. Time For Action - Secret Affair
13. Der Kommissar - After the Fire
14. Strange Boutique - The Monochrome Set
15. Butcher Baby - Plasmatics
16. I Hate People - Anti
17. Hard Day's Night - Slaughter And The Dogs
18. Drunken Sailor - U.K. Subs
19. Evidently Chicken Town - John Cooper Clarke

Exact Audio Copy V1.3 from 2. September 2016

EAC extraction logfile from 22. February 2019, 0:25

Various Artists / Greatest Ever! Punk & New Wave

Used drive : TSSTcorpCD/DVDW SH-S182D Adapter: 1 ID: 1

Read mode : Secure
Utilize accurate stream : Yes
Defeat audio cache : Yes
Make use of C2 pointers : No

Read offset correction : 6
Overread into Lead-In and Lead-Out : No
Fill up missing offset samples with silence : Yes
Delete leading and trailing silent blocks : No
Null samples used in CRC calculations : Yes
Used interface : Native Win32 interface for Win NT & 2000
Gap handling : Appended to previous track

Used output format : User Defined Encoder
Selected bitrate : 896 kBit/s
Quality : High
Add ID3 tag : No
Command line compressor : C:\Program Files (x86)\Exact Audio Copy\FLAC\FLAC.EXE
Additional command line options : -6 -V -T "ARTIST=%artist%" -T "TITLE=%title%" -T "ALBUM=%albumtitle%" -T "DATE=%year%" -T "TRACKNUMBER=%tracknr%" -T "GENRE=%genre%" -T "COMMENT=rip by wd" -T "BAND=%albuminterpret%" -T "ALBUMARTIST=%albuminterpret%" -T "COMPOSER=%composer%" %haslyrics%–tag-from-file=LYRICS="%lyricsfile%"%haslyrics% -T "DISCNUMBER=%cdnumber%" -T "TOTALDISCS=%totalcds%" -T "TOTALTRACKS=%numtracks%" %hascover%–picture="%coverfile%"%hascover% %source% -o %dest%


TOC of the extracted CD

Track | Start | Length | Start sector | End sector
––––––––––––––––––––––––––––-
1 | 0:00.00 | 2:56.07 | 0 | 13206
2 | 2:56.07 | 2:43.23 | 13207 | 25454
3 | 5:39.30 | 3:10.66 | 25455 | 39770
4 | 8:50.21 | 3:14.00 | 39771 | 54320
5 | 12:04.21 | 2:40.18 | 54321 | 66338
6 | 14:44.39 | 2:42.08 | 66339 | 78496
7 | 17:26.47 | 2:41.31 | 78497 | 90602
8 | 20:08.03 | 2:10.66 | 90603 | 100418
9 | 22:18.69 | 3:25.26 | 100419 | 115819
10 | 25:44.20 | 4:04.10 | 115820 | 134129
11 | 29:48.30 | 3:42.74 | 134130 | 150853
12 | 33:31.29 | 3:48.41 | 150854 | 167994
13 | 37:19.70 | 3:33.66 | 167995 | 184035
14 | 40:53.61 | 3:03.63 | 184036 | 197823
15 | 43:57.49 | 2:56.67 | 197824 | 211090
16 | 46:54.41 | 2:51.66 | 211091 | 223981
17 | 49:46.32 | 3:00.26 | 223982 | 237507
18 | 52:46.58 | 2:23.06 | 237508 | 248238
19 | 55:09.64 | 8:09.41 | 248239 | 284954


Track 1

Filename E:\22\VA - Greatest Ever! Punk & New Wave (The Definitive Collection) (2013) [FLAC 3CD]\CD1\01 - The Stranglers - No More Heroes (radio edit).wav

Pre-gap length 0:00:02.00

Peak level 87.1 %
Extraction speed 4.4 X
Track quality 100.0 %
Test CRC 9DC3481C
Copy CRC 9DC3481C
Accurately ripped (confidence 23) [09B8DBAA] (AR v2)
Copy OK

Track 2

Filename E:\22\VA - Greatest Ever! Punk & New Wave (The Definitive Collection) (2013) [FLAC 3CD]\CD1\02 - Stiff Little Fingers - Alternative Ulster.wav

Peak level 97.7 %
Extraction speed 4.0 X
Track quality 99.9 %
Test CRC 764E42D2
Copy CRC 764E42D2
Accurately ripped (confidence 22) [590CCDF6] (AR v2)
Copy OK

Track 3

Filename E:\22\VA - Greatest Ever! Punk & New Wave (The Definitive Collection) (2013) [FLAC 3CD]\CD1\03 - The Skids - Into the Valley.wav

Peak level 97.7 %
Extraction speed 4.4 X
Track quality 99.9 %
Test CRC 1123C05F
Copy CRC 1123C05F
Accurately ripped (confidence 23) [40DFD666] (AR v2)
Copy OK

Track 4

Filename E:\22\VA - Greatest Ever! Punk & New Wave (The Definitive Collection) (2013) [FLAC 3CD]\CD1\04 - The Ruts - Staring at the Rude Boys.wav

Peak level 97.7 %
Extraction speed 4.8 X
Track quality 100.0 %
Test CRC 6BA069D9
Copy CRC 6BA069D9
Accurately ripped (confidence 23) [7D36CAFB] (AR v2)
Copy OK

Track 5

Filename E:\22\VA - Greatest Ever! Punk & New Wave (The Definitive Collection) (2013) [FLAC 3CD]\CD1\05 - Buzzcocks - Ever Fallen in Love (With Someone You Shouldn’t’ve).wav

Peak level 95.5 %
Extraction speed 5.3 X
Track quality 100.0 %
Test CRC 79E84A66
Copy CRC 79E84A66
Accurately ripped (confidence 22) [D0FDE9A8] (AR v2)
Copy OK

Track 6

Filename E:\22\VA - Greatest Ever! Punk & New Wave (The Definitive Collection) (2013) [FLAC 3CD]\CD1\06 - The Undertones - Jimmy Jimmy.wav

Peak level 97.7 %
Extraction speed 4.5 X
Track quality 100.0 %
Test CRC 59C85DB9
Copy CRC 59C85DB9
Accurately ripped (confidence 22) [BBF2CDCE] (AR v2)
Copy OK

Track 7

Filename E:\22\VA - Greatest Ever! Punk & New Wave (The Definitive Collection) (2013) [FLAC 3CD]\CD1\07 - The Damned - Neat Neat Neat.wav

Peak level 97.7 %
Extraction speed 5.7 X
Track quality 100.0 %
Test CRC 2C2AED15
Copy CRC 2C2AED15
Accurately ripped (confidence 22) [28B193CE] (AR v2)
Copy OK

Track 8

Filename E:\22\VA - Greatest Ever! Punk & New Wave (The Definitive Collection) (2013) [FLAC 3CD]\CD1\08 - Sham 69 - Borstal Breakout.wav

Peak level 97.7 %
Extraction speed 5.8 X
Track quality 100.0 %
Test CRC ECDF5319
Copy CRC ECDF5319
Accurately ripped (confidence 22) [F95C5D07] (AR v2)
Copy OK

Track 9

Filename E:\22\VA - Greatest Ever! Punk & New Wave (The Definitive Collection) (2013) [FLAC 3CD]\CD1\09 - Split Enz - I Got You.wav

Peak level 97.7 %
Extraction speed 6.5 X
Track quality 100.0 %
Test CRC 0C45B2B3
Copy CRC 0C45B2B3
Accurately ripped (confidence 23) [50E1F852] (AR v2)
Copy OK

Track 10

Filename E:\22\VA - Greatest Ever! Punk & New Wave (The Definitive Collection) (2013) [FLAC 3CD]\CD1\10 - Eddie & The Hot Rods - Do Anything You Wanna Do.wav

Peak level 85.1 %
Extraction speed 6.6 X
Track quality 100.0 %
Test CRC E766A766
Copy CRC E766A766
Accurately ripped (confidence 22) [0264E9F7] (AR v2)
Copy OK

Track 11

Filename E:\22\VA - Greatest Ever! Punk & New Wave (The Definitive Collection) (2013) [FLAC 3CD]\CD1\11 - The Teardrop Explodes - When I Dream.wav

Peak level 95.5 %
Extraction speed 6.6 X
Track quality 100.0 %
Test CRC EB195595
Copy CRC EB195595
Accurately ripped (confidence 22) [9B676C48] (AR v2)
Copy OK

Track 12

Filename E:\22\VA - Greatest Ever! Punk & New Wave (The Definitive Collection) (2013) [FLAC 3CD]\CD1\12 - The Runaways - Black Leather.wav

Peak level 97.7 %
Extraction speed 7.1 X
Track quality 100.0 %
Test CRC ED729A14
Copy CRC ED729A14
Accurately ripped (confidence 22) [51E7F275] (AR v2)
Copy OK

Track 13

Filename E:\22\VA - Greatest Ever! Punk & New Wave (The Definitive Collection) (2013) [FLAC 3CD]\CD1\13 - Martha and the Muffins - Echo Beach.wav

Peak level 76.7 %
Extraction speed 7.5 X
Track quality 100.0 %
Test CRC 3FB78A19
Copy CRC 3FB78A19
Accurately ripped (confidence 23) [40937247] (AR v2)
Copy OK

Track 14

Filename E:\22\VA - Greatest Ever! Punk & New Wave (The Definitive Collection) (2013) [FLAC 3CD]\CD1\14 - Department S - Is Vic There.wav

Peak level 97.7 %
Extraction speed 7.5 X
Track quality 100.0 %
Test CRC 4BD26FC7
Copy CRC 4BD26FC7
Accurately ripped (confidence 22) [93CFD034] (AR v2)
Copy OK

Track 15

Filename E:\22\VA - Greatest Ever! Punk & New Wave (The Definitive Collection) (2013) [FLAC 3CD]\CD1\15 - Tenpole Tudor - Swords of a Thousand Men.wav

Peak level 97.7 %
Extraction speed 7.4 X
Track quality 100.0 %
Test CRC 96CE407E
Copy CRC 96CE407E
Accurately ripped (confidence 22) [F6EC0050] (AR v2)
Copy OK

Track 16

Filename E:\22\VA - Greatest Ever! Punk & New Wave (The Definitive Collection) (2013) [FLAC 3CD]\CD1\16 - Wreckless Eric - Whole Wide World.wav

Peak level 97.7 %
Extraction speed 7.5 X
Track quality 100.0 %
Test CRC 0EB75400
Copy CRC 0EB75400
Accurately ripped (confidence 22) [5A4647E7] (AR v2)
Copy OK

Track 17

Filename E:\22\VA - Greatest Ever! Punk & New Wave (The Definitive Collection) (2013) [FLAC 3CD]\CD1\17 - Jona Lewie - You’ll Always Find Me in the Kitchen at Parties.wav

Peak level 86.1 %
Extraction speed 7.9 X
Track quality 100.0 %
Test CRC 399F13C8
Copy CRC 399F13C8
Accurately ripped (confidence 23) [DAD85689] (AR v2)
Copy OK

Track 18

Filename E:\22\VA - Greatest Ever! Punk & New Wave (The Definitive Collection) (2013) [FLAC 3CD]\CD1\18 - The Fall - Bingo‐Masters Break‐Out!.wav

Peak level 96.6 %
Extraction speed 6.4 X
Track quality 99.9 %
Test CRC B9BDC9E8
Copy CRC B9BDC9E8
Accurately ripped (confidence 22) [5B396CCC] (AR v2)
Copy OK

Track 19

Filename E:\22\VA - Greatest Ever! Punk & New Wave (The Definitive Collection) (2013) [FLAC 3CD]\CD1\19 - Stiff Little Fingers - Johnny Was.wav

Peak level 97.7 %
Extraction speed 9.3 X
Track quality 100.0 %
Test CRC 227FBA4F
Copy CRC 227FBA4F
Accurately ripped (confidence 23) [E1DB1B3D] (AR v2)
Copy OK


All tracks accurately ripped

No errors occurred

End of status report

–– AcoustID Plugin V1.2.0

Total fingerprints: 19


–– CUETools DB Plugin V2.1.6

[CTDB TOCID: axbZ_WqcQHzL_bVrW1Cx524x0nk-] found
Submit result: axbZ_WqcQHzL_bVrW1Cx524x0nk- has been confirmed
Track | CTDB Status
1 | (54/54) Accurately ripped
2 | (54/54) Accurately ripped
3 | (54/54) Accurately ripped
4 | (54/54) Accurately ripped
5 | (54/54) Accurately ripped
6 | (54/54) Accurately ripped
7 | (54/54) Accurately ripped
8 | (54/54) Accurately ripped
9 | (54/54) Accurately ripped
10 | (54/54) Accurately ripped
11 | (54/54) Accurately ripped
12 | (54/54) Accurately ripped
13 | (53/54) Accurately ripped
14 | (54/54) Accurately ripped
15 | (54/54) Accurately ripped
16 | (54/54) Accurately ripped
17 | (54/54) Accurately ripped
18 | (54/54) Accurately ripped
19 | (54/54) Accurately ripped


==== Log checksum 10DD19E47FC758118AA12E701364119169C7DB88014F42E672323D3AD1A8E6CC ====

Exact Audio Copy V1.3 from 2. September 2016

EAC extraction logfile from 22. February 2019, 1:19

Various Artists / Greatest Ever! Punk & New Wave: The Definitive Collection

Used drive : TSSTcorpCD/DVDW SH-S182D Adapter: 1 ID: 1

Read mode : Secure
Utilize accurate stream : Yes
Defeat audio cache : Yes
Make use of C2 pointers : No

Read offset correction : 6
Overread into Lead-In and Lead-Out : No
Fill up missing offset samples with silence : Yes
Delete leading and trailing silent blocks : No
Null samples used in CRC calculations : Yes
Used interface : Native Win32 interface for Win NT & 2000
Gap handling : Appended to previous track

Used output format : User Defined Encoder
Selected bitrate : 896 kBit/s
Quality : High
Add ID3 tag : No
Command line compressor : C:\Program Files (x86)\Exact Audio Copy\FLAC\FLAC.EXE
Additional command line options : -6 -V -T "ARTIST=%artist%" -T "TITLE=%title%" -T "ALBUM=%albumtitle%" -T "DATE=%year%" -T "TRACKNUMBER=%tracknr%" -T "GENRE=%genre%" -T "COMMENT=rip by wd" -T "BAND=%albuminterpret%" -T "ALBUMARTIST=%albuminterpret%" -T "COMPOSER=%composer%" %haslyrics%–tag-from-file=LYRICS="%lyricsfile%"%haslyrics% -T "DISCNUMBER=%cdnumber%" -T "TOTALDISCS=%totalcds%" -T "TOTALTRACKS=%numtracks%" %hascover%–picture="%coverfile%"%hascover% %source% -o %dest%


TOC of the extracted CD

Track | Start | Length | Start sector | End sector
––––––––––––––––––––––––––––-
1 | 0:00.00 | 2:19.16 | 0 | 10440
2 | 2:19.16 | 3:39.03 | 10441 | 26868
3 | 5:58.19 | 3:08.68 | 26869 | 41036
4 | 9:07.12 | 6:40.24 | 41037 | 71060
5 | 15:47.36 | 4:17.02 | 71061 | 90337
6 | 20:04.38 | 2:56.46 | 90338 | 103583
7 | 23:01.09 | 3:43.65 | 103584 | 120373
8 | 26:44.74 | 3:08.42 | 120374 | 134515
9 | 29:53.41 | 3:54.45 | 134516 | 152110
10 | 33:48.11 | 2:42.16 | 152111 | 164276
11 | 36:30.27 | 3:07.03 | 164277 | 178304
12 | 39:37.30 | 2:40.40 | 178305 | 190344
13 | 42:17.70 | 2:46.20 | 190345 | 202814
14 | 45:04.15 | 3:58.64 | 202815 | 220728
15 | 49:03.04 | 3:39.70 | 220729 | 237223
16 | 52:42.74 | 2:47.29 | 237224 | 249777
17 | 55:30.28 | 3:34.19 | 249778 | 265846
18 | 59:04.47 | 2:47.25 | 265847 | 278396
19 | 61:51.72 | 3:34.63 | 278397 | 294509


Track 1

Filename E:\22\VA - Greatest Ever! Punk & New Wave (The Definitive Collection) (2013) [FLAC 3CD]\CD2\01 - Madness - One Step Beyond….wav

Pre-gap length 0:00:02.00

Peak level 95.5 %
Extraction speed 4.2 X
Track quality 100.0 %
Test CRC 115E88D9
Copy CRC 115E88D9
Accurately ripped (confidence 21) [A3D9F624] (AR v2)
Copy OK

Track 2

Filename E:\22\VA - Greatest Ever! Punk & New Wave (The Definitive Collection) (2013) [FLAC 3CD]\CD2\02 - The Specials - Ghost Town.wav

Peak level 97.7 %
Extraction speed 4.9 X
Track quality 100.0 %
Test CRC 997BCB29
Copy CRC 997BCB29
Accurately ripped (confidence 21) [F9B04B4C] (AR v2)
Copy OK

Track 3

Filename E:\22\VA - Greatest Ever! Punk & New Wave (The Definitive Collection) (2013) [FLAC 3CD]\CD2\03 - The Beat - Mirror in the Bathroom.wav

Peak level 97.7 %
Extraction speed 4.4 X
Track quality 99.9 %
Test CRC F6CBA3E9
Copy CRC F6CBA3E9
Accurately ripped (confidence 21) [F6773FC5] (AR v2)
Copy OK

Track 4

Filename E:\22\VA - Greatest Ever! Punk & New Wave (The Definitive Collection) (2013) [FLAC 3CD]\CD2\04 - Ian Dury and The Blockheads - Reasons to Be Cheerful, Part 3.wav

Peak level 97.7 %
Extraction speed 6.1 X
Track quality 100.0 %
Test CRC 767AC235
Copy CRC 767AC235
Accurately ripped (confidence 22) [D16E1226] (AR v2)
Copy OK

Track 5

Filename E:\22\VA - Greatest Ever! Punk & New Wave (The Definitive Collection) (2013) [FLAC 3CD]\CD2\05 - The Boomtown Rats - I Don’t Like Mondays.wav

Peak level 97.7 %
Extraction speed 6.3 X
Track quality 100.0 %
Test CRC 7471DAA5
Copy CRC 7471DAA5
Accurately ripped (confidence 22) [DDB74B98] (AR v2)
Copy OK

Track 6

Filename E:\22\VA - Greatest Ever! Punk & New Wave (The Definitive Collection) (2013) [FLAC 3CD]\CD2\06 - The Romantics - What I Like About You (2000 Digital Remaster).wav

Peak level 95.5 %
Extraction speed 5.3 X
Track quality 99.9 %
Test CRC 3CF38CC3
Copy CRC 3CF38CC3
Accurately ripped (confidence 22) [AFF78DB2] (AR v2)
Copy OK

Track 7

Filename E:\22\VA - Greatest Ever! Punk & New Wave (The Definitive Collection) (2013) [FLAC 3CD]\CD2\07 - The Vapors - Turning Japanese.wav

Peak level 97.7 %
Extraction speed 6.6 X
Track quality 100.0 %
Test CRC 5F762C8B
Copy CRC 5F762C8B
Accurately ripped (confidence 23) [8463A3CF] (AR v2)
Copy OK

Track 8

Filename E:\22\VA - Greatest Ever! Punk & New Wave (The Definitive Collection) (2013) [FLAC 3CD]\CD2\08 - Squeeze!! - Cool for Cats.wav

Peak level 97.7 %
Extraction speed 5.6 X
Track quality 99.9 %
Test CRC 1D6608D6
Copy CRC 1D6608D6
Accurately ripped (confidence 21) [DB6E5153] (AR v2)
Copy OK

Track 9

Filename E:\22\VA - Greatest Ever! Punk & New Wave (The Definitive Collection) (2013) [FLAC 3CD]\CD2\09 - Adam and the Ants - Kings of the Wild Frontier.wav

Peak level 96.6 %
Extraction speed 7.0 X
Track quality 100.0 %
Test CRC F541DE46
Copy CRC F541DE46
Accurately ripped (confidence 22) [1A90DBBF] (AR v2)
Copy OK

Track 10

Filename E:\22\VA - Greatest Ever! Punk & New Wave (The Definitive Collection) (2013) [FLAC 3CD]\CD2\10 - The Teardrop Explodes - Reward.wav

Peak level 97.7 %
Extraction speed 6.8 X
Track quality 100.0 %
Test CRC F455C1FD
Copy CRC F455C1FD
Accurately ripped (confidence 21) [FEB3B508] (AR v2)
Copy OK

Track 11

Filename E:\22\VA - Greatest Ever! Punk & New Wave (The Definitive Collection) (2013) [FLAC 3CD]\CD2\11 - The Selecter - On My Radio.wav

Peak level 97.7 %
Extraction speed 7.1 X
Track quality 100.0 %
Test CRC E7114878
Copy CRC E7114878
Accurately ripped (confidence 21) [43D23AB5] (AR v2)
Copy OK

Track 12

Filename E:\22\VA - Greatest Ever! Punk & New Wave (The Definitive Collection) (2013) [FLAC 3CD]\CD2\12 - The Beat - Tears of a Clown.wav

Peak level 96.6 %
Extraction speed 7.2 X
Track quality 100.0 %
Test CRC 6AF049B9
Copy CRC 6AF049B9
Accurately ripped (confidence 21) [1921AF58] (AR v2)
Copy OK

Track 13

Filename E:\22\VA - Greatest Ever! Punk & New Wave (The Definitive Collection) (2013) [FLAC 3CD]\CD2\13 - Bad Manners - Lip Up Fatty.wav

Peak level 97.7 %
Extraction speed 7.3 X
Track quality 100.0 %
Test CRC 4A2B08A8
Copy CRC 4A2B08A8
Accurately ripped (confidence 22) [A0808E53] (AR v2)
Copy OK

Track 14

Filename E:\22\VA - Greatest Ever! Punk & New Wave (The Definitive Collection) (2013) [FLAC 3CD]\CD2\14 - The Slits - I Heard It Through the Grapevine.wav

Peak level 97.7 %
Extraction speed 7.9 X
Track quality 100.0 %
Test CRC BA724DC9
Copy CRC BA724DC9
Accurately ripped (confidence 22) [A7E6EB5D] (AR v2)
Copy OK

Track 15

Filename E:\22\VA - Greatest Ever! Punk & New Wave (The Definitive Collection) (2013) [FLAC 3CD]\CD2\15 - Junior Murvin - Police and Thieves.wav

Peak level 97.7 %
Extraction speed 7.9 X
Track quality 100.0 %
Test CRC 9D97B958
Copy CRC 9D97B958
Accurately ripped (confidence 22) [AFAB9D9B] (AR v2)
Copy OK

Track 16

Filename E:\22\VA - Greatest Ever! Punk & New Wave (The Definitive Collection) (2013) [FLAC 3CD]\CD2\16 - Madness - Baggy Trousers.wav

Peak level 95.5 %
Extraction speed 7.6 X
Track quality 100.0 %
Test CRC 0517B093
Copy CRC 0517B093
Accurately ripped (confidence 22) [BD30C164] (AR v2)
Copy OK

Track 17

Filename E:\22\VA - Greatest Ever! Punk & New Wave (The Definitive Collection) (2013) [FLAC 3CD]\CD2\17 - Joe Jackson - Is She Really Going Out With Him.wav

Peak level 97.7 %
Extraction speed 8.0 X
Track quality 100.0 %
Test CRC 9FFCF4B0
Copy CRC 9FFCF4B0
Accurately ripped (confidence 22) [54E6A322] (AR v2)
Copy OK

Track 18

Filename E:\22\VA - Greatest Ever! Punk & New Wave (The Definitive Collection) (2013) [FLAC 3CD]\CD2\18 - Lene Lovich - Lucky Number.wav

Peak level 97.7 %
Extraction speed 6.8 X
Track quality 99.9 %
Test CRC AA3E3938
Copy CRC AA3E3938
Accurately ripped (confidence 21) [3E328063] (AR v2)
Copy OK

Track 19

Filename E:\22\VA - Greatest Ever! Punk & New Wave (The Definitive Collection) (2013) [FLAC 3CD]\CD2\19 - Bad Manners - Special Brew.wav

Peak level 97.7 %
Extraction speed 6.6 X
Track quality 100.0 %
Test CRC C53F95D4
Copy CRC C53F95D4
Accurately ripped (confidence 22) [A6D65965] (AR v2)
Copy OK


All tracks accurately ripped

No errors occurred

End of status report

–– AcoustID Plugin V1.2.0

Total fingerprints: 19


–– CUETools DB Plugin V2.1.6

[CTDB TOCID: 5b4SKmW.gac4yi_VHZPqmsSshgU-] found
Submit result: already submitted
Track | CTDB Status
1 | (50/50) Accurately ripped
2 | (50/50) Accurately ripped
3 | (50/50) Accurately ripped
4 | (50/50) Accurately ripped
5 | (50/50) Accurately ripped
6 | (50/50) Accurately ripped
7 | (50/50) Accurately ripped
8 | (50/50) Accurately ripped
9 | (50/50) Accurately ripped
10 | (50/50) Accurately ripped
11 | (50/50) Accurately ripped
12 | (50/50) Accurately ripped
13 | (50/50) Accurately ripped
14 | (50/50) Accurately ripped
15 | (50/50) Accurately ripped
16 | (50/50) Accurately ripped
17 | (50/50) Accurately ripped
18 | (50/50) Accurately ripped
19 | (49/50) Accurately ripped


==== Log checksum 56298E1C6492691F60122FC5794BBE05CB709A6BE41BAC80E9C635F456B6F9A0 ====

Exact Audio Copy V1.3 from 2. September 2016

EAC extraction logfile from 22. February 2019, 1:19

Various Artists / Greatest Ever! Punk & New Wave: The Definitive Collection

Used drive : ASUS DRW-24D5MT Adapter: 1 ID: 0

Read mode : Secure
Utilize accurate stream : Yes
Defeat audio cache : Yes
Make use of C2 pointers : No

Read offset correction : 6
Overread into Lead-In and Lead-Out : No
Fill up missing offset samples with silence : Yes
Delete leading and trailing silent blocks : No
Null samples used in CRC calculations : Yes
Used interface : Native Win32 interface for Win NT & 2000
Gap handling : Appended to previous track

Used output format : User Defined Encoder
Selected bitrate : 896 kBit/s
Quality : High
Add ID3 tag : No
Command line compressor : C:\Program Files (x86)\Exact Audio Copy\FLAC\FLAC.EXE
Additional command line options : -6 -V -T "ARTIST=%artist%" -T "TITLE=%title%" -T "ALBUM=%albumtitle%" -T "DATE=%year%" -T "TRACKNUMBER=%tracknr%" -T "GENRE=%genre%" -T "COMMENT=rip by wd" -T "BAND=%albuminterpret%" -T "ALBUMARTIST=%albuminterpret%" -T "COMPOSER=%composer%" %haslyrics%–tag-from-file=LYRICS="%lyricsfile%"%haslyrics% -T "DISCNUMBER=%cdnumber%" -T "TOTALDISCS=%totalcds%" -T "TOTALTRACKS=%numtracks%" %hascover%–picture="%coverfile%"%hascover% %source% -o %dest%


TOC of the extracted CD

Track | Start | Length | Start sector | End sector
––––––––––––––––––––––––––––-
1 | 0:00.00 | 2:54.24 | 0 | 13073
2 | 2:54.24 | 3:03.28 | 13074 | 26826
3 | 5:57.52 | 3:45.66 | 26827 | 43767
4 | 9:43.43 | 3:07.34 | 43768 | 57826
5 | 12:51.02 | 3:19.22 | 57827 | 72773
6 | 16:10.24 | 2:35.46 | 72774 | 84444
7 | 18:45.70 | 2:32.72 | 84445 | 95916
8 | 21:18.67 | 2:48.11 | 95917 | 108527
9 | 24:07.03 | 2:17.08 | 108528 | 118810
10 | 26:24.11 | 2:57.47 | 118811 | 132132
11 | 29:21.58 | 2:48.29 | 132133 | 144761
12 | 32:10.12 | 2:43.31 | 144762 | 157017
13 | 34:53.43 | 4:08.26 | 157018 | 175643
14 | 39:01.69 | 2:55.05 | 175644 | 188773
15 | 41:56.74 | 3:33.26 | 188774 | 204774
16 | 45:30.25 | 2:23.30 | 204775 | 215529
17 | 47:53.55 | 2:15.37 | 215530 | 225691
18 | 50:09.17 | 3:29.29 | 225692 | 241395
19 | 53:38.46 | 2:19.70 | 241396 | 251890


Track 1

Filename E:\22\VA - Greatest Ever! Punk & New Wave (The Definitive Collection) (2013) [FLAC 3CD]\CD3\01 - Penetration - Don’t Dictate.wav

Pre-gap length 0:00:02.00

Peak level 97.7 %
Extraction speed 4.4 X
Track quality 100.0 %
Test CRC B3F347A3
Copy CRC B3F347A3
Accurately ripped (confidence 21) [CCD74FD4] (AR v2)
Copy OK

Track 2

Filename E:\22\VA - Greatest Ever! Punk & New Wave (The Definitive Collection) (2013) [FLAC 3CD]\CD3\02 - UK Subs - Warhead.wav

Peak level 86.1 %
Extraction speed 4.8 X
Track quality 100.0 %
Test CRC A5B95F89
Copy CRC A5B95F89
Accurately ripped (confidence 21) [0CCA07F1] (AR v2)
Copy OK

Track 3

Filename E:\22\VA - Greatest Ever! Punk & New Wave (The Definitive Collection) (2013) [FLAC 3CD]\CD3\03 - Dead Kennedys - Holiday in Cambodia.wav

Peak level 92.2 %
Extraction speed 5.3 X
Track quality 100.0 %
Test CRC BD4AC202
Copy CRC BD4AC202
Accurately ripped (confidence 21) [297A5085] (AR v2)
Copy OK

Track 4

Filename E:\22\VA - Greatest Ever! Punk & New Wave (The Definitive Collection) (2013) [FLAC 3CD]\CD3\04 - Angelic Upstarts - Woman in Disguise.wav

Peak level 97.7 %
Extraction speed 5.4 X
Track quality 100.0 %
Test CRC 551E362C
Copy CRC 551E362C
Accurately ripped (confidence 21) [8379ADB4] (AR v2)
Copy OK

Track 5

Filename E:\22\VA - Greatest Ever! Punk & New Wave (The Definitive Collection) (2013) [FLAC 3CD]\CD3\05 - The Defects - Suspicious Minds.wav

Peak level 97.7 %
Extraction speed 5.8 X
Track quality 100.0 %
Test CRC C6F76202
Copy CRC C6F76202
Accurately ripped (confidence 21) [D1A12CF6] (AR v2)
Copy OK

Track 6

Filename E:\22\VA - Greatest Ever! Punk & New Wave (The Definitive Collection) (2013) [FLAC 3CD]\CD3\06 - The Vibrators - Automatic Lover.wav

Peak level 97.7 %
Extraction speed 5.8 X
Track quality 100.0 %
Test CRC BCA32E2F
Copy CRC BCA32E2F
Accurately ripped (confidence 21) [15D92094] (AR v2)
Copy OK

Track 7

Filename E:\22\VA - Greatest Ever! Punk & New Wave (The Definitive Collection) (2013) [FLAC 3CD]\CD3\07 - Alternative TV - Action Time Vision.wav

Peak level 95.5 %
Extraction speed 6.0 X
Track quality 100.0 %
Test CRC 49919D27
Copy CRC 49919D27
Accurately ripped (confidence 21) [AB603E62] (AR v2)
Copy OK

Track 8

Filename E:\22\VA - Greatest Ever! Punk & New Wave (The Definitive Collection) (2013) [FLAC 3CD]\CD3\08 - Lene Lovich - Say When.wav

Peak level 97.5 %
Extraction speed 6.2 X
Track quality 100.0 %
Test CRC D44EF2C7
Copy CRC D44EF2C7
Accurately ripped (confidence 21) [9A943536] (AR v2)
Copy OK

Track 9

Filename E:\22\VA - Greatest Ever! Punk & New Wave (The Definitive Collection) (2013) [FLAC 3CD]\CD3\09 - Spizzenergi - Where’s Captain Kirk.wav

Peak level 97.7 %
Extraction speed 5.1 X
Track quality 99.9 %
Test CRC 8DBBBD22
Copy CRC 8DBBBD22
Accurately ripped (confidence 21) [2FB5CCEE] (AR v2)
Copy OK

Track 10

Filename E:\22\VA - Greatest Ever! Punk & New Wave (The Definitive Collection) (2013) [FLAC 3CD]\CD3\10 - Crack - All or Nothing.wav

Peak level 97.7 %
Extraction speed 5.7 X
Track quality 99.9 %
Test CRC 2EA009F2
Copy CRC 2EA009F2
Accurately ripped (confidence 21) [AB57727A] (AR v2)
Copy OK

Track 11

Filename E:\22\VA - Greatest Ever! Punk & New Wave (The Definitive Collection) (2013) [FLAC 3CD]\CD3\11 - 999 - Obsessed.wav

Peak level 97.7 %
Extraction speed 6.8 X
Track quality 100.0 %
Test CRC FB711115
Copy CRC FB711115
Accurately ripped (confidence 21) [D063BC56] (AR v2)
Copy OK

Track 12

Filename E:\22\VA - Greatest Ever! Punk & New Wave (The Definitive Collection) (2013) [FLAC 3CD]\CD3\12 - Secret Affair - Time for Action.wav

Peak level 89.1 %
Extraction speed 6.9 X
Track quality 100.0 %
Test CRC DA68A1B1
Copy CRC DA68A1B1
Accurately ripped (confidence 21) [C9FB5942] (AR v2)
Copy OK

Track 13

Filename E:\22\VA - Greatest Ever! Punk & New Wave (The Definitive Collection) (2013) [FLAC 3CD]\CD3\13 - After the Fire - Der Kommissar.wav

Peak level 97.7 %
Extraction speed 6.8 X
Track quality 99.9 %
Test CRC 49B43C49
Copy CRC 49B43C49
Accurately ripped (confidence 21) [CB87BC7C] (AR v2)
Copy OK

Track 14

Filename E:\22\VA - Greatest Ever! Punk & New Wave (The Definitive Collection) (2013) [FLAC 3CD]\CD3\14 - The Monochrome Set - Strange Boutique.wav

Peak level 95.5 %
Extraction speed 7.3 X
Track quality 100.0 %
Test CRC 0F446B60
Copy CRC 0F446B60
Accurately ripped (confidence 21) [E2385DB2] (AR v2)
Copy OK

Track 15

Filename E:\22\VA - Greatest Ever! Punk & New Wave (The Definitive Collection) (2013) [FLAC 3CD]\CD3\15 - Plasmatics - Butcher Baby.wav

Peak level 95.5 %
Extraction speed 7.7 X
Track quality 100.0 %
Test CRC 9ECB4AEA
Copy CRC 9ECB4AEA
Accurately ripped (confidence 21) [1718E4E3] (AR v2)
Copy OK

Track 16

Filename E:\22\VA - Greatest Ever! Punk & New Wave (The Definitive Collection) (2013) [FLAC 3CD]\CD3\16 - Anti-Nowhere League - I Hate People.wav

Peak level 90.1 %
Extraction speed 6.2 X
Track quality 99.9 %
Test CRC A634E3CE
Copy CRC A634E3CE
Accurately ripped (confidence 21) [69AE3C13] (AR v2)
Copy OK

Track 17

Filename E:\22\VA - Greatest Ever! Punk & New Wave (The Definitive Collection) (2013) [FLAC 3CD]\CD3\17 - Slaughter and the Dogs - Hard Day’s Night.wav

Peak level 96.6 %
Extraction speed 7.5 X
Track quality 100.0 %
Test CRC BD3B03DC
Copy CRC BD3B03DC
Accurately ripped (confidence 21) [9567F5BF] (AR v2)
Copy OK

Track 18

Filename E:\22\VA - Greatest Ever! Punk & New Wave (The Definitive Collection) (2013) [FLAC 3CD]\CD3\18 - UK Subs - Drunken Sailor.wav

Peak level 95.5 %
Extraction speed 8.2 X
Track quality 100.0 %
Test CRC ACB0188C
Copy CRC ACB0188C
Accurately ripped (confidence 21) [0BE2C07F] (AR v2)
Copy OK

Track 19

Filename E:\22\VA - Greatest Ever! Punk & New Wave (The Definitive Collection) (2013) [FLAC 3CD]\CD3\19 - John Cooper Clarke - Evidently Chicken Town.wav

Peak level 96.6 %
Extraction speed 7.6 X
Track quality 100.0 %
Test CRC C542068C
Copy CRC C542068C
Accurately ripped (confidence 21) [23ED0658] (AR v2)
Copy OK


All tracks accurately ripped

No errors occurred

End of status report

–– AcoustID Plugin V1.2.0

Total fingerprints: 19


–– CUETools DB Plugin V2.1.6

[CTDB TOCID: _hGRNVeWWonw0C34ZoWMU5waTpM-] found
Submit result: already submitted
Track | CTDB Status
1 | (49/49) Accurately ripped
2 | (49/49) Accurately ripped
3 | (49/49) Accurately ripped
4 | (49/49) Accurately ripped
5 | (49/49) Accurately ripped
6 | (49/49) Accurately ripped
7 | (49/49) Accurately ripped
8 | (49/49) Accurately ripped
9 | (49/49) Accurately ripped
10 | (49/49) Accurately ripped
11 | (49/49) Accurately ripped
12 | (49/49) Accurately ripped
13 | (49/49) Accurately ripped
14 | (49/49) Accurately ripped
15 | (49/49) Accurately ripped
16 | (49/49) Accurately ripped
17 | (49/49) Accurately ripped
18 | (49/49) Accurately ripped
19 | (48/49) Accurately ripped


==== Log checksum 7951D1C2A8D9A218F2E465B6BD927336F4C44A468FD4723B4B7411D4C04DC972 ====

Thanks to the Original ripper dalaylama !