Subcategories

VA - Satan in Love: Rare Finnish Synth-Pop & Disco 1979-1992 (2018)

Posted By: delpotro
VA - Satan in Love: Rare Finnish Synth-Pop & Disco 1979-1992 (2018)

VA - Satan in Love: Rare Finnish Synth-Pop & Disco 1979-1992 (2018)
EAC Rip | FLAC (tracks+log+.cue) - 519 Mb | MP3 CBR 320 kbps - 180 Mb | 01:18:29
Synthpop, Disco | Label: Svart Records

The colourful catalogue of Finland’s Svart Records spans material old and new, but seems to specialise in scarce gems from the forested country’s underground music history. In this case, we have a tour de force of several decades’ worth of Suomi synthpop and disco. ‘Satan in Love’ by Emilia is a notorious inclusion and alone speaks volumes of the quality on offer. Loistava homma!
Tracklist:
1. Fredi – Se Outoa On -Magic Fly- (03:37)
2. Stiina – Automaattirakas -Automatic Lover- (03:33)
3. Stressi – Tatsia (04:04)
4. Digital Dance – Cairo (03:57)
5. Emilia – Satan In Love (03:21)
6. Argon – San Salvador (02:36)
7. Leevi And The Leavings – En Tahdo Sinua Enää (04:09)
8. Belaboris – Kuolleet Peilit (03:10)
9. Tyhjät Patterit – Liian Myöhään (03:40)
10. Raya – Harhaa (03:12)
11. Heinäsirkka – Rakkaus (03:33)
12. BB – Computer Talk (02:46)
13. Tapa Paha Tapa – Vanha Suola Janottaa (04:03)
14. Tapa Paha Tapa – Mennyt Maailma (03:21)
15. Syntax – Help Me (03:39)
16. Tuija – Fiilis (03:46)
17. Meiju Suvas – Pidä Musta Kiinni (03:45)
18. Jerry – Nyt Tanssitaan (03:01)
19. Mick Hanian – 17-Up (02:42)
20. Fresco – Jousimiehen Kuolema (03:23)
21. Press – Fashion Maailma (03:36)
22. Juha Ahlgren – Puutarha -Don’t Cry Tonight- (04:11)

Exact Audio Copy V1.0 beta 3 from 29. August 2011

EAC extraction logfile from 12. November 2018, 22:00

Various Artists / Satan in Love: Rare Finnish Synth-Pop & Disco 1979–1992

Used drive : HL-DT-STDVDRAM GH22NS70 Adapter: 2 ID: 0

Read mode : Secure
Utilize accurate stream : Yes
Defeat audio cache : Yes
Make use of C2 pointers : No

Read offset correction : 667
Overread into Lead-In and Lead-Out : No
Fill up missing offset samples with silence : Yes
Delete leading and trailing silent blocks : No
Null samples used in CRC calculations : Yes
Used interface : Native Win32 interface for Win NT & 2000
Gap handling : Appended to previous track

Used output format : User Defined Encoder
Selected bitrate : 1024 kBit/s
Quality : High
Add ID3 tag : No
Command line compressor : C:\Program Files (x86)\FLAC\flac.exe
Additional command line options : -8 -V -T "ARTIST=%artist%" -T "TITLE=%title%" -T "ALBUM=%albumtitle%" -T "DATE=%year%" -T "TRACKNUMBER=%tracknr%" -T "GENRE=%genre%" -T "PERFORMER=%albuminterpret%" -T "COMPOSER=%composer%" %haslyrics%–tag-from-file=LYRICS="%lyricsfile%"%haslyrics% -T "ALBUMARTIST=%albumartist%" -T "DISCNUMBER=%cdnumber%" -T "TOTALDISCS=%totalcds%" -T "TOTALTRACKS=%numtracks%" -T "COMMENT=%comment%" %source% -o %dest%


TOC of the extracted CD

Track | Start | Length | Start sector | End sector
––––––––––––––––––––––––––––-
1 | 0:00.00 | 3:40.28 | 0 | 16527
2 | 3:40.28 | 3:37.64 | 16528 | 32866
3 | 7:18.17 | 4:07.55 | 32867 | 51446
4 | 11:25.72 | 4:01.44 | 51447 | 69565
5 | 15:27.41 | 3:24.63 | 69566 | 84928
6 | 18:52.29 | 2:39.51 | 84929 | 96904
7 | 21:32.05 | 4:13.49 | 96905 | 115928
8 | 25:45.54 | 3:14.45 | 115929 | 130523
9 | 29:00.24 | 3:43.21 | 130524 | 147269
10 | 32:43.45 | 3:16.51 | 147270 | 162020
11 | 36:00.21 | 3:37.35 | 162021 | 178330
12 | 39:37.56 | 2:49.64 | 178331 | 191069
13 | 42:27.45 | 4:06.42 | 191070 | 209561
14 | 46:34.12 | 3:24.32 | 209562 | 224893
15 | 49:58.44 | 3:41.14 | 224894 | 241482
16 | 53:39.58 | 3:49.73 | 241483 | 258730
17 | 57:29.56 | 3:48.25 | 258731 | 275855
18 | 61:18.06 | 3:04.62 | 275856 | 289717
19 | 64:22.68 | 2:46.69 | 289718 | 302236
20 | 67:09.62 | 3:27.22 | 302237 | 317783
21 | 70:37.09 | 3:41.01 | 317784 | 334359
22 | 74:18.10 | 4:11.22 | 334360 | 353206


Track 1

Filename K:\TEMP\VA - Satan in Love- Rare Finnish Synth-Pop & Disco 1979–1992\01-Fredi-Se outoa on.wav

Pre-gap length 0:00:02.00

Peak level 98.1 %
Extraction speed 1.1 X
Track quality 100.0 %
Test CRC A52E0BA1
Copy CRC A52E0BA1
Accurately ripped (confidence 2) [78B4FB4D] (AR v2)
Copy OK

Track 2

Filename K:\TEMP\VA - Satan in Love- Rare Finnish Synth-Pop & Disco 1979–1992\02-Stiina-Automaattirakas.wav

Pre-gap length 0:00:02.21

Peak level 98.3 %
Extraction speed 1.2 X
Track quality 100.0 %
Test CRC 34B407E5
Copy CRC 34B407E5
Accurately ripped (confidence 2) [4AACC9B6] (AR v2)
Copy OK

Track 3

Filename K:\TEMP\VA - Satan in Love- Rare Finnish Synth-Pop & Disco 1979–1992\03-Stressi-Tatsia.wav

Pre-gap length 0:00:04.24

Peak level 100.0 %
Extraction speed 1.4 X
Track quality 100.0 %
Test CRC 99908E68
Copy CRC 99908E68
Accurately ripped (confidence 2) [D60C94BC] (AR v2)
Copy OK

Track 4

Filename K:\TEMP\VA - Satan in Love- Rare Finnish Synth-Pop & Disco 1979–1992\04-Digital Dance-Cairo C.wav

Pre-gap length 0:00:02.86

Peak level 98.8 %
Extraction speed 1.4 X
Track quality 100.0 %
Test CRC 52132F6B
Copy CRC 52132F6B
Accurately ripped (confidence 2) [2A65BB25] (AR v2)
Copy OK

Track 5

Filename K:\TEMP\VA - Satan in Love- Rare Finnish Synth-Pop & Disco 1979–1992\05-Emilia-Satan in Love.wav

Pre-gap length 0:00:04.24

Peak level 99.0 %
Extraction speed 1.3 X
Track quality 99.9 %
Test CRC 0F3053E5
Copy CRC 0F3053E5
Accurately ripped (confidence 2) [FE4F9A7B] (AR v2)
Copy OK

Track 6

Filename K:\TEMP\VA - Satan in Love- Rare Finnish Synth-Pop & Disco 1979–1992\06-Argon-San Salvador.wav

Pre-gap length 0:00:03.50

Peak level 100.0 %
Extraction speed 1.2 X
Track quality 99.9 %
Test CRC ABC03836
Copy CRC ABC03836
Accurately ripped (confidence 2) [4AF61347] (AR v2)
Copy OK

Track 7

Filename K:\TEMP\VA - Satan in Love- Rare Finnish Synth-Pop & Disco 1979–1992\07-Leevi and the Leavings-En tahdo sinua enää.wav

Pre-gap length 0:00:03.26

Peak level 98.7 %
Extraction speed 1.5 X
Track quality 99.9 %
Test CRC 0FAD7785
Copy CRC 0FAD7785
Accurately ripped (confidence 2) [4B454A03] (AR v2)
Copy OK

Track 8

Filename K:\TEMP\VA - Satan in Love- Rare Finnish Synth-Pop & Disco 1979–1992\08-Belaboris-Kuolleet peilit.wav

Pre-gap length 0:00:03.62

Peak level 99.2 %
Extraction speed 1.7 X
Track quality 100.0 %
Test CRC 3BC743DF
Copy CRC 3BC743DF
Accurately ripped (confidence 2) [816489A6] (AR v2)
Copy OK

Track 9

Filename K:\TEMP\VA - Satan in Love- Rare Finnish Synth-Pop & Disco 1979–1992\09-Tyhjät Patterit-Liian myöhään.wav

Pre-gap length 0:00:03.69

Peak level 98.3 %
Extraction speed 1.8 X
Track quality 100.0 %
Test CRC BD10D15B
Copy CRC BD10D15B
Accurately ripped (confidence 2) [800EA3CF] (AR v2)
Copy OK

Track 10

Filename K:\TEMP\VA - Satan in Love- Rare Finnish Synth-Pop & Disco 1979–1992\10-Raya-Harhaa.wav

Pre-gap length 0:00:02.76

Peak level 98.4 %
Extraction speed 1.8 X
Track quality 100.0 %
Test CRC 9124BEC4
Copy CRC 9124BEC4
Accurately ripped (confidence 2) [9AF20853] (AR v2)
Copy OK

Track 11

Filename K:\TEMP\VA - Satan in Love- Rare Finnish Synth-Pop & Disco 1979–1992\11-Heinäsirkka-Rakkaus.wav

Pre-gap length 0:00:03.50

Peak level 87.4 %
Extraction speed 1.6 X
Track quality 99.9 %
Test CRC 76D1B555
Copy CRC 76D1B555
Accurately ripped (confidence 2) [B56D31C1] (AR v2)
Copy OK

Track 12

Filename K:\TEMP\VA - Satan in Love- Rare Finnish Synth-Pop & Disco 1979–1992\12-BB-Computer Talk.wav

Pre-gap length 0:00:03.52

Peak level 98.1 %
Extraction speed 1.8 X
Track quality 100.0 %
Test CRC DB4630CB
Copy CRC DB4630CB
Accurately ripped (confidence 2) [F65CBA03] (AR v2)
Copy OK

Track 13

Filename K:\TEMP\VA - Satan in Love- Rare Finnish Synth-Pop & Disco 1979–1992\13-Tapa Paha Tapa-Vanha suola janottaa.wav

Pre-gap length 0:00:03.20

Peak level 98.3 %
Extraction speed 2.0 X
Track quality 100.0 %
Test CRC 335505B7
Copy CRC 335505B7
Accurately ripped (confidence 2) [B8EDBAA7] (AR v2)
Copy OK

Track 14

Filename K:\TEMP\VA - Satan in Love- Rare Finnish Synth-Pop & Disco 1979–1992\14-Tapa Paha Tapa-Mennyt maailma.wav

Pre-gap length 0:00:02.54

Peak level 99.0 %
Extraction speed 2.0 X
Track quality 100.0 %
Test CRC 4F94301A
Copy CRC 4F94301A
Accurately ripped (confidence 2) [34D41A0F] (AR v2)
Copy OK

Track 15

Filename K:\TEMP\VA - Satan in Love- Rare Finnish Synth-Pop & Disco 1979–1992\15-Syntax-Help Me.wav

Pre-gap length 0:00:03.06

Peak level 99.7 %
Extraction speed 2.1 X
Track quality 100.0 %
Test CRC 5472E9CB
Copy CRC 5472E9CB
Accurately ripped (confidence 2) [93DE0CEB] (AR v2)
Copy OK

Track 16

Filename K:\TEMP\VA - Satan in Love- Rare Finnish Synth-Pop & Disco 1979–1992\16-Tuija-Fiilis.wav

Pre-gap length 0:00:02.46

Peak level 98.5 %
Extraction speed 2.2 X
Track quality 100.0 %
Test CRC DC1DFFB9
Copy CRC DC1DFFB9
Accurately ripped (confidence 2) [3120E283] (AR v2)
Copy OK

Track 17

Filename K:\TEMP\VA - Satan in Love- Rare Finnish Synth-Pop & Disco 1979–1992\17-Meiju Suvas-Pidä musta kiinni.wav

Pre-gap length 0:00:03.09

Peak level 99.6 %
Extraction speed 2.2 X
Track quality 100.0 %
Test CRC CC949EE0
Copy CRC CC949EE0
Accurately ripped (confidence 2) [ABE57291] (AR v2)
Copy OK

Track 18

Filename K:\TEMP\VA - Satan in Love- Rare Finnish Synth-Pop & Disco 1979–1992\18-Jerry-Nyt tanssitaan.wav

Pre-gap length 0:00:02.24

Peak level 98.4 %
Extraction speed 2.2 X
Track quality 100.0 %
Test CRC 8A1B06EA
Copy CRC 8A1B06EA
Accurately ripped (confidence 2) [D074A2B1] (AR v2)
Copy OK

Track 19

Filename K:\TEMP\VA - Satan in Love- Rare Finnish Synth-Pop & Disco 1979–1992\19-Mick Hanian-17-Up.wav

Pre-gap length 0:00:02.58

Peak level 100.0 %
Extraction speed 2.1 X
Track quality 100.0 %
Test CRC EB5D0401
Copy CRC EB5D0401
Accurately ripped (confidence 2) [1FDD55F3] (AR v2)
Copy OK

Track 20

Filename K:\TEMP\VA - Satan in Love- Rare Finnish Synth-Pop & Disco 1979–1992\20-Fresco-Jousimiehen kuolema.wav

Pre-gap length 0:00:03.46

Peak level 96.8 %
Extraction speed 2.3 X
Track quality 100.0 %
Test CRC 39D5A7D6
Copy CRC 39D5A7D6
Accurately ripped (confidence 2) [5E75460C] (AR v2)
Copy OK

Track 21

Filename K:\TEMP\VA - Satan in Love- Rare Finnish Synth-Pop & Disco 1979–1992\21-Press-Fashion maailma.wav

Pre-gap length 0:00:02.97

Peak level 98.9 %
Extraction speed 2.3 X
Track quality 100.0 %
Test CRC 4BFC4E4A
Copy CRC 4BFC4E4A
Accurately ripped (confidence 2) [F0F11778] (AR v2)
Copy OK

Track 22

Filename K:\TEMP\VA - Satan in Love- Rare Finnish Synth-Pop & Disco 1979–1992\22-Juha Ahlgren-Puutarha.wav

Pre-gap length 0:00:04.46

Peak level 99.0 %
Extraction speed 2.5 X
Track quality 100.0 %
Test CRC 5078297E
Copy CRC 5078297E
Accurately ripped (confidence 2) [28610C3D] (AR v2)
Copy OK


All tracks accurately ripped

No errors occurred

End of status report

–– CUETools DB Plugin V2.1.3

[CTDB TOCID: SfuJhreCjocsQYuJSpKgdPdAZLI-] found, Submit result: SfuJhreCjocsQYuJSpKgdPdAZLI- has been confirmed
[5313b8f5] (18/18) Accurately ripped


==== Log checksum 8187768D5B77CA81D9BE9D3E7C65840170BDEE44D31C46A5C4F14A23F86BE1C0 ====

Thanks to the Original ripper MatkaAapeli !