Tags
Language
Tags
November 2022
Su Mo Tu We Th Fr Sa
30 31 1 2 3 4 5
6 7 8 9 10 11 12
13 14 15 16 17 18 19
20 21 22 23 24 25 26
27 28 29 30 1 2 3

VA - The House That Bradley Built (Deluxe Edition) (2020/2021)

Posted By: delpotro
VA - The House That Bradley Built (Deluxe Edition) (2020/2021)

VA - The House That Bradley Built (Deluxe Edition) (2020/2021)
EAC Rip | FLAC (tracks+log+.cue) - 1,17 Gb | MP3 CBR 320 kbps - 428 Mb | 03:06:50
Reggae | Label: Law Records

The House That Bradley Built (DELUXE EDITION) is the full 55 song acoustic compilation celebrating Bradley James Nowell and the incredible songs he wrote and was inspired by. The DELUXE EDITION features 32 unreleased songs in addition to the 24 previously released on the first album released in September.

“Bradley James Nowell died of a heroin overdose on May 25, 1996. It was a devastating loss for his family, friends and fans,” comments Jim Nowell, Bradley’s father. “From this pain, came a burning desire to help others who battle with opioid addiction to overcome the disease before it takes their lives. That’s why we started the Nowell Family Foundation,” he states.

The Nowell Family Foundation has a mission to build and sustain Bradley’s House, a 6-bed opioid recovery center for economically disadvantaged and struggling musicians, and to offer free services while musicians recover. Jim “Papa” Nowell reflects, “The vision for Bradley’s House is to create a place of hope and healing for people in the music industry. A place where creativity can be an outlet for transformation. A place where passion can be a motivation for change. A place where music can be a source of strength.” With the new compilation, The House That Bradley Built, musicians donated their time and music to take a stand against opioid addiction and to help support those battling addiction.

A true celebration of the prolific songwriter’s life, the compilation highlights the Cali-reggae rock scene Bradley Nowell helped establish through his mainstream success. In the wake of his untimely death, Bradley along with his band Sublime influenced a generation of musicians who continue to sonically blend mixtures of punk rock, ska, and reggae. Some of these inspired artists featured on the compilation include G. Love, Pepper, HIRIE, The Expanders, Common Kings, The Skints, and Trevor Young (SOJA).

The forthcoming release comprises reimagined versions of songs connected with Bradley and Sublime. Punk rock notables Descendents contributed an ukulele rendition of their song “Hope,” a song Bradley covered on 40 Oz. to Freedom. Reggae legend Half Pint performs his song, “Lovin’,” which was the original sample for “What I Got” (Sublime). Additionally, Jim Lindberg of Pennywise donated a cover of “Boss D.J.” (Robbin’ the Hood).

Reflecting back Papa Nowell says, “This compilation album is a tremendous gift from our friends at LAW Records. Their tireless effort and generosity are astounding. And the response from the music community has been overwhelming. We are so grateful to LAW Records for bringing together these talented artists to pay tribute to Bradley and help open the doors of Bradley’s House.”

He continues, “Bradley’s music lives on in the hearts and minds of his fans and fellow musicians. Through the combined effort of everyone who has been touched by his music, Bradley’s House will happen. People will be transformed. Lives will be saved. And it will truly be the house that Bradley built. Thank you all for helping to keep my son’s music alive.”
Tracklist:
Disc 1
1. Iration – DJs
2. Pepper – Date Rape
3. KBong – Foolish Fool
4. Kash'd Out – Slow Ride
5. Joe Sambo – 5446/Ball And Chain
6. Passafire – Greatest Hits
7. Tropidelic – Smoke Two Joints
8. Kyle Smith – Romeo
9. Mike Pinto – Superstar Punani
10. Shane Hall – Under My Voodoo
11. Seranation – Ebin
12. Ethan Tucker – Steppin Razor
13. Mic Dangerously – Freeway Time In LA County Jail
14. Cheers To Nothing – We're Only Gonna Die
15. Falling Idols – Falling Idols
16. Tomorrows Bad Seeds – Get Out

Disc 2
1. Naughty Don – Waiting For My Ruca
2. The Expendables – Wrong Way
3. Fortunate Youth – Jailhouse
4. The Elovaters – Get Ready
5. E.N Young – Pawn Shop
6. Fayuca – Caress Me Down
7. Roots Of Creation – Roots Of Creation
8. The Supervillains – What Happened
9. Jason DeVore & Authority Zero – April 29th, 1992
10. The Line – Ebin
11. Bad Cop / Bad Cop – All You Need
12. Buck-O-Nine – Burritos
13. Bumpin Uglies – Same In The End
14. Through The Roots – Real Situation
15. Save Ferris – Santeria
16. Bret Bollinger – Mary

Disc 3
1. Common Kings – Garden Grove
2. Descendents – Hope
3. Long Beach Dub Allstars – Little District
4. Half Pint – Lovin'
5. Pepper – Work That We Do
6. Johnny Cosmic – 40 Oz. To Freedom
7. Trevor Young & SOJA – Santeria
8. HIRIE – Saw Red
9. Mad Caddies – New Song
10. The Skints – Get Ready
11. Cydeways – Let's Go Get Stoned
12. The Movement – Get Out
13. Leilani Wolfgramm – New Realization
14. Ballyhoo! – S.T.P.
15. O.A.R. – Badfish
16. Vana Liya – The Ballad Of Johnny Butt
17. The Expanders – Scarlet Begonias
18. Jim Lindberg & Pennywise – Boss D.J.
19. RAS 1 – Right Back
20. Tunnel Vision – Pool Shark
21. Nice Mike – Don't Push
22. Bert Susanka & The Ziggens – Big Salty Tears
23. Jim & Jake Nowell – Rivers Of Babylon

Exact Audio Copy V1.0 beta 3 from 29. August 2011

EAC extraction logfile from 7. January 2021, 18:14

Various Artists / The House That Bradley Built

Used drive : ATAPI iHAS124 B Adapter: 0 ID: 2

Read mode : Secure
Utilize accurate stream : Yes
Defeat audio cache : Yes
Make use of C2 pointers : No

Read offset correction : 6
Overread into Lead-In and Lead-Out : No
Fill up missing offset samples with silence : Yes
Delete leading and trailing silent blocks : No
Null samples used in CRC calculations : Yes
Used interface : Native Win32 interface for Win NT & 2000
Gap handling : Appended to previous track

Used output format : User Defined Encoder
Selected bitrate : 1024 kBit/s
Quality : High
Add ID3 tag : No
Command line compressor : X:\Programs\Exact Audio Copy\Flac\flac.exe
Additional command line options : -8 -V -T "ARTIST=%artist%" -T "TITLE=%title%" -T "ALBUM=%albumtitle%" -T "DATE=%year%" -T "TRACKNUMBER=%tracknr%" -T "GENRE=%genre%" -T "PERFORMER=%albuminterpret%" -T "COMPOSER=%composer%" %haslyrics%–tag-from-file=LYRICS="%lyricsfile%"%haslyrics% -T "ALBUMARTIST=%albumartist%" -T "DISCNUMBER=%cdnumber%" -T "TOTALDISCS=%totalcds%" -T "TOTALTRACKS=%numtracks%" -T "COMMENT=%comment%" %source% -o %dest%


TOC of the extracted CD

Track | Start | Length | Start sector | End sector
––––––––––––––––––––––––––––-
1 | 0:00.00 | 3:26.28 | 0 | 15477
2 | 3:26.28 | 4:28.66 | 15478 | 35643
3 | 7:55.19 | 4:31.03 | 35644 | 55971
4 | 12:26.22 | 4:20.14 | 55972 | 75485
5 | 16:46.36 | 4:31.51 | 75486 | 95861
6 | 21:18.12 | 2:55.50 | 95862 | 109036
7 | 24:13.62 | 2:26.58 | 109037 | 120044
8 | 26:40.45 | 4:36.17 | 120045 | 140761
9 | 31:16.62 | 3:27.53 | 140762 | 156339
10 | 34:44.40 | 3:50.33 | 156340 | 173622
11 | 38:34.73 | 3:19.60 | 173623 | 188607
12 | 41:54.58 | 3:51.00 | 188608 | 205932
13 | 45:45.58 | 3:24.64 | 205933 | 221296
14 | 49:10.47 | 3:08.71 | 221297 | 235467
15 | 52:19.43 | 4:05.42 | 235468 | 253884
16 | 56:25.10 | 3:01.09 | 253885 | 267468


Track 1

Filename Y:\newrips\VA - The House That Bradley Built [LAW63] (2020) - flac\01 - Iration - DJs.wav

Pre-gap length 0:00:02.00

Peak level 98.2 %
Extraction speed 3.4 X
Track quality 100.0 %
Test CRC 9CBD0982
Copy CRC 9CBD0982
Track not present in AccurateRip database
Copy OK

Track 2

Filename Y:\newrips\VA - The House That Bradley Built [LAW63] (2020) - flac\02 - Pepper - Date Rape.wav

Peak level 98.1 %
Extraction speed 3.2 X
Track quality 99.9 %
Test CRC 7068F0EC
Copy CRC 7068F0EC
Track not present in AccurateRip database
Copy OK

Track 3

Filename Y:\newrips\VA - The House That Bradley Built [LAW63] (2020) - flac\03 - KBong - Foolish Fool.wav

Peak level 97.0 %
Extraction speed 4.3 X
Track quality 100.0 %
Test CRC 990D3E88
Copy CRC 990D3E88
Track not present in AccurateRip database
Copy OK

Track 4

Filename Y:\newrips\VA - The House That Bradley Built [LAW63] (2020) - flac\04 - Kash'd Out - Slow Ride.wav

Peak level 100.0 %
Extraction speed 4.6 X
Track quality 100.0 %
Test CRC 62CF1827
Copy CRC 62CF1827
Track not present in AccurateRip database
Copy OK

Track 5

Filename Y:\newrips\VA - The House That Bradley Built [LAW63] (2020) - flac\05 - Joe Sambo - 5446,Ball And Chain.wav

Peak level 100.0 %
Extraction speed 5.0 X
Track quality 100.0 %
Test CRC 8C363D02
Copy CRC 8C363D02
Track not present in AccurateRip database
Copy OK

Track 6

Filename Y:\newrips\VA - The House That Bradley Built [LAW63] (2020) - flac\06 - Passafire - Greatest Hits.wav

Peak level 95.9 %
Extraction speed 4.9 X
Track quality 100.0 %
Test CRC 704C7255
Copy CRC 704C7255
Track not present in AccurateRip database
Copy OK

Track 7

Filename Y:\newrips\VA - The House That Bradley Built [LAW63] (2020) - flac\07 - Tropidelic - Smoke Two Joints.wav

Peak level 100.0 %
Extraction speed 4.9 X
Track quality 100.0 %
Test CRC C1C33176
Copy CRC C1C33176
Track not present in AccurateRip database
Copy OK

Track 8

Filename Y:\newrips\VA - The House That Bradley Built [LAW63] (2020) - flac\08 - Kyle Smith - Romeo.wav

Peak level 100.0 %
Extraction speed 4.6 X
Track quality 99.9 %
Test CRC 90CE2DA8
Copy CRC 90CE2DA8
Track not present in AccurateRip database
Copy OK

Track 9

Filename Y:\newrips\VA - The House That Bradley Built [LAW63] (2020) - flac\09 - Mike Pinto - Superstar Punani.wav

Peak level 99.6 %
Extraction speed 5.7 X
Track quality 100.0 %
Test CRC BEE67FD8
Copy CRC BEE67FD8
Track not present in AccurateRip database
Copy OK

Track 10

Filename Y:\newrips\VA - The House That Bradley Built [LAW63] (2020) - flac\10 - Shane Hall - Under My Voodoo.wav

Peak level 95.3 %
Extraction speed 5.9 X
Track quality 100.0 %
Test CRC 291FBAEF
Copy CRC 291FBAEF
Track not present in AccurateRip database
Copy OK

Track 11

Filename Y:\newrips\VA - The House That Bradley Built [LAW63] (2020) - flac\11 - Seranation - Ebin.wav

Peak level 100.0 %
Extraction speed 6.0 X
Track quality 100.0 %
Test CRC FF0A059F
Copy CRC FF0A059F
Track not present in AccurateRip database
Copy OK

Track 12

Filename Y:\newrips\VA - The House That Bradley Built [LAW63] (2020) - flac\12 - Ethan Tucker - Steppin' Razor.wav

Peak level 100.0 %
Extraction speed 6.4 X
Track quality 100.0 %
Test CRC 81CE26D1
Copy CRC 81CE26D1
Track not present in AccurateRip database
Copy OK

Track 13

Filename Y:\newrips\VA - The House That Bradley Built [LAW63] (2020) - flac\13 - Mic Dangerously - Freeway Time In LA County Jail.wav

Peak level 100.0 %
Extraction speed 5.0 X
Track quality 99.9 %
Test CRC 51DF2623
Copy CRC 51DF2623
Track not present in AccurateRip database
Copy OK

Track 14

Filename Y:\newrips\VA - The House That Bradley Built [LAW63] (2020) - flac\14 - Cheers To Nothing - We're Only Going To Die.wav

Peak level 100.0 %
Extraction speed 6.6 X
Track quality 100.0 %
Test CRC 564283A4
Copy CRC 564283A4
Track not present in AccurateRip database
Copy OK

Track 15

Filename Y:\newrips\VA - The House That Bradley Built [LAW63] (2020) - flac\15 - Falling Idols - Falling Idols.wav

Peak level 100.0 %
Extraction speed 7.0 X
Track quality 100.0 %
Test CRC 8CEAFD87
Copy CRC 8CEAFD87
Track not present in AccurateRip database
Copy OK

Track 16

Filename Y:\newrips\VA - The House That Bradley Built [LAW63] (2020) - flac\16 - Tomorrows Bad Seed - Get Out!.wav

Peak level 95.4 %
Extraction speed 6.8 X
Track quality 100.0 %
Test CRC 4E4587BE
Copy CRC 4E4587BE
Track not present in AccurateRip database
Copy OK


None of the tracks are present in the AccurateRip database

No errors occurred

End of status report

–– CUETools DB Plugin V2.1.3

[CTDB TOCID: XFmkpxbEfKYSc.hvpTWBei4Gya0-] disk not present in database, Submit result: XFmkpxbEfKYSc.hvpTWBei4Gya0- has been uploaded


==== Log checksum F4AF2ECEA1D0CE24D3237A5D03C61C2F8FB24A02006EC46D2D404E202651EB32 ====
Exact Audio Copy V1.0 beta 3 from 29. August 2011

EAC extraction logfile from 7. January 2021, 18:44

Various Artists / The House That Bradley Built

Used drive : ATAPI iHAS124 B Adapter: 0 ID: 2

Read mode : Secure
Utilize accurate stream : Yes
Defeat audio cache : Yes
Make use of C2 pointers : No

Read offset correction : 6
Overread into Lead-In and Lead-Out : No
Fill up missing offset samples with silence : Yes
Delete leading and trailing silent blocks : No
Null samples used in CRC calculations : Yes
Used interface : Native Win32 interface for Win NT & 2000
Gap handling : Appended to previous track

Used output format : User Defined Encoder
Selected bitrate : 1024 kBit/s
Quality : High
Add ID3 tag : No
Command line compressor : X:\Programs\Exact Audio Copy\Flac\flac.exe
Additional command line options : -8 -V -T "ARTIST=%artist%" -T "TITLE=%title%" -T "ALBUM=%albumtitle%" -T "DATE=%year%" -T "TRACKNUMBER=%tracknr%" -T "GENRE=%genre%" -T "PERFORMER=%albuminterpret%" -T "COMPOSER=%composer%" %haslyrics%–tag-from-file=LYRICS="%lyricsfile%"%haslyrics% -T "ALBUMARTIST=%albumartist%" -T "DISCNUMBER=%cdnumber%" -T "TOTALDISCS=%totalcds%" -T "TOTALTRACKS=%numtracks%" -T "COMMENT=%comment%" %source% -o %dest%


TOC of the extracted CD

Track | Start | Length | Start sector | End sector
––––––––––––––––––––––––––––-
1 | 0:00.00 | 2:17.28 | 0 | 10302
2 | 2:17.28 | 2:25.16 | 10303 | 21193
3 | 4:42.44 | 4:26.45 | 21194 | 41188
4 | 9:09.14 | 4:57.72 | 41189 | 63535
5 | 14:07.11 | 6:16.56 | 63536 | 91791
6 | 20:23.67 | 3:39.42 | 91792 | 108258
7 | 24:03.34 | 4:38.28 | 108259 | 129136
8 | 28:41.62 | 3:18.22 | 129137 | 144008
9 | 32:00.09 | 4:10.40 | 144009 | 162798
10 | 36:10.49 | 3:59.65 | 162799 | 180788
11 | 40:10.39 | 4:03.24 | 180789 | 199037
12 | 44:13.63 | 3:08.54 | 199038 | 213191
13 | 47:22.42 | 2:53.64 | 213192 | 226230
14 | 50:16.31 | 1:43.02 | 226231 | 233957
15 | 51:59.33 | 3:09.55 | 233958 | 248187
16 | 55:09.13 | 1:49.49 | 248188 | 256411


Track 1

Filename Y:\newrips\VA - The House That Bradley Built [LAW63] (2020) - flac\01 - Naughty Don - Waiting For My Ruca.wav

Pre-gap length 0:00:02.00

Peak level 95.1 %
Extraction speed 3.1 X
Track quality 100.0 %
Test CRC BC49DA20
Copy CRC BC49DA20
Track not present in AccurateRip database
Copy OK

Track 2

Filename Y:\newrips\VA - The House That Bradley Built [LAW63] (2020) - flac\02 - The Expendables - Wrong Way.wav

Peak level 96.0 %
Extraction speed 3.4 X
Track quality 100.0 %
Test CRC CB9A0D2A
Copy CRC CB9A0D2A
Track not present in AccurateRip database
Copy OK

Track 3

Filename Y:\newrips\VA - The House That Bradley Built [LAW63] (2020) - flac\03 - Fortunate Youth - Jailhouse.wav

Peak level 97.6 %
Extraction speed 3.3 X
Track quality 99.9 %
Test CRC A84E088B
Copy CRC A84E088B
Track not present in AccurateRip database
Copy OK

Track 4

Filename Y:\newrips\VA - The House That Bradley Built [LAW63] (2020) - flac\04 - The Elovaters - Get Ready.wav

Peak level 100.0 %
Extraction speed 4.5 X
Track quality 100.0 %
Test CRC 77B024C3
Copy CRC 77B024C3
Track not present in AccurateRip database
Copy OK

Track 5

Filename Y:\newrips\VA - The House That Bradley Built [LAW63] (2020) - flac\05 - E.N Young - Pawn Shop.wav

Peak level 95.1 %
Extraction speed 5.1 X
Track quality 100.0 %
Test CRC 1D0F5A1D
Copy CRC 1D0F5A1D
Track not present in AccurateRip database
Copy OK

Track 6

Filename Y:\newrips\VA - The House That Bradley Built [LAW63] (2020) - flac\06 - Fayuca - Caress Me Down.wav

Peak level 96.9 %
Extraction speed 5.0 X
Track quality 100.0 %
Test CRC 1CB5E18F
Copy CRC 1CB5E18F
Track not present in AccurateRip database
Copy OK

Track 7

Filename Y:\newrips\VA - The House That Bradley Built [LAW63] (2020) - flac\07 - Roots Of Creation - Roots Of Creation.wav

Peak level 100.0 %
Extraction speed 5.5 X
Track quality 100.0 %
Test CRC 573F4203
Copy CRC 573F4203
Track not present in AccurateRip database
Copy OK

Track 8

Filename Y:\newrips\VA - The House That Bradley Built [LAW63] (2020) - flac\08 - The Supervillains - What Happened.wav

Peak level 100.0 %
Extraction speed 5.5 X
Track quality 100.0 %
Test CRC 786FF314
Copy CRC 786FF314
Track not present in AccurateRip database
Copy OK

Track 9

Filename Y:\newrips\VA - The House That Bradley Built [LAW63] (2020) - flac\09 - Jason DeVore - April 29th, 1992.wav

Peak level 95.6 %
Extraction speed 5.9 X
Track quality 100.0 %
Test CRC EF886C57
Copy CRC EF886C57
Track not present in AccurateRip database
Copy OK

Track 10

Filename Y:\newrips\VA - The House That Bradley Built [LAW63] (2020) - flac\10 - The Line - Ebin.wav

Peak level 96.4 %
Extraction speed 6.1 X
Track quality 100.0 %
Test CRC A62A07BA
Copy CRC A62A07BA
Track not present in AccurateRip database
Copy OK

Track 11

Filename Y:\newrips\VA - The House That Bradley Built [LAW63] (2020) - flac\11 - Bad Cop , Bad Cop - All You Need.wav

Peak level 100.0 %
Extraction speed 5.0 X
Track quality 99.9 %
Test CRC 1D642ED7
Copy CRC 1D642ED7
Track not present in AccurateRip database
Copy OK

Track 12

Filename Y:\newrips\VA - The House That Bradley Built [LAW63] (2020) - flac\12 - Buck-O-Nine - Burritos.wav

Peak level 100.0 %
Extraction speed 6.2 X
Track quality 100.0 %
Test CRC B395F4FD
Copy CRC B395F4FD
Track not present in AccurateRip database
Copy OK

Track 13

Filename Y:\newrips\VA - The House That Bradley Built [LAW63] (2020) - flac\13 - Bumpin Uglies - Same In The End.wav

Peak level 100.0 %
Extraction speed 6.3 X
Track quality 100.0 %
Test CRC 68F48909
Copy CRC 68F48909
Track not present in AccurateRip database
Copy OK

Track 14

Filename Y:\newrips\VA - The House That Bradley Built [LAW63] (2020) - flac\14 - Through The Roots - Real Situation.wav

Peak level 85.1 %
Extraction speed 5.7 X
Track quality 100.0 %
Test CRC F0A37A57
Copy CRC F0A37A57
Track not present in AccurateRip database
Copy OK

Track 15

Filename Y:\newrips\VA - The House That Bradley Built [LAW63] (2020) - flac\15 - Save Ferris - Santeria.wav

Peak level 100.0 %
Extraction speed 6.6 X
Track quality 100.0 %
Test CRC C3866E5E
Copy CRC C3866E5E
Track not present in AccurateRip database
Copy OK

Track 16

Filename Y:\newrips\VA - The House That Bradley Built [LAW63] (2020) - flac\16 - Bret Bollinger - Mary.wav

Peak level 95.6 %
Extraction speed 6.0 X
Track quality 100.0 %
Test CRC 8274C92E
Copy CRC 8274C92E
Track not present in AccurateRip database
Copy OK


None of the tracks are present in the AccurateRip database

No errors occurred

End of status report

–– CUETools DB Plugin V2.1.3

[CTDB TOCID: 5iL26l6FpgUK7c2FKG5kQ_2NQIY-] disk not present in database, Submit result: 5iL26l6FpgUK7c2FKG5kQ_2NQIY- has been uploaded


==== Log checksum 2C59376930ABF02381AE8D03B02CB4921DE4FEFA5BFEC61BCBE4958E671221C1 ====
Exact Audio Copy V1.0 beta 3 from 29. August 2011

EAC extraction logfile from 7. January 2021, 19:57

Various Artists / The House That Bradley Built

Used drive : ATAPI iHAS124 B Adapter: 0 ID: 2

Read mode : Secure
Utilize accurate stream : Yes
Defeat audio cache : Yes
Make use of C2 pointers : No

Read offset correction : 6
Overread into Lead-In and Lead-Out : No
Fill up missing offset samples with silence : Yes
Delete leading and trailing silent blocks : No
Null samples used in CRC calculations : Yes
Used interface : Native Win32 interface for Win NT & 2000
Gap handling : Appended to previous track

Used output format : User Defined Encoder
Selected bitrate : 1024 kBit/s
Quality : High
Add ID3 tag : No
Command line compressor : X:\Programs\Exact Audio Copy\Flac\flac.exe
Additional command line options : -8 -V -T "ARTIST=%artist%" -T "TITLE=%title%" -T "ALBUM=%albumtitle%" -T "DATE=%year%" -T "TRACKNUMBER=%tracknr%" -T "GENRE=%genre%" -T "PERFORMER=%albuminterpret%" -T "COMPOSER=%composer%" %haslyrics%–tag-from-file=LYRICS="%lyricsfile%"%haslyrics% -T "ALBUMARTIST=%albumartist%" -T "DISCNUMBER=%cdnumber%" -T "TOTALDISCS=%totalcds%" -T "TOTALTRACKS=%numtracks%" -T "COMMENT=%comment%" %source% -o %dest%


TOC of the extracted CD

Track | Start | Length | Start sector | End sector
––––––––––––––––––––––––––––-
1 | 0:00.00 | 2:55.25 | 0 | 13149
2 | 2:55.25 | 2:44.11 | 13150 | 25460
3 | 5:39.36 | 1:58.57 | 25461 | 34367
4 | 7:38.18 | 3:58.60 | 34368 | 52277
5 | 11:37.03 | 2:47.08 | 52278 | 64810
6 | 14:24.11 | 3:33.55 | 64811 | 80840
7 | 17:57.66 | 3:29.49 | 80841 | 96564
8 | 21:27.40 | 1:57.45 | 96565 | 105384
9 | 23:25.10 | 3:05.03 | 105385 | 119262
10 | 26:30.13 | 3:25.42 | 119263 | 134679
11 | 29:55.55 | 2:49.33 | 134680 | 147387
12 | 32:45.13 | 2:10.70 | 147388 | 157207
13 | 34:56.08 | 2:47.41 | 157208 | 169773
14 | 37:43.49 | 3:29.31 | 169774 | 185479
15 | 41:13.05 | 3:08.41 | 185480 | 199620
16 | 44:21.46 | 2:46.52 | 199621 | 212122
17 | 47:08.23 | 4:18.00 | 212123 | 231472
18 | 51:26.23 | 2:26.38 | 231473 | 242460
19 | 53:52.61 | 2:46.25 | 242461 | 254935
20 | 56:39.11 | 1:23.12 | 254936 | 261172
21 | 58:02.23 | 3:49.67 | 261173 | 278414
22 | 61:52.15 | 4:41.07 | 278415 | 299496
23 | 66:33.22 | 3:52.17 | 299497 | 316913


Track 1

Filename Y:\newrips\VA - The House That Bradley Built [LAW63] (2020) - flac\01 - Common Kings - Garden Grove.wav

Pre-gap length 0:00:02.00

Peak level 98.2 %
Extraction speed 3.2 X
Track quality 100.0 %
Test CRC 40AC4261
Copy CRC 40AC4261
Track not present in AccurateRip database
Copy OK

Track 2

Filename Y:\newrips\VA - The House That Bradley Built [LAW63] (2020) - flac\02 - Descendents - Hope.wav

Peak level 95.4 %
Extraction speed 3.5 X
Track quality 100.0 %
Test CRC DB685DCD
Copy CRC DB685DCD
Track not present in AccurateRip database
Copy OK

Track 3

Filename Y:\newrips\VA - The House That Bradley Built [LAW63] (2020) - flac\03 - Long Beach Dub Allstars - Little District.wav

Peak level 100.0 %
Extraction speed 3.4 X
Track quality 100.0 %
Test CRC 6FB52313
Copy CRC 6FB52313
Track not present in AccurateRip database
Copy OK

Track 4

Filename Y:\newrips\VA - The House That Bradley Built [LAW63] (2020) - flac\04 - Half Pint - Lovin'.wav

Peak level 96.2 %
Extraction speed 4.2 X
Track quality 100.0 %
Test CRC 24B8D938
Copy CRC 24B8D938
Track not present in AccurateRip database
Copy OK

Track 5

Filename Y:\newrips\VA - The House That Bradley Built [LAW63] (2020) - flac\05 - Pepper - Work That We Do.wav

Peak level 98.7 %
Extraction speed 4.1 X
Track quality 100.0 %
Test CRC 8529AF43
Copy CRC 8529AF43
Track not present in AccurateRip database
Copy OK

Track 6

Filename Y:\newrips\VA - The House That Bradley Built [LAW63] (2020) - flac\06 - Johnny Cosmic - 40 Oz. To Freedom.wav

Peak level 97.3 %
Extraction speed 4.5 X
Track quality 100.0 %
Test CRC 4C799C45
Copy CRC 4C799C45
Track not present in AccurateRip database
Copy OK

Track 7

Filename Y:\newrips\VA - The House That Bradley Built [LAW63] (2020) - flac\07 - Trevor Young - Santeria.wav

Peak level 96.0 %
Extraction speed 4.8 X
Track quality 100.0 %
Test CRC 044B5CF6
Copy CRC 044B5CF6
Track not present in AccurateRip database
Copy OK

Track 8

Filename Y:\newrips\VA - The House That Bradley Built [LAW63] (2020) - flac\08 - HIRIE - Saw Red.wav

Peak level 97.4 %
Extraction speed 4.4 X
Track quality 100.0 %
Test CRC 9338EEC1
Copy CRC 9338EEC1
Track not present in AccurateRip database
Copy OK

Track 9

Filename Y:\newrips\VA - The House That Bradley Built [LAW63] (2020) - flac\09 - Mad Caddies - New Song.wav

Peak level 97.2 %
Extraction speed 5.0 X
Track quality 100.0 %
Test CRC 00C96363
Copy CRC 00C96363
Track not present in AccurateRip database
Copy OK

Track 10

Filename Y:\newrips\VA - The House That Bradley Built [LAW63] (2020) - flac\10 - The Skints - Get Ready.wav

Peak level 100.0 %
Extraction speed 5.3 X
Track quality 100.0 %
Test CRC 1FFA439C
Copy CRC 1FFA439C
Track not present in AccurateRip database
Copy OK

Track 11

Filename Y:\newrips\VA - The House That Bradley Built [LAW63] (2020) - flac\11 - Cydeways - Let's Go Get Stoned.wav

Peak level 100.0 %
Extraction speed 5.3 X
Track quality 100.0 %
Test CRC 3CC84E2B
Copy CRC 3CC84E2B
Track not present in AccurateRip database
Copy OK

Track 12

Filename Y:\newrips\VA - The House That Bradley Built [LAW63] (2020) - flac\12 - The Movement - Get Out!.wav

Peak level 95.9 %
Extraction speed 5.1 X
Track quality 100.0 %
Test CRC 45C8C22F
Copy CRC 45C8C22F
Track not present in AccurateRip database
Copy OK

Track 13

Filename Y:\newrips\VA - The House That Bradley Built [LAW63] (2020) - flac\13 - Leilani Wolfgramm - New Realization.wav

Peak level 95.1 %
Extraction speed 5.5 X
Track quality 100.0 %
Test CRC 21B0C261
Copy CRC 21B0C261
Track not present in AccurateRip database
Copy OK

Track 14

Filename Y:\newrips\VA - The House That Bradley Built [LAW63] (2020) - flac\14 - Ballyhoo! - S.T.P..wav

Peak level 98.1 %
Extraction speed 5.9 X
Track quality 100.0 %
Test CRC 1905C5D2
Copy CRC 1905C5D2
Track not present in AccurateRip database
Copy OK

Track 15

Filename Y:\newrips\VA - The House That Bradley Built [LAW63] (2020) - flac\15 - O.A.R. - Badfish.wav

Peak level 100.0 %
Extraction speed 4.5 X
Track quality 99.9 %
Test CRC 6C529A43
Copy CRC 6C529A43
Track not present in AccurateRip database
Copy OK

Track 16

Filename Y:\newrips\VA - The House That Bradley Built [LAW63] (2020) - flac\16 - Vana Liya - The Ballad Of Johnny Butt.wav

Peak level 98.0 %
Extraction speed 5.9 X
Track quality 100.0 %
Test CRC 83621A63
Copy CRC 83621A63
Track not present in AccurateRip database
Copy OK

Track 17

Filename Y:\newrips\VA - The House That Bradley Built [LAW63] (2020) - flac\17 - The Expanders - Scarlet Begonias.wav

Peak level 95.0 %
Extraction speed 6.5 X
Track quality 100.0 %
Test CRC F34649CA
Copy CRC F34649CA
Track not present in AccurateRip database
Copy OK

Track 18

Filename Y:\newrips\VA - The House That Bradley Built [LAW63] (2020) - flac\18 - Jim Lindberg - Boss D.J..wav

Peak level 100.0 %
Extraction speed 6.0 X
Track quality 100.0 %
Test CRC 8ED1C2F2
Copy CRC 8ED1C2F2
Track not present in AccurateRip database
Copy OK

Track 19

Filename Y:\newrips\VA - The House That Bradley Built [LAW63] (2020) - flac\19 - RAS 1 - Right Back.wav

Peak level 96.3 %
Extraction speed 4.6 X
Track quality 99.9 %
Test CRC 6854B714
Copy CRC 6854B714
Track not present in AccurateRip database
Copy OK

Track 20

Filename Y:\newrips\VA - The House That Bradley Built [LAW63] (2020) - flac\20 - Tunnel Vision - Pool Shark.wav

Peak level 96.0 %
Extraction speed 5.4 X
Track quality 100.0 %
Test CRC F4C3CF23
Copy CRC F4C3CF23
Track not present in AccurateRip database
Copy OK

Track 21

Filename Y:\newrips\VA - The House That Bradley Built [LAW63] (2020) - flac\21 - Nice Mike - Don't Push.wav

Peak level 95.3 %
Extraction speed 6.9 X
Track quality 100.0 %
Test CRC F03B5B6F
Copy CRC F03B5B6F
Track not present in AccurateRip database
Copy OK

Track 22

Filename Y:\newrips\VA - The House That Bradley Built [LAW63] (2020) - flac\22 - Bert Susanka - Big Salty Tears.wav

Peak level 94.5 %
Extraction speed 7.3 X
Track quality 100.0 %
Test CRC E4E63E55
Copy CRC E4E63E55
Track not present in AccurateRip database
Copy OK

Track 23

Filename Y:\newrips\VA - The House That Bradley Built [LAW63] (2020) - flac\23 - Jim & Jake Nowell - Rivers Of Babylon.wav

Peak level 100.0 %
Extraction speed 7.2 X
Track quality 100.0 %
Test CRC BAB7B25C
Copy CRC BAB7B25C
Track not present in AccurateRip database
Copy OK


None of the tracks are present in the AccurateRip database

No errors occurred

End of status report

–– CUETools DB Plugin V2.1.3

[CTDB TOCID: XtTYLBnaKVQSL7J.EYGEVraB8c4-] disk not present in database, Submit result: XtTYLBnaKVQSL7J.EYGEVraB8c4- has been uploaded


==== Log checksum 34F680B07C3A913D80032A1FE428FED34CEA71E66816AAF7B73DAAD1A3F24BA0 ====

Thanks to the Original ripper !