Tags
Language
Tags
April 2024
Su Mo Tu We Th Fr Sa
31 1 2 3 4 5 6
7 8 9 10 11 12 13
14 15 16 17 18 19 20
21 22 23 24 25 26 27
28 29 30 1 2 3 4

VA - 100 Eurosong Klassiekers (2010)

Posted By: Rtax
VA - 100 Eurosong Klassiekers (2010)

VA - 100 Eurosong Klassiekers (2010)
EAC Rip | FLAC (tracks, cue, log) - 1.9 GB | MP3 CBR 320 kbps - 689 MB
4:58:35 | Europop, Disco, Folk, Jazz, Stage & Screen | Label: Universal

100 Eurosong Klassiekers is a various artist compilation album. Released in 2010 on Universal.

Tracklist
Disc 1 (01:01:30)
1. ABBA – Waterloo (02:43)
2. Nicole – Ein Bisschen Frieden (03:02)
3. Olsen Brothers – Fly On The Wings Of Love (03:02)
4. Alexander Rybak – Fairytale (03:02)
5. Nicole & Hugo – Goeiemorgen Morgen (02:46)
6. Teddy Scholten – 'N Beetje (02:59)
7. Corry Brokken – Net Als Toen (03:24)
8. Mouth & MacNeal – I See A Star (02:57)
9. Milk And Honey – Hallelujah (03:22)
10. Vicky Leandros – Après Toi (03:31)
11. Baccara – Parlez-Vous Francais ? (04:31)
12. Stella – Si Tu Aimes Ma Musique (02:55)
13. Sandrine – I Feel The Same Way (03:03)
14. Helena Paparizou – My Number One (02:53)
15. Belle Perez – El Mundo Bailanda (02:55)
16. Louis Neefs – Jennifer Jennings (02:45)
17. Clouseau – Geef Het Op (02:48)
18. Liliane Saint-Pierre – Soldiers Of Love (02:59)
19. Lisa Del Bo – Liefde, Is Een Kaartspel (02:53)
20. Sandra Kim – J'aime La Vie (03:00)

Disc 2 (56:47)
1. Dana International – Diva (03:25)
2. France Gall – Poupée De Cire Poupée De Son (02:30)
3. Pas De Deux – Rendez-Vous (02:45)
4. Anne-Marie David – Tu Te Reconnaîtras (02:40)
5. Gigliola Cinquetti – Non Ho L'etá (03:18)
6. Cliff Richard – Congratulations (02:30)
7. K3 – Heyah Mama (03:21)
8. Ann Soetaert – Rio De Janeiro (01:52)
9. Ishtar – O Julissi Na Jalini (02:34)
10. Domenico Modugno – Nel Blu Dipinto Di Blu (Volare) (03:31)
11. Micha Marah – Tamboerke (02:22)
12. Wim De Craene – Kristien (04:13)
13. Barbara Dex – Iemand Als Jij (02:59)
14. Vanessa Chinitor – Like The Wind (02:58)
15. The Allisons – Are You Sure ? (02:05)
16. Clodagh Rodgers – Jack In The Box (02:59)
17. Lulu – Boom Bang-A-Bang (02:20)
18. The Herrey's – Diggie-Loo Diggy-Ley (03:05)
19. Teach-In – Ding-A-Dong (02:25)
20. Izhar Cohen & The Alpha-Beta – A-Ba-Ni-Bi (02:55)

Disc 3 (01:04:14)
1. Bucks Fizz – Making Your Mind Up (02:37)
2. Bobbysocks – Let It Swing (02:50)
3. Natalia – Higher Than The Sun (02:53)
4. Toto Cutugno – Insieme 1992 (04:26)
5. Umberto Tozzi – Gente Di Mare (03:53)
6. Bart Herman – Ik Ga Dood Aan Jou (03:00)
7. Els De Schepper – Als Ik Je Morgen Ergens Tegenkom (04:33)
8. Johnny White – Verloren Hart, Verloren Droom (03:23)
9. Kaye Styles – Profile (02:58)
10. Jacqueline Boyer – Tom Pillibi (03:04)
11. Joëlle Ursull – White And Black Blues (03:04)
12. Carola – Love Isn't Love (02:59)
13. Rudi Carrell – Wat Een Geluk (02:30)
14. Rita Deneve – Vredevoor Iedereen (03:00)
15. Katja Ebstein – Wunder Gibt Es Immer Wieder (03:32)
16. Catherine Ferry – 1, 2, 3 (02:28)
17. Tanel Padar, Dave Benton & 2XL – Everybody (02:59)
18. Katrina And The Waves – Love Shine A Light (02:51)
19. Urban Trad – Sanomi (04:07)
20. Johnny Logan – What's Another Year (03:07)

Disc 4 (57:38)
1. Brotherhood Of Man – Save Your Kisses For Me (03:02)
2. Sandie Shaw – Puppet On A String (02:20)
3. Cliff Richard – Power To All Our Friends (02:58)
4. The New Seekers – Beg Steal Or Borrow (02:46)
5. Louis Neefs – Oh Oh Ik Heb Zorgen (02:23)
6. Conny Froboess – Zwei Kleine Italiener (02:42)
7. Lenny Kuhr – De Troubadour (03:26)
8. Leopold 3 – Vergeet-Mij-Nietje (02:56)
9. Ruth Jacott – Vrede (03:00)
10. Sandra & Andres – Als Het Om De Liefde Gaat (02:56)
11. Severine Doré – Wherever You'll Be (02:59)
12. Secret Garden – Nocturne (03:11)
13. The Shadows – Let Me Be The One (02:48)
14. Jean-Claude Pascal – Nous Les Amoureux (02:50)
15. Charlie McGettigan – Rock 'n' Roll Kids (03:26)
16. Domenico Modugno – Piove (Ciao, Ciao, Bambina) (02:16)
17. Lisa Del Bo – Vlinder (02:52)
18. Emly Starr – Samson (02:54)
19. Barbara Dex – One Life (02:55)
20. Vicky Leandros – L'amour Est Bleu (02:58)

Disc 5 (01:04:04)
1. Sertab Erener – Every Way That I Can (03:45)
2. Hadise – Dum Tek Tek (03:00)
3. Kate Ryan – Je T'Adore (04:04)
4. Xandee – 1 Life (02:57)
5. Lordi – Hard Rock Hallelujah (04:08)
6. Clouseau – Anne (02:41)
7. Dschinghis Khan – Dschinghis Khan (03:01)
8. Robert Cogoi – Près De Ma Rivière (03:15)
9. Mélanie Cohl – Dis Oui (03:14)
10. Ingeborg – Door De Wind (02:57)
11. Ann Christy – Gelukkig Zijn (03:20)
12. Pierre Rapsat – Judy & Cie (Live) (03:01)
13. Marie Myriam – L'Oiseau Et L'Enfant (03:04)
14. Dima Bilan – Believe (03:54)
15. Dana – All Kinds Of Everything (03:00)
16. Dream Express – Need A Million In 1 2 3 (02:51)
17. Rodolfo Chikilicuatre – Baila El Chiki Chiki (02:52)
18. Mocedades – Eres Tu (03:31)
19. Peret – Canta Y Se Feliz (02:48)
20. Telex – Euro-vision (02:41)
Exact Audio Copy V1.0 beta 3 from 29. August 2011

EAC extraction logfile from 10. December 2011, 12:52

Various / 100 Eurosong Klassiekers (Universal BE 2010) CD1

Used drive : hp CDDVDW TS-L633N Adapter: 0 ID: 1

Read mode : Secure
Utilize accurate stream : Yes
Defeat audio cache : Yes
Make use of C2 pointers : No

Read offset correction : 6
Overread into Lead-In and Lead-Out : No
Fill up missing offset samples with silence : Yes
Delete leading and trailing silent blocks : No
Null samples used in CRC calculations : Yes
Used interface : Native Win32 interface for Win NT & 2000
Gap handling : Appended to previous track

Used output format : User Defined Encoder
Selected bitrate : 1024 kBit/s
Quality : High
Add ID3 tag : No
Command line compressor : C:\Program Files (x86)\Exact Audio Copy\Flac\flac.exe
Additional command line options : -8 -V -T "ARTIST=%artist%" -T "TITLE=%title%" -T "ALBUM=%albumtitle%" -T "DATE=%year%" -T "TRACKNUMBER=%tracknr%" -T "GENRE=%genre%" -T "PERFORMER=%albuminterpret%" -T "COMPOSER=%composer%" %haslyrics%–tag-from-file=LYRICS="%lyricsfile%"%haslyrics% -T "ALBUMARTIST=%albumartist%" -T "DISCNUMBER=%cdnumber%" -T "TOTALDISCS=%totalcds%" -T "TOTALTRACKS=%numtracks%" -T "COMMENT=%comment%" %source% -o %dest%


TOC of the extracted CD

Track | Start | Length | Start sector | End sector
––––––––––––––––––––––––––––-
1 | 0:00.00 | 2:45.36 | 0 | 12410
2 | 2:45.36 | 3:03.06 | 12411 | 26141
3 | 5:48.42 | 3:01.72 | 26142 | 39788
4 | 8:50.39 | 3:01.72 | 39789 | 53435
5 | 11:52.36 | 2:45.68 | 53436 | 65878
6 | 14:38.29 | 3:00.22 | 65879 | 79400
7 | 17:38.51 | 3:23.68 | 79401 | 94693
8 | 21:02.44 | 2:56.55 | 94694 | 107948
9 | 23:59.24 | 3:25.12 | 107949 | 123335
10 | 27:24.36 | 3:37.70 | 123336 | 139680
11 | 31:02.31 | 4:31.64 | 139681 | 160069
12 | 35:34.20 | 2:53.62 | 160070 | 173106
13 | 38:28.07 | 2:59.53 | 173107 | 186584
14 | 41:27.60 | 2:55.37 | 186585 | 199746
15 | 44:23.22 | 2:55.02 | 199747 | 212873
16 | 47:18.24 | 2:46.58 | 212874 | 225381
17 | 50:05.07 | 2:47.63 | 225382 | 237969
18 | 52:52.70 | 3:00.40 | 237970 | 251509
19 | 55:53.35 | 2:53.66 | 251510 | 264550
20 | 58:47.26 | 3:05.01 | 264551 | 278426


Track 1

Filename E:\CDRips\01 - ABBA - Waterloo [1974].wav

Pre-gap length 0:00:02.00

Peak level 100.0 %
Extraction speed 2.0 X
Track quality 100.0 %
Test CRC 14C55E7B
Copy CRC 14C55E7B
Accurately ripped (confidence 1) [1187B022] (AR v2)
Copy OK

Track 2

Filename E:\CDRips\02 - Nicole - Ein Bißchen Frieden [1982].wav

Peak level 100.0 %
Extraction speed 2.2 X
Track quality 100.0 %
Test CRC 687D3713
Copy CRC 687D3713
Accurately ripped (confidence 1) [5C0DC943] (AR v2)
Copy OK

Track 3

Filename E:\CDRips\03 - Olsen Brothers - Fly On The Wings Of Love [2000].wav

Pre-gap length 0:00:00.30

Peak level 75.0 %
Extraction speed 2.4 X
Track quality 100.0 %
Test CRC 365F34F0
Copy CRC 365F34F0
Accurately ripped (confidence 1) [4014802F] (AR v2)
Copy OK

Track 4

Filename E:\CDRips\04 - Alexander Rybak - Fairytale [2009].wav

Pre-gap length 0:00:00.18

Peak level 100.0 %
Extraction speed 2.5 X
Track quality 100.0 %
Test CRC A77EDBAA
Copy CRC A77EDBAA
Accurately ripped (confidence 1) [2E98C30A] (AR v2)
Copy OK

Track 5

Filename E:\CDRips\05 - Nicole & Hugo - Goeiemorgen Morgen [1971].wav

Pre-gap length 0:00:00.52

Peak level 100.0 %
Extraction speed 2.6 X
Track quality 100.0 %
Test CRC FBF15979
Copy CRC FBF15979
Accurately ripped (confidence 1) [F2F3ABFC] (AR v2)
Copy OK

Track 6

Filename E:\CDRips\06 - Teddy Scholten - 'n Beetje [1959].wav

Pre-gap length 0:00:00.24

Peak level 100.0 %
Extraction speed 2.7 X
Track quality 100.0 %
Test CRC 9C068B1F
Copy CRC 9C068B1F
Accurately ripped (confidence 1) [7797B295] (AR v2)
Copy OK

Track 7

Filename E:\CDRips\07 - Corry Brokken - Net Als Toen [1957].wav

Pre-gap length 0:00:01.14

Peak level 100.0 %
Extraction speed 3.0 X
Track quality 100.0 %
Test CRC E10AF2C3
Copy CRC E10AF2C3
Accurately ripped (confidence 1) [9E632216] (AR v2)
Copy OK

Track 8

Filename E:\CDRips\08 - Mouth & MacNeal - I See A Star [1974].wav

Pre-gap length 0:00:00.60

Peak level 100.0 %
Extraction speed 3.0 X
Track quality 100.0 %
Test CRC 4972A1CB
Copy CRC 4972A1CB
Accurately ripped (confidence 1) [8A8FF176] (AR v2)
Copy OK

Track 9

Filename E:\CDRips\09 - Milk & Honey - Hallelujah [1979].wav

Pre-gap length 0:00:01.05

Peak level 100.0 %
Extraction speed 2.5 X
Track quality 99.9 %
Test CRC 71AA0FB8
Copy CRC 71AA0FB8
Accurately ripped (confidence 1) [43F3B22A] (AR v2)
Copy OK

Track 10

Filename E:\CDRips\10 - Vicky Leandros - Après Toi [1972].wav

Pre-gap length 0:00:01.25

Peak level 100.0 %
Extraction speed 3.4 X
Track quality 100.0 %
Test CRC 069FA9E7
Copy CRC 069FA9E7
Accurately ripped (confidence 1) [5C041D67] (AR v2)
Copy OK

Track 11

Filename E:\CDRips\11 - Baccara - Parlez-Vous Français [1978].wav

Pre-gap length 0:00:00.92

Peak level 100.0 %
Extraction speed 3.6 X
Track quality 100.0 %
Test CRC 509BC666
Copy CRC 509BC666
Accurately ripped (confidence 1) [8A5B1AD4] (AR v2)
Copy OK

Track 12

Filename E:\CDRips\12 - Stella - Si Tu Aimes Ma Musique [1982].wav

Pre-gap length 0:00:00.49

Peak level 100.0 %
Extraction speed 3.5 X
Track quality 100.0 %
Test CRC C6AB6CB4
Copy CRC C6AB6CB4
Accurately ripped (confidence 1) [12DF1DE8] (AR v2)
Copy OK

Track 13

Filename E:\CDRips\13 - Sandrine - I Feel The Same Way [2008].wav

Pre-gap length 0:00:00.50

Peak level 84.4 %
Extraction speed 3.6 X
Track quality 100.0 %
Test CRC 6C3DB9B6
Copy CRC 6C3DB9B6
Accurately ripped (confidence 1) [BBCD26CC] (AR v2)
Copy OK

Track 14

Filename E:\CDRips\14 - Helena Paparizou - My Number One [2005].wav

Pre-gap length 0:00:00.88

Peak level 100.0 %
Extraction speed 3.6 X
Track quality 100.0 %
Test CRC D88A22B9
Copy CRC D88A22B9
Accurately ripped (confidence 1) [856984FF] (AR v2)
Copy OK

Track 15

Filename E:\CDRips\15 - Belle Perez - El Mundo Bailando [2006].wav

Pre-gap length 0:00:00.86

Peak level 100.0 %
Extraction speed 3.7 X
Track quality 100.0 %
Test CRC 6B44CE83
Copy CRC 6B44CE83
Accurately ripped (confidence 1) [18B3986F] (AR v2)
Copy OK

Track 16

Filename E:\CDRips\16 - Louis Neefs - Jennifer Jennings [1981].wav

Pre-gap length 0:00:00.88

Peak level 100.0 %
Extraction speed 3.8 X
Track quality 100.0 %
Test CRC 564CED01
Copy CRC 564CED01
Accurately ripped (confidence 1) [6A9AFAD2] (AR v2)
Copy OK

Track 17

Filename E:\CDRips\17 - Clouseau - Geef Het Op [1991].wav

Pre-gap length 0:00:00.82

Peak level 93.3 %
Extraction speed 3.8 X
Track quality 100.0 %
Test CRC 4FB896F6
Copy CRC 4FB896F6
Accurately ripped (confidence 1) [E6CC6541] (AR v2)
Copy OK

Track 18

Filename E:\CDRips\18 - Liliane Saint-Pierre - Soldiers Of Love [1987].wav

Pre-gap length 0:00:00.89

Peak level 100.0 %
Extraction speed 4.0 X
Track quality 100.0 %
Test CRC 38E0B719
Copy CRC 38E0B719
Accurately ripped (confidence 1) [F54EE3B4] (AR v2)
Copy OK

Track 19

Filename E:\CDRips\19 - Lisa Del Bo - Liefde Is Een Kaartspel [1999].wav

Pre-gap length 0:00:00.92

Peak level 100.0 %
Extraction speed 4.0 X
Track quality 100.0 %
Test CRC CBB17702
Copy CRC CBB17702
Accurately ripped (confidence 1) [8DA1DD1C] (AR v2)
Copy OK

Track 20

Filename E:\CDRips\20 - Sandra Kim - J'aime La Vie [1986].wav

Pre-gap length 0:00:01.16

Peak level 100.0 %
Extraction speed 4.2 X
Track quality 100.0 %
Test CRC 29383700
Copy CRC 29383700
Accurately ripped (confidence 1) [7CBF2863] (AR v2)
Copy OK


All tracks accurately ripped

No errors occurred

End of status report

–– CUETools DB Plugin V2.1.3

[CTDB TOCID: 6m7nK6fqCEA60o1Ps9CVpHwAGYg-] disk not present in database, Submit result: 6m7nK6fqCEA60o1Ps9CVpHwAGYg- has been uploaded


==== Log checksum 1B4CC5273B8031DFAF923BCBCBBEA8F55A919D5E1D6BD543921A9D74436B051D ====


Exact Audio Copy V1.0 beta 3 from 29. August 2011

EAC extraction logfile from 10. December 2011, 14:21

Various / 100 Eurosong Klassiekers (Universal BE 2010) CD2

Used drive : hp CDDVDW TS-L633N Adapter: 0 ID: 1

Read mode : Secure
Utilize accurate stream : Yes
Defeat audio cache : Yes
Make use of C2 pointers : No

Read offset correction : 6
Overread into Lead-In and Lead-Out : No
Fill up missing offset samples with silence : Yes
Delete leading and trailing silent blocks : No
Null samples used in CRC calculations : Yes
Used interface : Native Win32 interface for Win NT & 2000
Gap handling : Appended to previous track

Used output format : User Defined Encoder
Selected bitrate : 1024 kBit/s
Quality : High
Add ID3 tag : No
Command line compressor : C:\Program Files (x86)\Exact Audio Copy\Flac\flac.exe
Additional command line options : -8 -V -T "ARTIST=%artist%" -T "TITLE=%title%" -T "ALBUM=%albumtitle%" -T "DATE=%year%" -T "TRACKNUMBER=%tracknr%" -T "GENRE=%genre%" -T "PERFORMER=%albuminterpret%" -T "COMPOSER=%composer%" %haslyrics%–tag-from-file=LYRICS="%lyricsfile%"%haslyrics% -T "ALBUMARTIST=%albumartist%" -T "DISCNUMBER=%cdnumber%" -T "TOTALDISCS=%totalcds%" -T "TOTALTRACKS=%numtracks%" -T "COMMENT=%comment%" %source% -o %dest%


TOC of the extracted CD

Track | Start | Length | Start sector | End sector
––––––––––––––––––––––––––––-
1 | 0:00.00 | 3:02.10 | 0 | 13659
2 | 3:02.10 | 2:31.15 | 13660 | 24999
3 | 5:33.25 | 2:45.10 | 25000 | 37384
4 | 8:18.35 | 2:38.61 | 37385 | 49295
5 | 10:57.21 | 2:50.33 | 49296 | 62078
6 | 13:47.54 | 2:32.10 | 62079 | 73488
7 | 16:19.64 | 3:23.04 | 73489 | 88717
8 | 19:42.68 | 1:53.48 | 88718 | 97240
9 | 21:36.41 | 2:32.02 | 97241 | 108642
10 | 24:08.43 | 2:31.45 | 108643 | 120012
11 | 26:40.13 | 2:23.49 | 120013 | 130786
12 | 29:03.62 | 4:12.18 | 130787 | 149704
13 | 33:16.05 | 3:02.22 | 149705 | 163376
14 | 36:18.27 | 2:57.50 | 163377 | 176701
15 | 39:16.02 | 2:05.46 | 176702 | 186122
16 | 41:21.48 | 3:00.63 | 186123 | 199685
17 | 44:22.36 | 2:21.53 | 199686 | 210313
18 | 46:44.14 | 3:07.37 | 210314 | 224375
19 | 49:51.51 | 2:26.42 | 224376 | 235367
20 | 52:18.18 | 2:58.66 | 235368 | 248783


Track 1

Filename E:\CDRips\01 - Dana International - Diva [1998].wav

Pre-gap length 0:00:02.00

Peak level 100.0 %
Extraction speed 2.1 X
Track quality 100.0 %
Test CRC 7E75EB1B
Copy CRC 7E75EB1B
Accurately ripped (confidence 1) [57E90D20] (AR v2)
Copy OK

Track 2

Filename E:\CDRips\02 - France Gall - Poupée De Cire Poupée De Son [1965].wav

Pre-gap length 0:00:01.04

Peak level 100.0 %
Extraction speed 2.2 X
Track quality 100.0 %
Test CRC 233EC4A2
Copy CRC 233EC4A2
Accurately ripped (confidence 1) [B89B5451] (AR v2)
Copy OK

Track 3

Filename E:\CDRips\03 - Pas De Deux - Rendez-Vous [1983].wav

Pre-gap length 0:00:00.96

Peak level 100.0 %
Extraction speed 2.4 X
Track quality 100.0 %
Test CRC 2DF1A45B
Copy CRC 2DF1A45B
Accurately ripped (confidence 1) [C096FAB5] (AR v2)
Copy OK

Track 4

Filename E:\CDRips\04 - Anne-Marie David - Tu Te Reconnaîtras [1973].wav

Pre-gap length 0:00:01.13

Peak level 100.0 %
Extraction speed 2.5 X
Track quality 100.0 %
Test CRC 18FF2DB9
Copy CRC 18FF2DB9
Accurately ripped (confidence 1) [5894AFD6] (AR v2)
Copy OK

Track 5

Filename E:\CDRips\05 - Gigliola Cinquetti - Non Ho l'Etá [1964].wav

Pre-gap length 0:00:01.46

Peak level 100.0 %
Extraction speed 2.7 X
Track quality 100.0 %
Test CRC 290174FA
Copy CRC 290174FA
Accurately ripped (confidence 1) [3058AE54] (AR v2)
Copy OK

Track 6

Filename E:\CDRips\06 - Cliff Richard - Congratulations [1968].wav

Peak level 100.0 %
Extraction speed 2.7 X
Track quality 100.0 %
Test CRC AE54E8D6
Copy CRC AE54E8D6
Accurately ripped (confidence 1) [D360A759] (AR v2)
Copy OK

Track 7

Filename E:\CDRips\07 - K3 - Heyah Mama [1999].wav

Pre-gap length 0:00:01.69

Peak level 82.3 %
Extraction speed 3.0 X
Track quality 100.0 %
Test CRC 59DB7509
Copy CRC 59DB7509
Accurately ripped (confidence 1) [1B59F858] (AR v2)
Copy OK

Track 8

Filename E:\CDRips\08 - Anneke Soetaert - Rio De Janeiro [1966].wav

Pre-gap length 0:00:01.70

Peak level 100.0 %
Extraction speed 2.7 X
Track quality 100.0 %
Test CRC F20D040F
Copy CRC F20D040F
Accurately ripped (confidence 1) [D3CB641B] (AR v2)
Copy OK

Track 9

Filename E:\CDRips\09 - Ishtar - O Julissi Na Jalini [2008].wav

Pre-gap length 0:00:01.12

Peak level 100.0 %
Extraction speed 2.2 X
Track quality 99.9 %
Test CRC 7B04EE50
Copy CRC 7B04EE50
Accurately ripped (confidence 1) [78D891D2] (AR v2)
Copy OK

Track 10

Filename E:\CDRips\10 - Domenico Modugno - Nel Blu Dipinto Di Blu (Volare) [1953].wav

Pre-gap length 0:00:01.04

Peak level 100.0 %
Extraction speed 3.0 X
Track quality 100.0 %
Test CRC 79F052E8
Copy CRC 79F052E8
Accurately ripped (confidence 1) [21A241EB] (AR v2)
Copy OK

Track 11

Filename E:\CDRips\11 - Micha Marah - Tamboerke [1969].wav

Pre-gap length 0:00:01.52

Peak level 100.0 %
Extraction speed 3.1 X
Track quality 100.0 %
Test CRC D49F879F
Copy CRC D49F879F
Accurately ripped (confidence 1) [99BABB5C] (AR v2)
Copy OK

Track 12

Filename E:\CDRips\12 - Wim De Craene - Kristien [1990].wav

Pre-gap length 0:00:01.89

Peak level 100.0 %
Extraction speed 3.5 X
Track quality 100.0 %
Test CRC B0545D1A
Copy CRC B0545D1A
Accurately ripped (confidence 1) [627B97C0] (AR v2)
Copy OK

Track 13

Filename E:\CDRips\13 - Barbara Dex - Iemand Als Jij [1993].wav

Pre-gap length 0:00:00.98

Peak level 100.0 %
Extraction speed 3.4 X
Track quality 100.0 %
Test CRC 29A01F28
Copy CRC 29A01F28
Accurately ripped (confidence 1) [823CA11E] (AR v2)
Copy OK

Track 14

Filename E:\CDRips\14 - Vanessa Chinitor - Like The Wind [1999].wav

Pre-gap length 0:00:01.54

Peak level 94.4 %
Extraction speed 3.5 X
Track quality 100.0 %
Test CRC 244B83CD
Copy CRC 244B83CD
Accurately ripped (confidence 1) [F7689FB9] (AR v2)
Copy OK

Track 15

Filename E:\CDRips\15 - Allisons - Are You Sure [1961].wav

Pre-gap length 0:00:01.17

Peak level 100.0 %
Extraction speed 3.4 X
Track quality 100.0 %
Test CRC 64AF04FC
Copy CRC 64AF04FC
Accurately ripped (confidence 1) [4F6384E1] (AR v2)
Copy OK

Track 16

Filename E:\CDRips\16 - Clodagh Rodgers - Jack In The Box [1971].wav

Pre-gap length 0:00:01.56

Peak level 100.0 %
Extraction speed 3.6 X
Track quality 100.0 %
Test CRC 443E1EB2
Copy CRC 443E1EB2
Accurately ripped (confidence 1) [B6F99A42] (AR v2)
Copy OK

Track 17

Filename E:\CDRips\17 - Lulu - Boom Bang-A-Bang [1969].wav

Pre-gap length 0:00:01.08

Peak level 100.0 %
Extraction speed 3.6 X
Track quality 100.0 %
Test CRC E5005FB1
Copy CRC E5005FB1
Accurately ripped (confidence 1) [947E9B96] (AR v2)
Copy OK

Track 18

Filename E:\CDRips\18 - Herrey's - Diggi-Loo-Diggy Ley [1984].wav

Pre-gap length 0:00:01.26

Peak level 100.0 %
Extraction speed 3.8 X
Track quality 100.0 %
Test CRC 26439AF3
Copy CRC 26439AF3
Accurately ripped (confidence 1) [B7ED3F85] (AR v2)
Copy OK

Track 19

Filename E:\CDRips\19 - Teach In - Ding-A-Dong [1975].wav

Pre-gap length 0:00:01.38

Peak level 97.7 %
Extraction speed 3.7 X
Track quality 100.0 %
Test CRC 27647B91
Copy CRC 27647B91
Accurately ripped (confidence 1) [33C21EEF] (AR v2)
Copy OK

Track 20

Filename E:\CDRips\20 - Izhar Cohen & The Alpha-Beta - A-Ba-Ni-Bi [1978].wav

Pre-gap length 0:00:01.30

Peak level 98.9 %
Extraction speed 3.9 X
Track quality 100.0 %
Test CRC 10937B03
Copy CRC 10937B03
Accurately ripped (confidence 1) [31365747] (AR v2)
Copy OK


All tracks accurately ripped

No errors occurred

End of status report

–– CUETools DB Plugin V2.1.3

[CTDB TOCID: l1cOxtojwGVw6SwFJfEmitYz9YA-] disk not present in database, Submit result: l1cOxtojwGVw6SwFJfEmitYz9YA- has been uploaded


==== Log checksum D70B1145A38DB33ACC45BDCFA30E976AA9391F189F42803CAA95EE4B5BC256EC ====


Exact Audio Copy V1.0 beta 3 from 29. August 2011

EAC extraction logfile from 10. December 2011, 16:58

Various / 100 Eurosong Klassiekers (Universal BE 2010) CD3

Used drive : hp CDDVDW TS-L633N Adapter: 0 ID: 1

Read mode : Secure
Utilize accurate stream : Yes
Defeat audio cache : Yes
Make use of C2 pointers : No

Read offset correction : 6
Overread into Lead-In and Lead-Out : No
Fill up missing offset samples with silence : Yes
Delete leading and trailing silent blocks : No
Null samples used in CRC calculations : Yes
Used interface : Native Win32 interface for Win NT & 2000
Gap handling : Appended to previous track

Used output format : User Defined Encoder
Selected bitrate : 1024 kBit/s
Quality : High
Add ID3 tag : No
Command line compressor : C:\Program Files (x86)\Exact Audio Copy\Flac\flac.exe
Additional command line options : -8 -V -T "ARTIST=%artist%" -T "TITLE=%title%" -T "ALBUM=%albumtitle%" -T "DATE=%year%" -T "TRACKNUMBER=%tracknr%" -T "GENRE=%genre%" -T "PERFORMER=%albuminterpret%" -T "COMPOSER=%composer%" %haslyrics%–tag-from-file=LYRICS="%lyricsfile%"%haslyrics% -T "ALBUMARTIST=%albumartist%" -T "DISCNUMBER=%cdnumber%" -T "TOTALDISCS=%totalcds%" -T "TOTALTRACKS=%numtracks%" -T "COMMENT=%comment%" %source% -o %dest%


TOC of the extracted CD

Track | Start | Length | Start sector | End sector
––––––––––––––––––––––––––––-
1 | 0:00.00 | 2:39.43 | 0 | 11967
2 | 2:39.43 | 2:54.10 | 11968 | 25027
3 | 5:33.53 | 2:54.16 | 25028 | 38093
4 | 8:27.69 | 4:25.56 | 38094 | 58024
5 | 12:53.50 | 3:55.09 | 58025 | 75658
6 | 16:48.59 | 3:04.21 | 75659 | 89479
7 | 19:53.05 | 3:01.33 | 89480 | 103087
8 | 22:54.38 | 3:20.74 | 103088 | 118161
9 | 26:15.37 | 2:58.26 | 118162 | 131537
10 | 29:13.63 | 3:04.72 | 131538 | 145409
11 | 32:18.60 | 3:03.70 | 145410 | 159204
12 | 35:22.55 | 2:57.11 | 159205 | 172490
13 | 38:19.66 | 2:31.71 | 172491 | 183886
14 | 40:51.62 | 3:00.29 | 183887 | 197415
15 | 43:52.16 | 3:32.31 | 197416 | 213346
16 | 47:24.47 | 2:27.67 | 213347 | 224438
17 | 49:52.39 | 2:57.40 | 224439 | 237753
18 | 52:50.04 | 2:48.27 | 237754 | 250380
19 | 55:38.31 | 3:00.52 | 250381 | 263932
20 | 58:39.08 | 2:56.49 | 263933 | 277181


Track 1

Filename E:\CDRips\01 - Bucks Fizz - Making Your Mind Up [1981].wav

Pre-gap length 0:00:02.00

Peak level 100.0 %
Extraction speed 2.1 X
Track quality 100.0 %
Test CRC 82431617
Copy CRC 82431617
Accurately ripped (confidence 1) [E6A8CA0C] (AR v2)
Copy OK

Track 2

Filename E:\CDRips\02 - Bobbysocks - Let It Swing [1985].wav

Pre-gap length 0:00:01.37

Peak level 100.0 %
Extraction speed 2.2 X
Track quality 100.0 %
Test CRC 57A935F8
Copy CRC 57A935F8
Accurately ripped (confidence 1) [75460D48] (AR v2)
Copy OK

Track 3

Filename E:\CDRips\03 - Natalia - Higher Than The Sun [2004].wav

Pre-gap length 0:00:01.04

Peak level 86.4 %
Extraction speed 2.4 X
Track quality 100.0 %
Test CRC 14D2DC6F
Copy CRC 14D2DC6F
Accurately ripped (confidence 1) [0E71EF9E] (AR v2)
Copy OK

Track 4

Filename E:\CDRips\04 - Toto Cutugno - Insieme 1992 [1990].wav

Pre-gap length 0:00:01.38

Peak level 100.0 %
Extraction speed 2.8 X
Track quality 100.0 %
Test CRC DC865C1A
Copy CRC DC865C1A
Accurately ripped (confidence 1) [4C07AEF9] (AR v2)
Copy OK

Track 5

Filename E:\CDRips\05 - Umberto Tozzi - Gente Di Mare [1987].wav

Pre-gap length 0:00:01.25

Peak level 100.0 %
Extraction speed 2.9 X
Track quality 100.0 %
Test CRC 6176F3D7
Copy CRC 6176F3D7
Accurately ripped (confidence 1) [B1B71250] (AR v2)
Copy OK

Track 6

Filename E:\CDRips\06 - Bart Herman - Ik Ga Dood Aan Jou [1993].wav

Pre-gap length 0:00:00.85

Peak level 89.0 %
Extraction speed 2.2 X
Track quality 99.9 %
Test CRC 1D417749
Copy CRC 1D417749
Accurately ripped (confidence 1) [9B09A0AA] (AR v2)
Copy OK

Track 7

Filename E:\CDRips\07 - Els De Schepper - Als Ik Je Morgen Ergens Tegenkom [2006].wav

Pre-gap length 0:00:01.64

Peak level 78.0 %
Extraction speed 3.0 X
Track quality 100.0 %
Test CRC 46B60C33
Copy CRC 46B60C33
Accurately ripped (confidence 1) [433D2C08] (AR v2)
Copy OK

Track 8

Filename E:\CDRips\08 - Johnny White - Verloren Hart Verloren Droom [1971].wav

Pre-gap length 0:00:01.93

Peak level 100.0 %
Extraction speed 3.1 X
Track quality 100.0 %
Test CRC 9D9D5018
Copy CRC 9D9D5018
Accurately ripped (confidence 1) [41F6173E] (AR v2)
Copy OK

Track 9

Filename E:\CDRips\09 - Kaye Styles - Profile [2005].wav

Pre-gap length 0:00:01.42

Peak level 89.1 %
Extraction speed 3.2 X
Track quality 100.0 %
Test CRC 330567DC
Copy CRC 330567DC
Accurately ripped (confidence 1) [F471B3AD] (AR v2)
Copy OK

Track 10

Filename E:\CDRips\10 - Jacqueline Boyer - Tom Pillibi [1960].wav

Pre-gap length 0:00:01.42

Peak level 100.0 %
Extraction speed 3.3 X
Track quality 100.0 %
Test CRC 1E1059AE
Copy CRC 1E1059AE
Accurately ripped (confidence 1) [2BA9B7E8] (AR v2)
Copy OK

Track 11

Filename E:\CDRips\11 - Joelle Ursull - White And Black Blues [1990].wav

Pre-gap length 0:00:01.40

Peak level 100.0 %
Extraction speed 2.6 X
Track quality 99.9 %
Test CRC DB4CCF7B
Copy CRC DB4CCF7B
Accurately ripped (confidence 1) [0B753B0F] (AR v2)
Copy OK

Track 12

Filename E:\CDRips\12 - Carola - Love Isn't Love [1983].wav

Pre-gap length 0:00:01.29

Peak level 100.0 %
Extraction speed 3.5 X
Track quality 100.0 %
Test CRC E8C060D4
Copy CRC E8C060D4
Accurately ripped (confidence 1) [02716DB6] (AR v2)
Copy OK

Track 13

Filename E:\CDRips\13 - Rudi Carrell - Wat Een Geluk [1960].wav

Pre-gap length 0:00:01.17

Peak level 100.0 %
Extraction speed 3.5 X
Track quality 100.0 %
Test CRC 19D28903
Copy CRC 19D28903
Accurately ripped (confidence 1) [EE9E0392] (AR v2)
Copy OK

Track 14

Filename E:\CDRips\14 - Rita Deneve - Vrede Voor Iedereen [1973].wav

Pre-gap length 0:00:01.41

Peak level 100.0 %
Extraction speed 3.7 X
Track quality 100.0 %
Test CRC 9B39A9FC
Copy CRC 9B39A9FC
Accurately ripped (confidence 1) [0C98A3BD] (AR v2)
Copy OK

Track 15

Filename E:\CDRips\15 - Katja Ebstein - Wunder Gibt Es Immer Wieder [1970].wav

Pre-gap length 0:00:01.46

Peak level 97.7 %
Extraction speed 3.8 X
Track quality 100.0 %
Test CRC E12FF1FF
Copy CRC E12FF1FF
Accurately ripped (confidence 1) [9D01BB9B] (AR v2)
Copy OK

Track 16

Filename E:\CDRips\16 - Catherine Ferry - 1 2 3 [1976].wav

Pre-gap length 0:00:01.33

Peak level 100.0 %
Extraction speed 3.7 X
Track quality 100.0 %
Test CRC 62FEB974
Copy CRC 62FEB974
Accurately ripped (confidence 1) [EFC61464] (AR v2)
Copy OK

Track 17

Filename E:\CDRips\17 - Tanel Padar & Dave Benton & 2XL - Everybody [2001].wav

Pre-gap length 0:00:00.96

Peak level 100.0 %
Extraction speed 3.9 X
Track quality 100.0 %
Test CRC 95221FDA
Copy CRC 95221FDA
Accurately ripped (confidence 1) [68ECAAAD] (AR v2)
Copy OK

Track 18

Filename E:\CDRips\18 - Katrina & The Waves - Love Shine A Light [1997].wav

Pre-gap length 0:00:01.18

Peak level 95.1 %
Extraction speed 3.9 X
Track quality 100.0 %
Test CRC B81436FC
Copy CRC B81436FC
Accurately ripped (confidence 1) [8EF4668F] (AR v2)
Copy OK

Track 19

Filename E:\CDRips\19 - Urban Trad - Sanomi [2003].wav

Peak level 100.0 %
Extraction speed 4.0 X
Track quality 100.0 %
Test CRC 4BAB2086
Copy CRC 4BAB2086
Accurately ripped (confidence 1) [4E6E10EA] (AR v2)
Copy OK

Track 20

Filename E:\CDRips\20 - Johnny Logan - What's Another Year [1980].wav

Pre-gap length 0:00:00.93

Peak level 100.0 %
Extraction speed 3.0 X
Track quality 99.9 %
Test CRC 1000DFC8
Copy CRC 1000DFC8
Accurately ripped (confidence 1) [B0A7E62C] (AR v2)
Copy OK


All tracks accurately ripped

No errors occurred

End of status report

–– CUETools DB Plugin V2.1.3

[CTDB TOCID: bv7i3Wk2EtSn3XFLog2Z_SduLZM-] disk not present in database, Submit result: bv7i3Wk2EtSn3XFLog2Z_SduLZM- has been uploaded


==== Log checksum 893CF81D149E7443D4813B81286F9B2D49877348464B56E1D5F651B78735186D ====