Tags
Language
Tags

VA - 12 Inch Dance: Australian 80s Pop (2017)

Posted By: Rtax
VA - 12 Inch Dance: Australian 80s Pop (2017)

VA - 12 Inch Dance: Australian 80s Pop (2017)
EAC Rip | FLAC (tracks, cue, log, scans) - 1.4 GB | MP3 CBR 320 kbps - 514 MB
3:42:33 | Pop Rock, Pub Rock, Power Pop, New Wave | Label: Festival Records / Rhino / Warner Music

2017 three CD set. 12 Inch Dance: Australian 80s Pop includes 37 rare extended versions of great Australian hits of the '80s from the likes of Icehouse, Real Life, Kids In The Kitchen, Split Enz, Pseudo Echo, I'm Talking, The Dugites, Kate Ceberano, Hunters & Collectors, Eurogliders, Boom Crash Opera, Models, Flowers, Wa Wa Nee, Stephen Cummings and others. The majority of these mixes have never been reissued in any format, and have never before been digitized. The 1980s was of course the decade the 12" single came into it's own. More than just a marketing tool, it enabled fresh and expansive remixes of dance-oriented pop tracks which were perfect for club DJ's and those wanting to hit the dancefloor to their favorite radio hits. Compiled by writer David Nichols (former Australian Smash Hits features editor in the '80s, co-author of Pop Life: Inside Smash Hits Australia and author of Dig: Australian Rock and Pop Music 1960-85.

Tracklist
Disc 1
1. Real Life - Catch Me I'm Falling (Extended Version) (5:43)
2. The Venetians - So Much for Love (Rock Mix) (5:39)
3. Deckchairs Overboard - Shout (Extended) (5:35)
4. Kids In The Kitchen - Something That You Said (Club Mix) (5:35)
5. Big Pig - Justifier (12" Lucky Break Mix) (7:00)
6. Flowers - Can't Help Myself (Extended Version) (5:49)
7. Do Re Mi - Idiot Grin (Extended Mix) (5:19)
8. Yothu Yindi - Djapana (Gapirri Mix) (7:49)
9. Beargarden - The Finer Things (Extended Mix) (5:25)
10. Flash & The Pan - Waiting for a Train (Extended Remix) (7:17)
11. Zan - Good Love (Good Lovin' Mix) (5:35)
12. Boxcar - Gas Stop (High Octane Mix) (7:02)

Disc 2
1. Dropbears - Shall We Go (Extended Version) (7:16)
2. I'm Talking - Someday (Extended Mix) (7:17)
3. Go 101 - Build It Up (Extended Mix) (5:05)
4. Jo Jo Zep - Losing Game (Remixed Version) (5:52)
5. Icehouse - Hey, Little Girl (Extended Dance Mix) (6:58)
6. Schnell Fenster - Whisper (Extended Version) (7:13)
7. SPK feat. Graeme Revell & Karina Hayes - Breathless (Extended Dance Mix) (7:42)
8. Dragon - River (12" Alluvial Mudmix) (6:13)
9. Jump Incorporated - Sex and Fame (Julian Mendelsohn Remix) (5:31)
10. No Justice feat. Nikki Bennett - Lately (And Now for Something Completely Different) (5:33)
11. Pseudo Echo - A Beat for You (Extended Version) (7:26)
12. Pel Mel - Pandemonium (Extended Mix) (5:34)

Disc 3
1. The Dugites - Cut the Talking (12" Extended Remix) (5:46)
2. Boom Crash Opera - City Flat (Extended Mix) (6:44)
3. Hunters & Collectors - Say Goodbye (Extended Mix) (5:55)
4. Eurogliders - Can't Wait to See You (Moshi Moshi Mix) (5:43)
5. Kate Ceberano - Bedroom Eyes (UK Extended Version) (6:10)
6. Mondo Rock - The Modern Bop (Jellybean Mix) (3:46)
7. Split Enz - I Walk Away (Extended Version) (5:24)
8. Stephen Cummings - Gymnasium (Mega Dance Mix) (5:05)
9. Wa Wa Nee - Can't Control Myself (Mixus Maximus Remix) (6:39)
10. Jenny Morris - Body and Soul (Extended Version) (5:49)
11. Machinations - Pressure Sway (Extended Version) (4:57)
12. Models - I Hear Motion (Extended Mix) (6:29)
13. Kids In The Kitchen - Bruce's Big Bonus Beats (2:13)
Exact Audio Copy V1.0 beta 3 from 29. August 2011

EAC extraction logfile from 10. February 2017, 14:59

Various / 12 Inch Dance - Australian 80s Pop

Used drive : ATAPI iHES312 3 Adapter: 1 ID: 0

Read mode : Secure
Utilize accurate stream : Yes
Defeat audio cache : Yes
Make use of C2 pointers : No

Read offset correction : 702
Overread into Lead-In and Lead-Out : No
Fill up missing offset samples with silence : Yes
Delete leading and trailing silent blocks : No
Null samples used in CRC calculations : Yes
Used interface : Installed external ASPI interface
Gap handling : Appended to previous track

Used output format : User Defined Encoder
Selected bitrate : 896 kBit/s
Quality : High
Add ID3 tag : No
Command line compressor : C:\Program Files (x86)\Exact Audio Copy\Flac\flac.exe
Additional command line options : -8 -V -T "ARTIST=%artist%" -T "TITLE=%title%" -T "ALBUM=%albumtitle%" -T "DATE=%year%" -T "TRACKNUMBER=%tracknr%" -T "GENRE=%genre%" -T "PERFORMER=%albuminterpret%" -T "COMPOSER=%composer%" %haslyrics%–tag-from-file=LYRICS="%lyricsfile%"%haslyrics% -T "ALBUMARTIST=%albumartist%" -T "DISCNUMBER=%cdnumber%" -T "TOTALDISCS=%totalcds%" -T "TOTALTRACKS=%numtracks%" -T "COMMENT=%comment%" %source% -o %dest%


TOC of the extracted CD

Track | Start | Length | Start sector | End sector
––––––––––––––––––––––––––––-
1 | 0:00.00 | 5:43.47 | 0 | 25771
2 | 5:43.47 | 5:39.18 | 25772 | 51214
3 | 11:22.65 | 5:35.70 | 51215 | 76409
4 | 16:58.60 | 5:35.65 | 76410 | 101599
5 | 22:34.50 | 7:08.22 | 101600 | 133721
6 | 29:42.72 | 5:49.50 | 133722 | 159946
7 | 35:32.47 | 5:19.08 | 159947 | 183879
8 | 40:51.55 | 7:49.24 | 183880 | 219078
9 | 48:41.04 | 5:25.46 | 219079 | 243499
10 | 54:06.50 | 7:17.00 | 243500 | 276274
11 | 61:23.50 | 5:35.74 | 276275 | 301473
12 | 66:59.49 | 7:02.73 | 301474 | 333196


Track 1

Filename C:\eacrips\01 - Real Life - Catch Me I'm Falling (Extended Version).wav

Pre-gap length 0:00:02.00

Peak level 100.0 %
Extraction speed 5.4 X
Track quality 99.9 %
Test CRC DF2405BA
Copy CRC DF2405BA
Track not present in AccurateRip database
Copy OK

Track 2

Filename C:\eacrips\02 - The Venetians - So Much For Love (Rock Mix).wav

Pre-gap length 0:00:02.00

Peak level 100.0 %
Extraction speed 6.7 X
Track quality 100.0 %
Test CRC 9457B70B
Copy CRC 9457B70B
Track not present in AccurateRip database
Copy OK

Track 3

Filename C:\eacrips\03 - Deckchairs Overboard - Shout (Extended).wav

Pre-gap length 0:00:01.97

Peak level 100.0 %
Extraction speed 7.2 X
Track quality 100.0 %
Test CRC FC1DAD56
Copy CRC FC1DAD56
Track not present in AccurateRip database
Copy OK

Track 4

Filename C:\eacrips\04 - Kids In The Kitchen - Something That You Said (Club Mix).wav

Pre-gap length 0:00:01.81

Peak level 100.0 %
Extraction speed 8.0 X
Track quality 100.0 %
Test CRC 10338FC9
Copy CRC 10338FC9
Track not present in AccurateRip database
Copy OK

Track 5

Filename C:\eacrips\05 - Big Pig - Justifier (12'' Lucky Break Mix).wav

Pre-gap length 0:00:01.77

Peak level 100.0 %
Extraction speed 7.8 X
Track quality 99.9 %
Test CRC 24EA5618
Copy CRC 24EA5618
Track not present in AccurateRip database
Copy OK

Track 6

Filename C:\eacrips\06 - Flowers - Can't Help Myself (Extended Version).wav

Pre-gap length 0:00:01.73

Peak level 100.0 %
Extraction speed 9.2 X
Track quality 100.0 %
Test CRC F7362D69
Copy CRC F7362D69
Track not present in AccurateRip database
Copy OK

Track 7

Filename C:\eacrips\07 - Do Re Mi - Idiot Grin (Extended Mix).wav

Pre-gap length 0:00:01.72

Peak level 100.0 %
Extraction speed 9.3 X
Track quality 100.0 %
Test CRC AE5499DB
Copy CRC AE5499DB
Track not present in AccurateRip database
Copy OK

Track 8

Filename C:\eacrips\08 - Yothu Yindi - Djapana (Gapirri Mix).wav

Pre-gap length 0:00:01.72

Peak level 100.0 %
Extraction speed 10.4 X
Track quality 100.0 %
Test CRC B4D2D781
Copy CRC B4D2D781
Track not present in AccurateRip database
Copy OK

Track 9

Filename C:\eacrips\09 - Beargarden - The Finer Things (Extended Mix).wav

Pre-gap length 0:00:01.26

Peak level 100.0 %
Extraction speed 10.3 X
Track quality 100.0 %
Test CRC FB4F5A92
Copy CRC FB4F5A92
Track not present in AccurateRip database
Copy OK

Track 10

Filename C:\eacrips\10 - Flash & The Pan - Waiting For A Train (Extended Remix).wav

Pre-gap length 0:00:01.74

Peak level 94.0 %
Extraction speed 11.2 X
Track quality 100.0 %
Test CRC B31738D2
Copy CRC B31738D2
Track not present in AccurateRip database
Copy OK

Track 11

Filename C:\eacrips\11 - Zan - Good Love (Good Lovin' Mix).wav

Pre-gap length 0:00:01.90

Peak level 100.0 %
Extraction speed 10.0 X
Track quality 99.9 %
Test CRC 69984554
Copy CRC 69984554
Track not present in AccurateRip database
Copy OK

Track 12

Filename C:\eacrips\12 - Boxcar - Gas Stop (High Octane Mix).wav

Pre-gap length 0:00:01.94

Peak level 100.0 %
Extraction speed 7.7 X
Track quality 99.9 %
Test CRC 2C56CF4F
Copy CRC 2C56CF4F
Track not present in AccurateRip database
Copy OK


None of the tracks are present in the AccurateRip database

No errors occurred

End of status report

==== Log checksum 5F673297A32F32AA2EDBEF7DB4778C8FBB1690AE21357242D5ED7168A3CB86CB ====


Exact Audio Copy V1.0 beta 3 from 29. August 2011

EAC extraction logfile from 10. February 2017, 15:24

Various / 12 Inch Dance Australian 80s Pop

Used drive : ATAPI iHES312 3 Adapter: 1 ID: 0

Read mode : Secure
Utilize accurate stream : Yes
Defeat audio cache : Yes
Make use of C2 pointers : No

Read offset correction : 702
Overread into Lead-In and Lead-Out : No
Fill up missing offset samples with silence : Yes
Delete leading and trailing silent blocks : No
Null samples used in CRC calculations : Yes
Used interface : Installed external ASPI interface
Gap handling : Appended to previous track

Used output format : User Defined Encoder
Selected bitrate : 896 kBit/s
Quality : High
Add ID3 tag : No
Command line compressor : C:\Program Files (x86)\Exact Audio Copy\Flac\flac.exe
Additional command line options : -8 -V -T "ARTIST=%artist%" -T "TITLE=%title%" -T "ALBUM=%albumtitle%" -T "DATE=%year%" -T "TRACKNUMBER=%tracknr%" -T "GENRE=%genre%" -T "PERFORMER=%albuminterpret%" -T "COMPOSER=%composer%" %haslyrics%–tag-from-file=LYRICS="%lyricsfile%"%haslyrics% -T "ALBUMARTIST=%albumartist%" -T "DISCNUMBER=%cdnumber%" -T "TOTALDISCS=%totalcds%" -T "TOTALTRACKS=%numtracks%" -T "COMMENT=%comment%" %source% -o %dest%


TOC of the extracted CD

Track | Start | Length | Start sector | End sector
––––––––––––––––––––––––––––-
1 | 0:00.00 | 7:16.11 | 0 | 32710
2 | 7:16.11 | 7:17.36 | 32711 | 65521
3 | 14:33.47 | 5:05.27 | 65522 | 88423
4 | 19:38.74 | 5:52.01 | 88424 | 114824
5 | 25:31.00 | 6:58.47 | 114825 | 146221
6 | 32:29.47 | 7:13.59 | 146222 | 178755
7 | 39:43.31 | 7:42.09 | 178756 | 213414
8 | 47:25.40 | 6:13.07 | 213415 | 241396
9 | 53:38.47 | 5:31.74 | 241397 | 266295
10 | 59:10.46 | 5:33.16 | 266296 | 291286
11 | 64:43.62 | 7:26.62 | 291287 | 324798
12 | 72:10.49 | 5:34.41 | 324799 | 349889


Track 1

Filename C:\eacrips\01 - Dropbears - Shall We Go (Extended Version).wav

Pre-gap length 0:00:02.00

Peak level 100.0 %
Extraction speed 6.2 X
Track quality 100.0 %
Test CRC 71C319F1
Copy CRC 71C319F1
Track not present in AccurateRip database
Copy OK

Track 2

Filename C:\eacrips\02 - I'm Talking - Someday (Extended Mix).wav

Pre-gap length 0:00:01.73

Peak level 100.0 %
Extraction speed 7.2 X
Track quality 100.0 %
Test CRC 394E8E71
Copy CRC 394E8E71
Track not present in AccurateRip database
Copy OK

Track 3

Filename C:\eacrips\03 - Go 101 - Build it up (Extended Mix).wav

Pre-gap length 0:00:01.74

Peak level 100.0 %
Extraction speed 7.8 X
Track quality 100.0 %
Test CRC 69426EBA
Copy CRC 69426EBA
Track not present in AccurateRip database
Copy OK

Track 4

Filename C:\eacrips\04 - Jo Jo Zep - Losing Game (Remixed Version).wav

Pre-gap length 0:00:01.69

Peak level 100.0 %
Extraction speed 8.4 X
Track quality 100.0 %
Test CRC 64A2AFB3
Copy CRC 64A2AFB3
Track not present in AccurateRip database
Copy OK

Track 5

Filename C:\eacrips\05 - Icehouse - Hey, Little Girl (Extended Dance Mix).wav

Pre-gap length 0:00:02.20

Peak level 100.0 %
Extraction speed 8.3 X
Track quality 99.9 %
Test CRC 3C48E791
Copy CRC 3C48E791
Track not present in AccurateRip database
Copy OK

Track 6

Filename C:\eacrips\06 - Schnell Fenster - Whisper (Extended Version).wav

Pre-gap length 0:00:01.85

Peak level 100.0 %
Extraction speed 9.5 X
Track quality 100.0 %
Test CRC 4D996DAC
Copy CRC 4D996DAC
Track not present in AccurateRip database
Copy OK

Track 7

Filename C:\eacrips\07 - SPK ft. Graeme Revell and Karina Hayes - Breathless (Extended Dance Mix).wav

Pre-gap length 0:00:01.81

Peak level 98.0 %
Extraction speed 9.5 X
Track quality 99.9 %
Test CRC 89E724E6
Copy CRC 89E724E6
Track not present in AccurateRip database
Copy OK

Track 8

Filename C:\eacrips\08 - Dragon - River (12” Alluvial Mudmix).wav

Pre-gap length 0:00:01.96

Peak level 100.0 %
Extraction speed 10.7 X
Track quality 100.0 %
Test CRC C4E69C1B
Copy CRC C4E69C1B
Track not present in AccurateRip database
Copy OK

Track 9

Filename C:\eacrips\09 - Jump Incorporated - Sex and Fame (Julian Mendelsohn remix).wav

Pre-gap length 0:00:02.02

Peak level 100.0 %
Extraction speed 9.3 X
Track quality 99.9 %
Test CRC 9B28136F
Copy CRC 9B28136F
Track not present in AccurateRip database
Copy OK

Track 10

Filename C:\eacrips\10 - No Justice - Lately (And Now For Something Completely Different) (featuring Nikki Bennett).wav

Pre-gap length 0:00:01.76

Peak level 100.0 %
Extraction speed 11.3 X
Track quality 100.0 %
Test CRC 0976DE2E
Copy CRC 0976DE2E
Track not present in AccurateRip database
Copy OK

Track 11

Filename C:\eacrips\11 - Pseudo Echo - A Beat For You [Extended Version].wav

Pre-gap length 0:00:01.76

Peak level 99.9 %
Extraction speed 10.9 X
Track quality 99.9 %
Test CRC E0F0C12E
Copy CRC E0F0C12E
Track not present in AccurateRip database
Copy OK

Track 12

Filename C:\eacrips\12 - Pel Mel - Pandemonium (Extended Mix).wav

Pre-gap length 0:00:01.62

Peak level 97.7 %
Extraction speed 10.3 X
Track quality 99.9 %
Test CRC 13C6D942
Copy CRC 13C6D942
Track not present in AccurateRip database
Copy OK


None of the tracks are present in the AccurateRip database

No errors occurred

End of status report

==== Log checksum 9B6C5FA26234098D222A722890DE9F9FDFC311CFB1E86E53462CA7CB00BC8661 ====


Exact Audio Copy V1.0 beta 3 from 29. August 2011

EAC extraction logfile from 10. February 2017, 15:49

Various / 12 Inch Dance - Australian 80s Pop

Used drive : ATAPI iHES312 3 Adapter: 1 ID: 0

Read mode : Secure
Utilize accurate stream : Yes
Defeat audio cache : Yes
Make use of C2 pointers : No

Read offset correction : 702
Overread into Lead-In and Lead-Out : No
Fill up missing offset samples with silence : Yes
Delete leading and trailing silent blocks : No
Null samples used in CRC calculations : Yes
Used interface : Installed external ASPI interface
Gap handling : Appended to previous track

Used output format : User Defined Encoder
Selected bitrate : 896 kBit/s
Quality : High
Add ID3 tag : No
Command line compressor : C:\Program Files (x86)\Exact Audio Copy\Flac\flac.exe
Additional command line options : -8 -V -T "ARTIST=%artist%" -T "TITLE=%title%" -T "ALBUM=%albumtitle%" -T "DATE=%year%" -T "TRACKNUMBER=%tracknr%" -T "GENRE=%genre%" -T "PERFORMER=%albuminterpret%" -T "COMPOSER=%composer%" %haslyrics%–tag-from-file=LYRICS="%lyricsfile%"%haslyrics% -T "ALBUMARTIST=%albumartist%" -T "DISCNUMBER=%cdnumber%" -T "TOTALDISCS=%totalcds%" -T "TOTALTRACKS=%numtracks%" -T "COMMENT=%comment%" %source% -o %dest%


TOC of the extracted CD

Track | Start | Length | Start sector | End sector
––––––––––––––––––––––––––––-
1 | 0:00.00 | 5:46.51 | 0 | 26000
2 | 5:46.51 | 6:44.12 | 26001 | 56312
3 | 12:30.63 | 5:55.50 | 56313 | 82987
4 | 18:26.38 | 5:43.54 | 82988 | 108766
5 | 24:10.17 | 6:10.32 | 108767 | 136548
6 | 30:20.49 | 3:46.15 | 136549 | 153513
7 | 34:06.64 | 5:24.48 | 153514 | 177861
8 | 39:31.37 | 5:05.33 | 177862 | 200769
9 | 44:36.70 | 6:39.45 | 200770 | 230739
10 | 51:16.40 | 5:49.22 | 230740 | 256936
11 | 57:05.62 | 4:57.35 | 256937 | 279246
12 | 62:03.22 | 6:29.15 | 279247 | 308436
13 | 68:32.37 | 2:13.25 | 308437 | 318436


Track 1

Filename C:\eacrips\01 - The Dugites - Cut The Talking (12” Extended Remix).wav

Pre-gap length 0:00:02.00

Peak level 100.0 %
Extraction speed 5.6 X
Track quality 100.0 %
Test CRC 7136C808
Copy CRC 7136C808
Track not present in AccurateRip database
Copy OK

Track 2

Filename C:\eacrips\02 - Boom Crash Opera - City Flat (Extended Mix).wav

Pre-gap length 0:00:02.04

Peak level 100.0 %
Extraction speed 6.5 X
Track quality 100.0 %
Test CRC 18073F40
Copy CRC 18073F40
Track not present in AccurateRip database
Copy OK

Track 3

Filename C:\eacrips\03 - Hunters & Collectors - Say Goodbye (Extended Mix).wav

Pre-gap length 0:00:01.81

Peak level 100.0 %
Extraction speed 7.3 X
Track quality 100.0 %
Test CRC 69E9B271
Copy CRC 69E9B271
Track not present in AccurateRip database
Copy OK

Track 4

Filename C:\eacrips\04 - Eurogliders - Can’t Wait To See You (Moshi Moshi Mix).wav

Pre-gap length 0:00:01.30

Peak level 100.0 %
Extraction speed 7.9 X
Track quality 100.0 %
Test CRC 79669BB6
Copy CRC 79669BB6
Track not present in AccurateRip database
Copy OK

Track 5

Filename C:\eacrips\05 - Kate Ceberano - Bedroom Eyes (UK Extended Version - Mixed by Howard Gray).wav

Pre-gap length 0:00:00.88

Peak level 100.0 %
Extraction speed 8.5 X
Track quality 100.0 %
Test CRC E541FF64
Copy CRC E541FF64
Track not present in AccurateRip database
Copy OK

Track 6

Filename C:\eacrips\06 - Mondo Rock - The Modern Bop (Jellybean Mix).wav

Pre-gap length 0:00:01.69

Peak level 96.5 %
Extraction speed 8.4 X
Track quality 100.0 %
Test CRC F3DF015B
Copy CRC F3DF015B
Track not present in AccurateRip database
Copy OK

Track 7

Filename C:\eacrips\07 - Split Enz - I Walk Away (Extended Version).wav

Pre-gap length 0:00:01.72

Peak level 100.0 %
Extraction speed 9.2 X
Track quality 100.0 %
Test CRC 2C86A5D2
Copy CRC 2C86A5D2
Track not present in AccurateRip database
Copy OK

Track 8

Filename C:\eacrips\08 - Stephen Cummings - Gymnasium (Mega Dance Mix).wav

Pre-gap length 0:00:01.60

Peak level 100.0 %
Extraction speed 8.3 X
Track quality 99.9 %
Test CRC 74938CD6
Copy CRC 74938CD6
Track not present in AccurateRip database
Copy OK

Track 9

Filename C:\eacrips\09 - Wa Wa Nee - Can’t Control Myself (Mixus Maximus Remix).wav

Pre-gap length 0:00:01.92

Peak level 100.0 %
Extraction speed 10.0 X
Track quality 100.0 %
Test CRC 80DB1BDB
Copy CRC 80DB1BDB
Track not present in AccurateRip database
Copy OK

Track 10

Filename C:\eacrips\10 - Jenny Morris - Body And Soul (Extended Version).wav

Pre-gap length 0:00:01.74

Peak level 100.0 %
Extraction speed 10.4 X
Track quality 100.0 %
Test CRC 5D713A01
Copy CRC 5D713A01
Track not present in AccurateRip database
Copy OK

Track 11

Filename C:\eacrips\11 - Machinations - Pressure Sway (Extended Version).wav

Pre-gap length 0:00:01.97

Peak level 99.8 %
Extraction speed 9.3 X
Track quality 99.9 %
Test CRC 949CF505
Copy CRC 949CF505
Track not present in AccurateRip database
Copy OK

Track 12

Filename C:\eacrips\12 - Models - I Hear Motion (Extended Mix).wav

Pre-gap length 0:00:01.73

Peak level 100.0 %
Extraction speed 11.0 X
Track quality 100.0 %
Test CRC 342C8A34
Copy CRC 342C8A34
Track not present in AccurateRip database
Copy OK

Track 13

Filename C:\eacrips\13 - Kids In The Kitchen - Bruce's Big Bonus Beats.wav

Pre-gap length 0:00:01.76

Peak level 99.0 %
Extraction speed 8.6 X
Track quality 100.0 %
Test CRC 513161CE
Copy CRC 513161CE
Track not present in AccurateRip database
Copy OK


None of the tracks are present in the AccurateRip database

No errors occurred

End of status report

==== Log checksum D3799DE30189DE6D88F0270978E7F0A096346543B569D084281E8495E3CB4A4E ====