Tags
Language
Tags

VA - 98 New Wave Club Class-X Traxx!!! (1996)

Posted By: Rtax
VA - 98 New Wave Club Class-X Traxx!!! (1996)

VA - 98 New Wave Club Class-X Traxx!!! (1996)
EAC Rip | FLAC (tracks, cue, log) - 2.8 GB | MP3 CBR 320 kbps - 1.04 GB
7:48:03 | EBM, Electro, Synth-pop, New Wave | Label: Antler-Subway

98 New Wave Club Class-X Traxx!!!, a Various Artists Compilation. Released 1996 on Antler-Subway.

Tracklist
1-1 –Modern English - Life In The Gladhouse 5:57
1-2 –Executive Slacks - The Bus 3:06
1-3 –The Neon Judgement - T.V. Treated 6:31
1-4 –Fehlfarben - Ein Jahr (Es Geht Voran) 2:52
1-5 –Polyphonic Size - Mothers Little Helper 3:07
1-6 –Alien Sex Fiend - Ignore The Machine (Remix) 5:07
1-7 –Medium Medium - Hungry So Angry 3:59
1-8 –Snowy Red - Never Alive 3:20
1-9 –Arbeid Adelt! - Death Disco 2:43
1-10 –Marine - Life In Reverse 2:44
1-11 –The Bollock Brothers - Harley David (Son Of A Bitch) 4:14
1-12 –Nacht Und Nebel - Movoco Syntaca 4:09
1-13 –1000 Ohm - A.G.N.E.S. 6:22
1-14 –Alien Sex Fiend - Ignore The Machine (Original) 6:43

2-1 –Bauhaus - Passion Of Lovers 3:50
2-2 –The Clash - London Calling 3:20
2-3 –Theatre Of Hate - Westworld 5:27
2-4 –Anne Clark - Sleeper In Metropolis 4:48
2-5 –Front 242 - U-Men 3:14
2-6 –Repetition - A Full Rotation 3:56
2-7 –A Certain Ratio - Shack Up 3:13
2-8 –Slab! - Mars On Ice 5:04
2-9 –Grauzone - Eisbaer 4:47
2-10 –Luc Van Acker - Zanna 3:08
2-11 –Department S - Is Vic There? 3:05
2-12 –No More - Suicide Commando 3:19
2-13 –The Bollock Brothers - Horror Movies 5:24
2-14 –Severed Heads - The Ant Can See Legs 5:53

3-1 –Cabaret Voltaire - Nag Nag Nag 4:32
3-2 –Crash Course In Science - Flying Turns 3:02
3-3 –Gary Numan - Are Friends Electric? 5:23
3-4 –Poésie Noire - Gioconda Smile 4:59
3-5 –Kraftwerk -The Model 3:39
3-6 –Gang Of Four - What We All Want 3:27
3-7 –Section 25 - Je Veux Ton Amour 5:16
3-8 –TC Matic - Oh La La La 3:17
3-9 –Virgin Prunes - Walls Of Jericho 3:09
3-10 –C Cat Trance - Shake The Mind 5:32
3-11 –Anna Domino - Rhythm 4:19
3-12 –Fad Gadget - Back To Nature 5:49
3-13 –The Clash - Magnificent Seven 5:29
3-14 –Spizzenergi - Where's Captain Kirk 2:17

4-1 –The Cramps - Human Fly 2:13
4-2 –The Normal - Warm Leatherette 3:23
4-3 –Grace Jones - She's Lost Control 5:45
4-4 –New Order - Everything's Gone Green 5:30
4-5 –Jah Wobble - How Much Are They? 4:49
4-6 –Suns Of Arqa - Acid Tabla 3:40
4-7 –Bauhaus - She's In Parties 5:38
4-8 –Red Zebra - I Can't Live In A Living Room 2:50
4-9 –The Names - Calcutta 3:04
4-10 –The Psychedelic Furs - Heartbeat 6:27
4-11 –Paul Haig - Heaven Sent 7:30
4-12 –Anne Clark - Our Darkness 6:28
4-13 –Nitzer Ebb - Let Your Body Learn 6:27
4-14 –Altered Images - Happy Birthday 2:52

5-1 –Billy Idol White - Wedding (Parts I & II) 8:20
5-2 –A Flock Of Seagulls - (It's Not Me) Talking 5:00
5-3 –Xymox - A Day 9:28
5-4 –Depeche Mode - Just Can't Get Enough (Schizo Mix) 6:45
5-5 –OMD - Electricity (Martin Hannett Mix) 3:32
5-6 –The Danse Society - 2000 Light Years From Home 5:00
5-7 –Simple Minds - Premonition 5:28
5-8 –Siglo XX -Art Of War 3:06
5-9 –The Cassandra Complex - Moscow Idaho 3:17
5-10 –They Must Be Russians - Don't Try To Cure Yourself 2:55
5-11 –Bow Wow Wow - C30 C60 C90 Go 2:59
5-12 –Nina Hagen - African Reggae 6:17
5-13 –The Ruts -Jah War 6:54
5-14 –The Unknown Cases - Masimba Bele 5:54

6-1 –The Slits - In The Beginning 5:40
6-2 –PIL - Death Disco 6:56
6-3 –Rema-Rema - Rema-Rema 4:19
6-4 –Tuxedomoon - No Tears 5:40
6-5 –Pere Ubu - Final Solution 5:00
6-6 –Arbeid Adelt! - De Dag Dat Het Zonlicht Niet Meer Scheen 3:17
6-7 –Clock DVA - 4 Hours 3:52
6-8 –Chris & Cosey - October Love Song (Re-Mix) 7:02
6-9 –Rheingold - Dreiklangdimensionen 5:55
6-10 –Gruppo Sportivo - Beep Beep Love 2:54
6-11 –The Neon Judgement - The Fashion Party 5:15
6-12 –Love And Rockets - Ball Of Confusion (UK Version) 7:17
6-13 –Spandau Ballet - To Cut A Long Story Short 6:30
6-14 –Malcolm McLaren - Madame Butterfly (Un Bel Di Vedremo) 6:25

7-1 –XTC - Making Plans For Nigel 3:53
7-2 –Gang Of Four - I Love A Man In A Uniform 4:30
7-3 –Delta 5 - Mind Your Own Business 3:10
7-4 –ESG - You're No Good 3:08
7-5 –Au Pairs - It's Obvious 6:22
7-6 –Modern English - Gathering Dust 4:16
7-7 –Wire - Mannequin 2:36
7-8 –Red Lorry Yellow Lorry - He's Read 2:57
7-9 –Spizzenergi - Soldier Soldier 3:48
7-10 –Christian Death - The Wind Kisses Pictures 7:15
7-11 –Andreas Dorau & Die Marinas - Fred Vom Jupiter 2:38
7-12 –DAF - Der Rauber Und Der Prinz 3:25
7-13 –Einstürzende Neubauten - Yu Gung 7:26
7-14 –Fad Gadget - Collapsing New People 9:28
Exact Audio Copy V1.3 from 2. September 2016

EAC extraction logfile from 27. March 2017, 8:58

Various / New Wave Club Class-X 1

Used drive : HL-DT-STBD-RE BE14NU40 Adapter: 1 ID: 1

Read mode : Secure
Utilize accurate stream : Yes
Defeat audio cache : Yes
Make use of C2 pointers : No

Read offset correction : 6
Overread into Lead-In and Lead-Out : No
Fill up missing offset samples with silence : Yes
Delete leading and trailing silent blocks : No
Null samples used in CRC calculations : Yes
Used interface : Native Win32 interface for Win NT & 2000
Gap handling : Appended to previous track

Used output format : User Defined Encoder
Selected bitrate : 1024 kBit/s
Quality : High
Add ID3 tag : No
Command line compressor : C:\Program Files (x86)\Exact Audio Copy\Flac\flac.exe
Additional command line options : -8 -V -T "artist=%artist%" -T "title=%title%" -T "album=%albumtitle%" -T "date=%year%" -T "tracknumber=%tracknr%" -T "genre=%genre%" %source%


TOC of the extracted CD

Track | Start | Length | Start sector | End sector
––––––––––––––––––––––––––––-
1 | 0:00.32 | 5:57.30 | 32 | 26836
2 | 5:57.62 | 3:06.25 | 26837 | 40811
3 | 9:04.12 | 6:31.18 | 40812 | 70154
4 | 15:35.30 | 2:52.47 | 70155 | 83101
5 | 18:28.02 | 3:06.53 | 83102 | 97104
6 | 21:34.55 | 5:07.17 | 97105 | 120146
7 | 26:41.72 | 3:58.73 | 120147 | 138069
8 | 30:40.70 | 3:20.12 | 138070 | 153081
9 | 34:01.07 | 2:42.55 | 153082 | 165286
10 | 36:43.62 | 2:44.38 | 165287 | 177624
11 | 39:28.25 | 4:14.40 | 177625 | 196714
12 | 43:42.65 | 4:08.70 | 196715 | 215384
13 | 47:51.60 | 6:22.35 | 215385 | 244069
14 | 54:14.20 | 6:43.00 | 244070 | 274294


Track 1

Filename G:\98 New Wave Club Class X Traxx!!!\New Wave Club Class-X 1\01_-_Modern_English_-_Life_In_The_Gladhouse.wav

Pre-gap length 0:00:02.32

Peak level 97.2 %
Extraction speed 1.1 X
Track quality 100.0 %
Test CRC AF1837B6
Copy CRC AF1837B6
Accurately ripped (confidence 8) [A52B3E23] (AR v2)
Copy OK

Track 2

Filename G:\98 New Wave Club Class X Traxx!!!\New Wave Club Class-X 1\02_-_Executive_Slacks_-_The_Bus.wav

Pre-gap length 0:00:01.62

Peak level 96.7 %
Extraction speed 1.1 X
Track quality 100.0 %
Test CRC AE3EFAAD
Copy CRC AE3EFAAD
Accurately ripped (confidence 8) [C0BC8F42] (AR v2)
Copy OK

Track 3

Filename G:\98 New Wave Club Class X Traxx!!!\New Wave Club Class-X 1\03_-_Neon_Judgement_-_T.V._Treated.wav

Pre-gap length 0:00:01.57

Peak level 97.2 %
Extraction speed 1.4 X
Track quality 100.0 %
Test CRC 7EAF7D66
Copy CRC 7EAF7D66
Accurately ripped (confidence 8) [20104ACB] (AR v2)
Copy OK

Track 4

Filename G:\98 New Wave Club Class X Traxx!!!\New Wave Club Class-X 1\04_-_Fehlfarben_-_Ein_Jahr_(Es_Geht_Voran).wav

Pre-gap length 0:00:01.51

Peak level 90.6 %
Extraction speed 1.2 X
Track quality 99.9 %
Test CRC BF48FAFF
Copy CRC BF48FAFF
Accurately ripped (confidence 8) [715196A6] (AR v2)
Copy OK

Track 5

Filename G:\98 New Wave Club Class X Traxx!!!\New Wave Club Class-X 1\05_-_Polyphonic_Size_-_Mothers_Little_Helper.wav

Pre-gap length 0:00:01.52

Peak level 95.7 %
Extraction speed 1.4 X
Track quality 100.0 %
Test CRC 70FC5EFA
Copy CRC 70FC5EFA
Accurately ripped (confidence 8) [44617A7E] (AR v2)
Copy OK

Track 6

Filename G:\98 New Wave Club Class X Traxx!!!\New Wave Club Class-X 1\06_-_Alien_Sex_Fiend_-_Ignore_The_Machine_(Remix).wav

Pre-gap length 0:00:01.50

Peak level 97.2 %
Extraction speed 1.6 X
Track quality 100.0 %
Test CRC EA8B1873
Copy CRC EA8B1873
Accurately ripped (confidence 8) [CF31187B] (AR v2)
Copy OK

Track 7

Filename G:\98 New Wave Club Class X Traxx!!!\New Wave Club Class-X 1\07_-_Medium_Medium_-_Hungry_So_Angry.wav

Pre-gap length 0:00:01.47

Peak level 89.2 %
Extraction speed 1.6 X
Track quality 100.0 %
Test CRC 74509A48
Copy CRC 74509A48
Accurately ripped (confidence 8) [FAB868F9] (AR v2)
Copy OK

Track 8

Filename G:\98 New Wave Club Class X Traxx!!!\New Wave Club Class-X 1\08_-_Snowy_Red_-_Never_Alive.wav

Pre-gap length 0:00:01.50

Peak level 96.7 %
Extraction speed 1.5 X
Track quality 99.9 %
Test CRC C10A8BAE
Copy CRC C10A8BAE
Accurately ripped (confidence 8) [A3CC2A73] (AR v2)
Copy OK

Track 9

Filename G:\98 New Wave Club Class X Traxx!!!\New Wave Club Class-X 1\09_-_Arbeid_Adelt_-_Death_Disco.wav

Pre-gap length 0:00:01.42

Peak level 97.2 %
Extraction speed 1.6 X
Track quality 100.0 %
Test CRC 9897C45D
Copy CRC 9897C45D
Accurately ripped (confidence 8) [207054E6] (AR v2)
Copy OK

Track 10

Filename G:\98 New Wave Club Class X Traxx!!!\New Wave Club Class-X 1\10_-_Marine_-_Life_In_Reverse.wav

Pre-gap length 0:00:03.65

Peak level 97.2 %
Extraction speed 1.7 X
Track quality 100.0 %
Test CRC C2AC6763
Copy CRC C2AC6763
Accurately ripped (confidence 8) [9B825B61] (AR v2)
Copy OK

Track 11

Filename G:\98 New Wave Club Class X Traxx!!!\New Wave Club Class-X 1\11_-_Bollock_Brothers_-_Harley_David_(Son_Of_A_Bitch).wav

Pre-gap length 0:00:01.45

Peak level 97.2 %
Extraction speed 1.9 X
Track quality 100.0 %
Test CRC E2E94C9E
Copy CRC E2E94C9E
Accurately ripped (confidence 8) [230357A2] (AR v2)
Copy OK

Track 12

Filename G:\98 New Wave Club Class X Traxx!!!\New Wave Club Class-X 1\12_-_Nacht_Und_Nebel_-_Movoco_Syntaca.wav

Pre-gap length 0:00:02.60

Peak level 97.7 %
Extraction speed 1.9 X
Track quality 100.0 %
Test CRC BF553964
Copy CRC BF553964
Accurately ripped (confidence 8) [45AB6300] (AR v2)
Copy OK

Track 13

Filename G:\98 New Wave Club Class X Traxx!!!\New Wave Club Class-X 1\13_-_1000_Ohm_-_A.G.N.E.S..wav

Pre-gap length 0:00:01.60

Peak level 96.7 %
Extraction speed 1.9 X
Track quality 99.9 %
Test CRC 48FF0009
Copy CRC 48FF0009
Accurately ripped (confidence 8) [169F2EFC] (AR v2)
Copy OK

Track 14

Filename G:\98 New Wave Club Class X Traxx!!!\New Wave Club Class-X 1\14_-_Alien_Sex_Fiend_-_Ignore_The_Machine_(Original).wav

Pre-gap length 0:00:01.38

Peak level 97.7 %
Extraction speed 2.2 X
Track quality 100.0 %
Test CRC C97A7B7F
Copy CRC C97A7B7F
Accurately ripped (confidence 8) [14346C8E] (AR v2)
Copy OK


All tracks accurately ripped

No errors occurred

End of status report

–– CUETools DB Plugin V2.1.6

[CTDB TOCID: Edmh99DWTghjflwhfPMr7jtE1.w-] found
Submit result: Edmh99DWTghjflwhfPMr7jtE1.w- has been confirmed
Track | CTDB Status
1 | (5/5) Accurately ripped
2 | (5/5) Accurately ripped
3 | (5/5) Accurately ripped
4 | (5/5) Accurately ripped
5 | (5/5) Accurately ripped
6 | (5/5) Accurately ripped
7 | (5/5) Accurately ripped
8 | (5/5) Accurately ripped
9 | (5/5) Accurately ripped
10 | (5/5) Accurately ripped
11 | (5/5) Accurately ripped
12 | (5/5) Accurately ripped
13 | (5/5) Accurately ripped
14 | (5/5) Accurately ripped


==== Log checksum 186E307C2410117B51CAFB61D05F13FA3E95CA352A31D06E244D52A5EDDA437F ====


Exact Audio Copy V1.3 from 2. September 2016

EAC extraction logfile from 27. March 2017, 10:26

Various / New Wave Club Class-X - Vol.2

Used drive : HL-DT-STBD-RE BE14NU40 Adapter: 1 ID: 1

Read mode : Secure
Utilize accurate stream : Yes
Defeat audio cache : Yes
Make use of C2 pointers : No

Read offset correction : 6
Overread into Lead-In and Lead-Out : No
Fill up missing offset samples with silence : Yes
Delete leading and trailing silent blocks : No
Null samples used in CRC calculations : Yes
Used interface : Native Win32 interface for Win NT & 2000
Gap handling : Appended to previous track

Used output format : User Defined Encoder
Selected bitrate : 1024 kBit/s
Quality : High
Add ID3 tag : No
Command line compressor : C:\Program Files (x86)\Exact Audio Copy\Flac\flac.exe
Additional command line options : -8 -V -T "artist=%artist%" -T "title=%title%" -T "album=%albumtitle%" -T "date=%year%" -T "tracknumber=%tracknr%" -T "genre=%genre%" %source%


TOC of the extracted CD

Track | Start | Length | Start sector | End sector
––––––––––––––––––––––––––––-
1 | 0:00.32 | 3:53.60 | 32 | 17566
2 | 3:54.17 | 3:23.25 | 17567 | 32816
3 | 7:17.42 | 5:20.45 | 32817 | 56861
4 | 12:38.12 | 4:51.33 | 56862 | 78719
5 | 17:29.45 | 3:17.52 | 78720 | 93546
6 | 20:47.22 | 3:59.55 | 93547 | 111526
7 | 24:47.02 | 3:16.35 | 111527 | 126261
8 | 28:03.37 | 5:07.73 | 126262 | 149359
9 | 33:11.35 | 4:50.10 | 149360 | 171119
10 | 38:01.45 | 3:11.52 | 171120 | 185496
11 | 41:13.22 | 3:08.60 | 185497 | 199656
12 | 44:22.07 | 3:23.15 | 199657 | 214896
13 | 47:45.22 | 5:27.33 | 214897 | 239454
14 | 53:12.55 | 5:54.60 | 239455 | 266064


Track 1

Filename G:\98 New Wave Club Class X Traxx!!!\New Wave Club Class-X 2\01_-_Bauhaus_-_Passion_Of_Lovers.wav

Pre-gap length 0:00:02.32

Peak level 84.8 %
Extraction speed 1.0 X
Track quality 100.0 %
Test CRC D23B073A
Copy CRC D23B073A
Accurately ripped (confidence 2) [10273EA1] (AR v2)
Copy OK

Track 2

Filename G:\98 New Wave Club Class X Traxx!!!\New Wave Club Class-X 2\02_-_The_Clash_-_London_Calling.wav

Pre-gap length 0:00:02.17

Peak level 96.2 %
Extraction speed 1.1 X
Track quality 100.0 %
Test CRC 6216E219
Copy CRC 6216E219
Accurately ripped (confidence 2) [80988DA7] (AR v2)
Copy OK

Track 3

Filename G:\98 New Wave Club Class X Traxx!!!\New Wave Club Class-X 2\03_-_Theatre_Of_Hate_-_Westworld.wav

Pre-gap length 0:00:02.40

Peak level 97.7 %
Extraction speed 1.3 X
Track quality 100.0 %
Test CRC 5497FB79
Copy CRC 5497FB79
Accurately ripped (confidence 2) [F2007BC8] (AR v2)
Copy OK

Track 4

Filename G:\98 New Wave Club Class X Traxx!!!\New Wave Club Class-X 2\04_-_Anne_Clark_-_Sleeper_In_Metropolis.wav

Pre-gap length 0:00:02.13

Peak level 96.3 %
Extraction speed 1.4 X
Track quality 100.0 %
Test CRC AB089283
Copy CRC AB089283
Accurately ripped (confidence 2) [F4BD695B] (AR v2)
Copy OK

Track 5

Filename G:\98 New Wave Club Class X Traxx!!!\New Wave Club Class-X 2\05_-_Front_242_-_U-Men.wav

Pre-gap length 0:00:01.67

Peak level 96.7 %
Extraction speed 1.4 X
Track quality 100.0 %
Test CRC 7478CD11
Copy CRC 7478CD11
Accurately ripped (confidence 2) [74AD3259] (AR v2)
Copy OK

Track 6

Filename G:\98 New Wave Club Class X Traxx!!!\New Wave Club Class-X 2\06_-_Repetition_-_A_Full_Rotation.wav

Pre-gap length 0:00:02.38

Peak level 96.8 %
Extraction speed 1.5 X
Track quality 100.0 %
Test CRC 82174E1C
Copy CRC 82174E1C
Accurately ripped (confidence 2) [BFEDC753] (AR v2)
Copy OK

Track 7

Filename G:\98 New Wave Club Class X Traxx!!!\New Wave Club Class-X 2\07_-_A_Certain_Ratio_-_Shack_Up.wav

Pre-gap length 0:00:02.13

Peak level 92.5 %
Extraction speed 1.5 X
Track quality 100.0 %
Test CRC 22C3660A
Copy CRC 22C3660A
Accurately ripped (confidence 2) [D6F2509E] (AR v2)
Copy OK

Track 8

Filename G:\98 New Wave Club Class X Traxx!!!\New Wave Club Class-X 2\08_-_Slab!_-_Mars_On_Ice.wav

Pre-gap length 0:00:02.55

Peak level 96.8 %
Extraction speed 1.7 X
Track quality 100.0 %
Test CRC BC01F203
Copy CRC BC01F203
Accurately ripped (confidence 2) [6E66923A] (AR v2)
Copy OK

Track 9

Filename G:\98 New Wave Club Class X Traxx!!!\New Wave Club Class-X 2\09_-_Grauzone_-_Eisbaer.wav

Pre-gap length 0:00:02.42

Peak level 92.9 %
Extraction speed 1.6 X
Track quality 99.9 %
Test CRC 627B94EC
Copy CRC 627B94EC
Accurately ripped (confidence 2) [0F7853F7] (AR v2)
Copy OK

Track 10

Filename G:\98 New Wave Club Class X Traxx!!!\New Wave Club Class-X 2\10_-_Luc_Van_Acker_-_Zanna.wav

Pre-gap length 0:00:02.42

Peak level 92.0 %
Extraction speed 1.8 X
Track quality 100.0 %
Test CRC CF88A4BE
Copy CRC CF88A4BE
Accurately ripped (confidence 2) [71DC5095] (AR v2)
Copy OK

Track 11

Filename G:\98 New Wave Club Class X Traxx!!!\New Wave Club Class-X 2\11_-_Department_S_-_Is_Vic_There.wav

Pre-gap length 0:00:03.44

Peak level 96.8 %
Extraction speed 1.8 X
Track quality 100.0 %
Test CRC 3B93C9D1
Copy CRC 3B93C9D1
Accurately ripped (confidence 2) [BBBF9D7A] (AR v2)
Copy OK

Track 12

Filename G:\98 New Wave Club Class X Traxx!!!\New Wave Club Class-X 2\12_-_No_More_-_Suicide_Commando.wav

Pre-gap length 0:00:02.29

Peak level 97.3 %
Extraction speed 1.6 X
Track quality 99.9 %
Test CRC B3A30E3A
Copy CRC B3A30E3A
Accurately ripped (confidence 2) [27C0A4DE] (AR v2)
Copy OK

Track 13

Filename G:\98 New Wave Club Class X Traxx!!!\New Wave Club Class-X 2\13_-_Bollock_Brothers_-_Horror_Movies.wav

Pre-gap length 0:00:02.42

Peak level 96.8 %
Extraction speed 2.1 X
Track quality 100.0 %
Test CRC 17C67333
Copy CRC 17C67333
Accurately ripped (confidence 2) [607884C2] (AR v2)
Copy OK

Track 14

Filename G:\98 New Wave Club Class X Traxx!!!\New Wave Club Class-X 2\14_-_The_Ant_Can_See_Legs_-_Severed_Heads.wav

Pre-gap length 0:00:01.70

Peak level 95.8 %
Extraction speed 2.2 X
Track quality 100.0 %
Test CRC 363D7356
Copy CRC 363D7356
Accurately ripped (confidence 2) [6C889421] (AR v2)
Copy OK


All tracks accurately ripped

No errors occurred

End of status report

–– CUETools DB Plugin V2.1.6

[CTDB TOCID: qjASPv42ku5.AHlpDWC_qSz.jjU-] found
Submit result: qjASPv42ku5.AHlpDWC_qSz.jjU- has been confirmed
Track | CTDB Status
1 | (7/7) Accurately ripped
2 | (7/7) Accurately ripped
3 | (7/7) Accurately ripped
4 | (7/7) Accurately ripped
5 | (7/7) Accurately ripped
6 | (7/7) Accurately ripped
7 | (7/7) Accurately ripped
8 | (7/7) Accurately ripped
9 | (7/7) Accurately ripped
10 | (6/7) Accurately ripped
11 | (7/7) Accurately ripped
12 | (7/7) Accurately ripped
13 | (7/7) Accurately ripped
14 | (7/7) Accurately ripped


==== Log checksum C423FDE5A40975E89864C81E489C90762C189A9CBEA0D478526188F6A8155E9F ====


Exact Audio Copy V1.3 from 2. September 2016

EAC extraction logfile from 27. March 2017, 11:53

Various / New Wave Club Class-X 3

Used drive : HL-DT-STBD-RE BE14NU40 Adapter: 1 ID: 1

Read mode : Secure
Utilize accurate stream : Yes
Defeat audio cache : Yes
Make use of C2 pointers : No

Read offset correction : 6
Overread into Lead-In and Lead-Out : No
Fill up missing offset samples with silence : Yes
Delete leading and trailing silent blocks : No
Null samples used in CRC calculations : Yes
Used interface : Native Win32 interface for Win NT & 2000
Gap handling : Appended to previous track

Used output format : User Defined Encoder
Selected bitrate : 1024 kBit/s
Quality : High
Add ID3 tag : No
Command line compressor : C:\Program Files (x86)\Exact Audio Copy\Flac\flac.exe
Additional command line options : -8 -V -T "artist=%artist%" -T "title=%title%" -T "album=%albumtitle%" -T "date=%year%" -T "tracknumber=%tracknr%" -T "genre=%genre%" %source%


TOC of the extracted CD

Track | Start | Length | Start sector | End sector
––––––––––––––––––––––––––––-
1 | 0:00.00 | 4:41.25 | 0 | 21099
2 | 4:41.25 | 3:03.57 | 21100 | 34881
3 | 7:45.07 | 5:23.33 | 34882 | 59139
4 | 13:08.40 | 5:03.57 | 59140 | 81921
5 | 18:12.22 | 3:44.00 | 81922 | 98721
6 | 21:56.22 | 3:31.48 | 98722 | 114594
7 | 25:27.70 | 5:22.25 | 114595 | 138769
8 | 30:50.20 | 3:21.32 | 138770 | 153876
9 | 34:11.52 | 3:15.33 | 153877 | 168534
10 | 37:27.10 | 5:38.55 | 168535 | 193939
11 | 43:05.65 | 4:21.05 | 193940 | 213519
12 | 47:26.70 | 5:54.12 | 213520 | 240081
13 | 53:21.07 | 5:34.50 | 240082 | 265181
14 | 58:55.57 | 2:31.38 | 265182 | 276544


Track 1

Filename G:\98 New Wave Club Class X Traxx!!!\New Wave Club Class-X 3\01_-_Cabaret_Voltaire_-_Nag_Nag_Nag.wav

Pre-gap length 0:00:02.00

Peak level 91.9 %
Extraction speed 1.7 X
Track quality 100.0 %
Test CRC B682D3DC
Copy CRC B682D3DC
Accurately ripped (confidence 4) [4D265C72] (AR v2)
Copy OK

Track 2

Filename G:\98 New Wave Club Class X Traxx!!!\New Wave Club Class-X 3\02_-_Crash_Course_In_Science_-_Flying_Turns.wav

Pre-gap length 0:00:03.09

Peak level 81.9 %
Extraction speed 1.1 X
Track quality 100.0 %
Test CRC 9B87DA9A
Copy CRC 9B87DA9A
Accurately ripped (confidence 4) [D6AF05F9] (AR v2)
Copy OK

Track 3

Filename G:\98 New Wave Club Class X Traxx!!!\New Wave Club Class-X 3\03_-_Gary_Numan_-_Are_Friends_Electric.wav

Pre-gap length 0:00:03.05

Peak level 96.7 %
Extraction speed 1.3 X
Track quality 100.0 %
Test CRC 26DD0CA8
Copy CRC 26DD0CA8
Accurately ripped (confidence 4) [033D9BB1] (AR v2)
Copy OK

Track 4

Filename G:\98 New Wave Club Class X Traxx!!!\New Wave Club Class-X 3\04_-_Poesie_Noire_-_Gioconda_Smile.wav

Pre-gap length 0:00:03.27

Peak level 97.9 %
Extraction speed 1.3 X
Track quality 99.9 %
Test CRC 4AB31225
Copy CRC 4AB31225
Accurately ripped (confidence 4) [41D627D9] (AR v2)
Copy OK

Track 5

Filename G:\98 New Wave Club Class X Traxx!!!\New Wave Club Class-X 3\05_-_Kraftwerk_-_The_Model.wav

Pre-gap length 0:00:03.43

Peak level 75.1 %
Extraction speed 1.5 X
Track quality 100.0 %
Test CRC FA39EF49
Copy CRC FA39EF49
Accurately ripped (confidence 4) [47E258CF] (AR v2)
Copy OK

Track 6

Filename G:\98 New Wave Club Class X Traxx!!!\New Wave Club Class-X 3\06_-_Gang_Of_Four_-_What_We_All_Want.wav

Pre-gap length 0:00:04.70

Peak level 99.7 %
Extraction speed 1.5 X
Track quality 100.0 %
Test CRC 51EF147A
Copy CRC 51EF147A
Accurately ripped (confidence 4) [027A2B97] (AR v2)
Copy OK

Track 7

Filename G:\98 New Wave Club Class X Traxx!!!\New Wave Club Class-X 3\07_-_Section_25_-_Je_Veux_Ton_Amour.wav

Pre-gap length 0:00:04.10

Peak level 89.0 %
Extraction speed 1.6 X
Track quality 99.9 %
Test CRC 246864F0
Copy CRC 246864F0
Accurately ripped (confidence 4) [45322113] (AR v2)
Copy OK

Track 8

Filename G:\98 New Wave Club Class X Traxx!!!\New Wave Club Class-X 3\08_-_TC_Matic_-_Oh_La_La_La.wav

Pre-gap length 0:00:04.43

Peak level 87.6 %
Extraction speed 1.7 X
Track quality 100.0 %
Test CRC 052C8009
Copy CRC 052C8009
Accurately ripped (confidence 4) [2896E84D] (AR v2)
Copy OK

Track 9

Filename G:\98 New Wave Club Class X Traxx!!!\New Wave Club Class-X 3\09_-_Virgin_Prunes_-_Walls_Of_Jericho.wav

Pre-gap length 0:00:04.06

Peak level 94.3 %
Extraction speed 1.7 X
Track quality 100.0 %
Test CRC 8FD288F8
Copy CRC 8FD288F8
Accurately ripped (confidence 4) [1BB5FCFE] (AR v2)
Copy OK

Track 10

Filename G:\98 New Wave Club Class X Traxx!!!\New Wave Club Class-X 3\10_-_C_Cat_Trance_-_Shake_The_Mind.wav

Pre-gap length 0:00:05.29

Peak level 100.0 %
Extraction speed 1.9 X
Track quality 100.0 %
Test CRC D066DC9B
Copy CRC D066DC9B
Accurately ripped (confidence 4) [A48359B5] (AR v2)
Copy OK

Track 11

Filename G:\98 New Wave Club Class X Traxx!!!\New Wave Club Class-X 3\11_-_Anna_Domino_-_Rhythm.wav

Pre-gap length 0:00:03.27

Peak level 100.0 %
Extraction speed 1.9 X
Track quality 100.0 %
Test CRC 8F8C350E
Copy CRC 8F8C350E
Accurately ripped (confidence 4) [247D5E10] (AR v2)
Copy OK

Track 12

Filename G:\98 New Wave Club Class X Traxx!!!\New Wave Club Class-X 3\12_-_Fad_Gadget_-_Back_To_Nature.wav

Pre-gap length 0:00:04.04

Peak level 76.9 %
Extraction speed 2.1 X
Track quality 100.0 %
Test CRC 90123398
Copy CRC 90123398
Accurately ripped (confidence 4) [423D4B19] (AR v2)
Copy OK

Track 13

Filename G:\98 New Wave Club Class X Traxx!!!\New Wave Club Class-X 3\13_-_The_Clash_-_Magnificent_Seven.wav

Pre-gap length 0:00:04.59

Peak level 87.3 %
Extraction speed 1.9 X
Track quality 99.9 %
Test CRC 89AD22ED
Copy CRC 89AD22ED
Accurately ripped (confidence 4) [F6AD53C6] (AR v2)
Copy OK

Track 14

Filename G:\98 New Wave Club Class X Traxx!!!\New Wave Club Class-X 3\14_-_Spizzenergi_-_Where's_Captain_Kirk.wav

Pre-gap length 0:00:04.32

Peak level 98.7 %
Extraction speed 2.0 X
Track quality 100.0 %
Test CRC 8A47DE9C
Copy CRC 8A47DE9C
Accurately ripped (confidence 4) [7BC6C7A6] (AR v2)
Copy OK


All tracks accurately ripped

No errors occurred

End of status report

–– CUETools DB Plugin V2.1.6

[CTDB TOCID: W.pLPaUeGB.IXGq70gtZSO1Sa9o-] found
Submit result: W.pLPaUeGB.IXGq70gtZSO1Sa9o- has been confirmed
Track | CTDB Status
1 | (14/14) Accurately ripped
2 | (14/14) Accurately ripped
3 | (14/14) Accurately ripped
4 | (14/14) Accurately ripped
5 | (14/14) Accurately ripped
6 | (14/14) Accurately ripped
7 | (14/14) Accurately ripped
8 | (14/14) Accurately ripped
9 | (13/14) Accurately ripped
10 | (13/14) Accurately ripped
11 | (13/14) Accurately ripped
12 | (13/14) Accurately ripped
13 | (14/14) Accurately ripped
14 | (13/14) Accurately ripped


==== Log checksum 68AB7480EE2A1BBB634BC60033C22F6DB525BDEE5BA5A7FA5BFD8CFEBCAF6C1C ====


Exact Audio Copy V1.3 from 2. September 2016

EAC extraction logfile from 27. March 2017, 13:24

Various / New Wave Club Class-X - Vol. 4

Used drive : HL-DT-STBD-RE BE14NU40 Adapter: 1 ID: 1

Read mode : Secure
Utilize accurate stream : Yes
Defeat audio cache : Yes
Make use of C2 pointers : No

Read offset correction : 6
Overread into Lead-In and Lead-Out : No
Fill up missing offset samples with silence : Yes
Delete leading and trailing silent blocks : No
Null samples used in CRC calculations : Yes
Used interface : Native Win32 interface for Win NT & 2000
Gap handling : Appended to previous track

Used output format : User Defined Encoder
Selected bitrate : 1024 kBit/s
Quality : High
Add ID3 tag : No
Command line compressor : C:\Program Files (x86)\Exact Audio Copy\Flac\flac.exe
Additional command line options : -8 -V -T "artist=%artist%" -T "title=%title%" -T "album=%albumtitle%" -T "date=%year%" -T "tracknumber=%tracknr%" -T "genre=%genre%" %source%


TOC of the extracted CD

Track | Start | Length | Start sector | End sector
––––––––––––––––––––––––––––-
1 | 0:00.00 | 2:16.72 | 0 | 10271
2 | 2:16.72 | 3:26.40 | 10272 | 25761
3 | 5:43.37 | 5:51.58 | 25762 | 52144
4 | 11:35.20 | 5:36.55 | 52145 | 77399
5 | 17:12.00 | 4:53.57 | 77400 | 99431
6 | 22:05.57 | 3:42.18 | 99432 | 116099
7 | 25:48.00 | 5:43.15 | 116100 | 141839
8 | 31:31.15 | 2:55.50 | 141840 | 155014
9 | 34:26.65 | 3:06.72 | 155015 | 169036
10 | 37:33.62 | 6:32.00 | 169037 | 198436
11 | 44:05.62 | 7:26.00 | 198437 | 231886
12 | 51:31.62 | 6:33.65 | 231887 | 261426
13 | 58:05.52 | 6:30.60 | 261427 | 290736
14 | 64:36.37 | 3:03.00 | 290737 | 304461


Track 1

Filename G:\98 New Wave Club Class X Traxx!!!\New Wave Club Class-X 4\01_-_The_Cramps_-_Human_Fly.wav

Pre-gap length 0:00:02.00

Peak level 60.3 %
Extraction speed 1.1 X
Track quality 100.0 %
Test CRC 9BDF6758
Copy CRC 9BDF6758
Accurately ripped (confidence 7) [18358C1D] (AR v2)
Copy OK

Track 2

Filename G:\98 New Wave Club Class X Traxx!!!\New Wave Club Class-X 4\02_-_The_Normal_-_Warm_Leatherette.wav

Pre-gap length 0:00:02.65

Peak level 100.0 %
Extraction speed 1.2 X
Track quality 100.0 %
Test CRC E0483B2C
Copy CRC E0483B2C
Accurately ripped (confidence 7) [F7EDE23D] (AR v2)
Copy OK

Track 3

Filename G:\98 New Wave Club Class X Traxx!!!\New Wave Club Class-X 4\03_-_Grace_Jones_-_She's_Lost_Control.wav

Pre-gap length 0:00:03.62

Peak level 90.2 %
Extraction speed 1.4 X
Track quality 100.0 %
Test CRC 457E679F
Copy CRC 457E679F
Accurately ripped (confidence 7) [CD2C3F81] (AR v2)
Copy OK

Track 4

Filename G:\98 New Wave Club Class X Traxx!!!\New Wave Club Class-X 4\04_-_New_Order_-_Everything's_Gone_Green.wav

Pre-gap length 0:00:03.10

Peak level 93.5 %
Extraction speed 1.5 X
Track quality 100.0 %
Test CRC E41DDA33
Copy CRC E41DDA33
Accurately ripped (confidence 7) [BB9C900B] (AR v2)
Copy OK

Track 5

Filename G:\98 New Wave Club Class X Traxx!!!\New Wave Club Class-X 4\05_-_Jah_Wobble_-_How_Much_Are_They.wav

Pre-gap length 0:00:05.33

Peak level 97.7 %
Extraction speed 1.6 X
Track quality 100.0 %
Test CRC 629EAD75
Copy CRC 629EAD75
Accurately ripped (confidence 7) [D794E7BA] (AR v2)
Copy OK

Track 6

Filename G:\98 New Wave Club Class X Traxx!!!\New Wave Club Class-X 4\06_-_Suns_Of_Arqa_-_Acid_Tabla.wav

Pre-gap length 0:00:03.30

Peak level 100.0 %
Extraction speed 1.7 X
Track quality 100.0 %
Test CRC 5FB81A79
Copy CRC 5FB81A79
Accurately ripped (confidence 7) [07A91B06] (AR v2)
Copy OK

Track 7

Filename G:\98 New Wave Club Class X Traxx!!!\New Wave Club Class-X 4\07_-_Bauhaus_-_She's_In_Parties.wav

Pre-gap length 0:00:01.38

Peak level 67.3 %
Extraction speed 1.9 X
Track quality 100.0 %
Test CRC D5BA6209
Copy CRC D5BA6209
Accurately ripped (confidence 7) [D95E09FE] (AR v2)
Copy OK

Track 8

Filename G:\98 New Wave Club Class X Traxx!!!\New Wave Club Class-X 4\08_-_Red_Zebra_-_I_Can't_Live_In_A_Living_Room.wav

Pre-gap length 0:00:04.15

Peak level 68.9 %
Extraction speed 1.8 X
Track quality 100.0 %
Test CRC D18A395D
Copy CRC D18A395D
Accurately ripped (confidence 7) [103F1463] (AR v2)
Copy OK

Track 9

Filename G:\98 New Wave Club Class X Traxx!!!\New Wave Club Class-X 4\09_-_The_Names_-_Calcutta.wav

Pre-gap length 0:00:04.38

Peak level 70.2 %
Extraction speed 1.8 X
Track quality 100.0 %
Test CRC 8F3450F4
Copy CRC 8F3450F4
Accurately ripped (confidence 7) [D2DE5ED1] (AR v2)
Copy OK

Track 10

Filename G:\98 New Wave Club Class X Traxx!!!\New Wave Club Class-X 4\10_-_Psychedelic_Furs_-_Heartbeat.wav

Pre-gap length 0:00:03.32

Peak level 78.5 %
Extraction speed 2.1 X
Track quality 100.0 %
Test CRC C17F9467
Copy CRC C17F9467
Accurately ripped (confidence 7) [053C18B6] (AR v2)
Copy OK

Track 11

Filename G:\98 New Wave Club Class X Traxx!!!\New Wave Club Class-X 4\11_-_Paul_Haig_-_Heaven_Sent.wav

Pre-gap length 0:00:03.45

Peak level 94.7 %
Extraction speed 2.2 X
Track quality 100.0 %
Test CRC 5F22B2FF
Copy CRC 5F22B2FF
Accurately ripped (confidence 7) [BB8E1CF9] (AR v2)
Copy OK

Track 12

Filename G:\98 New Wave Club Class X Traxx!!!\New Wave Club Class-X 4\12_-_Anne_Clark_-_Our_Darkness.wav

Pre-gap length 0:00:05.12

Peak level 100.0 %
Extraction speed 2.3 X
Track quality 100.0 %
Test CRC C77CC692
Copy CRC C77CC692
Accurately ripped (confidence 7) [4E59D8FC] (AR v2)
Copy OK

Track 13

Filename G:\98 New Wave Club Class X Traxx!!!\New Wave Club Class-X 4\13_-_Nitzer_Ebb_-_Let_Your_Body_Learn.wav

Pre-gap length 0:00:05.02

Peak level 97.3 %
Extraction speed 2.4 X
Track quality 100.0 %
Test CRC DC4D0937
Copy CRC DC4D0937
Accurately ripped (confidence 7) [30923823] (AR v2)
Copy OK

Track 14

Filename G:\98 New Wave Club Class X Traxx!!!\New Wave Club Class-X 4\14_-_Altered_Images_-_Happy_Birthday.wav

Pre-gap length 0:00:02.02

Peak level 78.8 %
Extraction speed 2.3 X
Track quality 100.0 %
Test CRC 6C9CCFE4
Copy CRC 6C9CCFE4
Accurately ripped (confidence 7) [32A9596A] (AR v2)
Copy OK


All tracks accurately ripped

No errors occurred

End of status report

–– CUETools DB Plugin V2.1.6

[CTDB TOCID: EIgOMpIE2B0wChikhLCBjmEly38-] found
Submit result: EIgOMpIE2B0wChikhLCBjmEly38- has been confirmed
Track | CTDB Status
1 | (15/15) Accurately ripped
2 | (15/15) Accurately ripped
3 | (15/15) Accurately ripped
4 | (15/15) Accurately ripped
5 | (15/15) Accurately ripped
6 | (15/15) Accurately ripped
7 | (15/15) Accurately ripped
8 | (15/15) Accurately ripped
9 | (15/15) Accurately ripped
10 | (15/15) Accurately ripped
11 | (15/15) Accurately ripped
12 | (15/15) Accurately ripped
13 | (15/15) Accurately ripped
14 | (15/15) Accurately ripped


==== Log checksum 9CCBB31C5B051F98A2E4B8BE15EEAEE9AFA70E50528855B596A01F88FC06B2E0 ====