Subcategories

Andy Williams - The Real... Andy Williams: The Ultimate Collection (2011) 3CD Set

Posted By: Designol
Andy Williams - The Real... Andy Williams: The Ultimate Collection (2011) 3CD Set

Andy Williams - The Real… Andy Williams: The Ultimate Collection (2011) 3CD Set
EAC | FLAC | Tracks (Cue&Log) ~ 1 Gb | Mp3 (CBR320) ~ 424 Mb | Scans included
Label: Sony Music | # 88691900692 | Time: 03:00:36
Vocal Pop, Traditional Pop, Easy Listening, Vocal Jazz

Three CD collection from the legendary crooner. Though his commercial peak was in the '60s and '70s, Williams has continued to stay busy over the decades by touring, recording and headlining his own Moon River Theater in Branson, MO. He also remains popular in the UK and Europe, where he has frequently toured over the years. This triple disc set features 60 classics including 'Moon River', 'Can't Get Used To Losing You' and many more tracks including a dozen Christmas favorites.

An engaging crooner, TV personality, and entrepreneur, Andy Williams was one of the most bankable and popular singers of his era. With his laid-back delivery, supple voice, and amiable charm, Williams rode a wave of success that took him from a childhood vocal act with his brothers to worldwide fame as a solo artist, eventually finding latter-day success as a theater impresario in Branson, Missouri. Though he started out as a crooner in the post-Frank Sinatra style, his wide-ranging taste in music (as evidenced by the guests on his '60s variety show) found him embracing artists and songs across generational and stylistic boundaries; and he can be heard on record interpreting songs that range from traditional pop to rock to bossa nova, country, and beyond. From the pre-rock & roll era onward, Williams was one of the most recognizable singers of his day.

Born in Wall Lake, Iowa, Williams sang in his church choir and later formed a quartet with his three brothers. The group performed on radio throughout the Midwest, then moved to Los Angeles to make it in show business. The Williams Brothers Quartet appeared on Bing Crosby's 1944 hit "Swinging on a Star" and appeared with comedienne Kay Thompson during the late '40s.

Andy Williams finally began his solo career in 1952, making several appearances on Steve Allen's The Tonight Show before signing a contract with Archie Bleyer's Cadence Records in 1955. He hit the Top Ten in 1956 with his third single for the label, "Canadian Sunset." One year later, his soft-toned cover of the Charlie Gracie rockabilly nugget "Butterfly" hit number one (it's still his biggest hit). Additional Top Ten entries "Are You Sincere," "Lonely Street," and "The Village of St. Bernadette" followed before Williams moved to Columbia in 1961.

Despite another big hit in 1963, "Can't Get Used to Losing You," Williams failed to generate much action on the singles charts during the 1960s. Instead, his highly rated variety program on NBC-TV spurred interest in the ever-growing LP market for adult and middle-of-the-road audiences. The popular 1962 album Moon River & Other Great Movie Themes featured the song he's most identified with, and the following year's Days of Wine and Roses hit the top of the album charts. Nine more LPs hit the Top Ten for Andy Williams during the '60s, many organized around loose themes – Broadway, ballads, and one album that featured members of his family. Though 1971's Love Story was a platinum success that sparked a Top Ten hit for the title song, his television show was canceled that year.

Andy Williams remained very popular during the '70s, especially for British audiences. His single "Solitaire" hit the Top Ten there in 1973, though it didn't even chart in America. Two of his subsequent albums also performed well, but only in Britain. He released relatively few LPs during the 1980s, but returned to the pop world in the early '90s when he founded his own theater/resort in the home-grown entertainment capital of Branson, Missouri. Williams continued to headline shows there for 20 years, although he announced from its stage during a Christmas 2011 show that he had been diagnosed with cancer. It finally took his life on September 25, 2012.

John Bush, Allmusic.com

Andy Williams - The Real... Andy Williams: The Ultimate Collection (2011) 3CD Set



Tracklist:

CD1:

01. Moon River (From 'Breakfast at Tiffany's') [Album Version] (02:47)
02. Danny Boy (02:54)
03. Tammy (03:06)
04. The Twelfth of Never (02:52)
05. I'm Old Fashioned (02:59)
06. Come to Me, Bend to Me (03:23)
07. Secret Love (03:14)
08. The Heather on the Hill (03:01)
09. Can I Forget You (03:42)
10. It Could Happen to You (03:00)
11. I Want to Be Wanted (03:18)
12. Summertime (03:06)
13. Misty (03:23)
14. Love Is a Many-Splendored Thing [From the 20th Century-Fox Picture] (02:52)
15. A Summer Place [Album Version] (02:36)
16. Maria [From the U.A. Release, 'West Side Story'] (03:40)
17. Never On Sunday from the Jules Dassin Picture [Album Version] (03:00)
18. As Time Goes By From the Warner Bros. Picture, 'Casablanca' [Album Version] (03:09)
19. The Exodus Song [Album Version] (03:14)
20. Tonight (02:34)

CD2:

01. Embraceable You (03:44)
02. How Long Has This Been Going On (03:37)
03. The Touch Of Your Lips (03:13)
04. I See Your Face Before Me (03:36)
05. The Way You Look Tonight (03:39)
06. If I Would Ever Leave You (03:42)
07. My One And Only Love (03:52)
08. Stranger On The Shore (02:52)
09. Warm All Over (03:20)
10. More Than You Know (03:30)
11. Love Is Here To Stay (02:47)
12. Warm And Willing (02:56)
13. Falling In Love With Love (02:10)
14. I Left My Heart In San Francisco (03:03)
15. You Are My Sunshine (02:26)
16. What Kind Of Fool Am I? (03:21)
17. When You're Smiling (The Whole World Smiles With You) (01:42)
18. Days Of Wine And Roses (02:46)
19. It's A Most Unusual Day (02:02)
20. My Coloring Book (03:30)

CD3:

01. Can't Get Used To Losing You (02:24)
02. I Really Don't Want To Know (02:52)
03. Exactly Like You (01:58)
04. May Each Day (02:53)
05. The Second Time Around (03:21)
06. Tender Is The Night (03:04)
07. It Might As Well Be Spring (03:09)
08. Three Coins In The Fountain (02:55)
09. Steigh Ride (02:09)
10. It's The Most Wonderful Time Of The Year (02:33)
11. Let It Snow! Let It Snow! Let It Snow! (02:17)
12. Silver Bells (03:11)
13. The Christmas Song (Chestnuts Roasting On An Open Fire) (02:34)
14. Joy To The World (02:50)
15. Mary's Little Boy Child (03:54)
16. The Little Drummer Boy (02:17)
17. A song And A Christmas Tree (The Twelve Days Of Christmas) (03:58)
18. Have Yourself A Merry Little Christmas (03:25)
19. Silent Night (02:17)
20. White Christmas (02:31)


Exact Audio Copy V1.3 from 2. September 2016

EAC extraction logfile from 7. July 2017, 21:58

Andy Williams / The Real… Andy Williams (CD1)

Used drive : TSSTcorpCDDVDW SE-208AB Adapter: 2 ID: 0

Read mode : Secure
Utilize accurate stream : Yes
Defeat audio cache : Yes
Make use of C2 pointers : No

Read offset correction : 6
Overread into Lead-In and Lead-Out : No
Fill up missing offset samples with silence : Yes
Delete leading and trailing silent blocks : No
Null samples used in CRC calculations : Yes
Used interface : Installed external ASPI interface
Gap handling : Appended to previous track

Used output format : User Defined Encoder
Selected bitrate : 768 kBit/s
Quality : High
Add ID3 tag : No
Command line compressor : C:\Program Files (x86)\Exact Audio Copy\Flac\flac.exe
Additional command line options : -8 -V -T "ARTIST=%artist%" -T "TITLE=%title%" -T "ALBUM=%albumtitle%" -T "DATE=%year%" -T "TRACKNUMBER=%tracknr%" -T "GENRE=%genre%" -T "COMMENT=%comment%" -T "BAND=%albuminterpret%" -T "ALBUMARTIST=%albuminterpret%" -T "COMPOSER=%composer%" %haslyrics%–tag-from-file=LYRICS="%lyricsfile%"%haslyrics% -T "DISCNUMBER=%cdnumber%" -T "TOTALDISCS=%totalcds%" -T "TOTALTRACKS=%numtracks%" %hascover%–picture="%coverfile%"%hascover% %source% -o %dest%

TOC of the extracted CD

Track | Start | Length | Start sector | End sector
––––––––––––––––––––––––––––-
1 | 0:00.00 | 2:47.60 | 0 | 12584
2 | 2:47.60 | 2:54.27 | 12585 | 25661
3 | 5:42.12 | 3:06.54 | 25662 | 39665
4 | 8:48.66 | 2:52.14 | 39666 | 52579
5 | 11:41.05 | 2:59.19 | 52580 | 66023
6 | 14:40.24 | 3:23.03 | 66024 | 81251
7 | 18:03.27 | 3:14.60 | 81252 | 95861
8 | 21:18.12 | 3:01.56 | 95862 | 109492
9 | 24:19.68 | 3:42.48 | 109493 | 126190
10 | 28:02.41 | 3:00.40 | 126191 | 139730
11 | 31:03.06 | 3:18.70 | 139731 | 154650
12 | 34:22.01 | 3:06.05 | 154651 | 168605
13 | 37:28.06 | 3:23.04 | 168606 | 183834
14 | 40:51.10 | 2:52.22 | 183835 | 196756
15 | 43:43.32 | 2:36.34 | 196757 | 208490
16 | 46:19.66 | 3:40.58 | 208491 | 225048
17 | 50:00.49 | 3:00.41 | 225049 | 238589
18 | 53:01.15 | 3:09.12 | 238590 | 252776
19 | 56:10.27 | 3:14.17 | 252777 | 267343
20 | 59:24.44 | 2:34.69 | 267344 | 278962

Track 1

Filename C:\Program Files (x86)\Exact Audio Copy\Flac\01. Moon River.wav

Pre-gap length 0:00:02.00

Peak level 83.9 %
Extraction speed 1.1 X
Track quality 100.0 %
Test CRC 1C0B31D4
Copy CRC 1C0B31D4
Accurately ripped (confidence 6) [E55F3084] (AR v2)
Copy OK

Track 2

Filename C:\Program Files (x86)\Exact Audio Copy\Flac\02. Danny Boy.wav

Pre-gap length 0:00:02.00

Peak level 85.7 %
Extraction speed 1.2 X
Track quality 100.0 %
Test CRC 60332A84
Copy CRC 60332A84
Accurately ripped (confidence 6) [74CB2AF7] (AR v2)
Copy OK

Track 3

Filename C:\Program Files (x86)\Exact Audio Copy\Flac\03. Tammy.wav

Pre-gap length 0:00:02.00

Peak level 86.7 %
Extraction speed 1.3 X
Track quality 100.0 %
Test CRC 91F3DB7D
Copy CRC 91F3DB7D
Accurately ripped (confidence 6) [6B24CC15] (AR v2)
Copy OK

Track 4

Filename C:\Program Files (x86)\Exact Audio Copy\Flac\04. The Twelfth Of Never.wav

Pre-gap length 0:00:02.00

Peak level 83.7 %
Extraction speed 1.3 X
Track quality 100.0 %
Test CRC F70A6661
Copy CRC F70A6661
Accurately ripped (confidence 6) [C333CC86] (AR v2)
Copy OK

Track 5

Filename C:\Program Files (x86)\Exact Audio Copy\Flac\05. I'm Old Fashioned.wav

Pre-gap length 0:00:02.00

Peak level 82.7 %
Extraction speed 1.2 X
Track quality 99.9 %
Test CRC 4C2638D8
Copy CRC 4C2638D8
Accurately ripped (confidence 6) [38B35976] (AR v2)
Copy OK

Track 6

Filename C:\Program Files (x86)\Exact Audio Copy\Flac\06. Come To Me, Bend To Me.wav

Pre-gap length 0:00:02.00

Peak level 85.2 %
Extraction speed 1.5 X
Track quality 100.0 %
Test CRC EB304F73
Copy CRC EB304F73
Accurately ripped (confidence 6) [DC2F1057] (AR v2)
Copy OK

Track 7

Filename C:\Program Files (x86)\Exact Audio Copy\Flac\07. Secret Love.wav

Pre-gap length 0:00:02.00

Peak level 91.3 %
Extraction speed 1.6 X
Track quality 100.0 %
Test CRC 3B69AC75
Copy CRC 3B69AC75
Accurately ripped (confidence 6) [13112056] (AR v2)
Copy OK

Track 8

Filename C:\Program Files (x86)\Exact Audio Copy\Flac\08. The Heather On The Hill.wav

Pre-gap length 0:00:02.00

Peak level 88.9 %
Extraction speed 1.6 X
Track quality 100.0 %
Test CRC 1B48FDDE
Copy CRC 1B48FDDE
Accurately ripped (confidence 6) [EB98C025] (AR v2)
Copy OK

Track 9

Filename C:\Program Files (x86)\Exact Audio Copy\Flac\09. Can I Forget You.wav

Pre-gap length 0:00:02.00

Peak level 87.9 %
Extraction speed 1.7 X
Track quality 100.0 %
Test CRC 4D8AF167
Copy CRC 4D8AF167
Accurately ripped (confidence 6) [D164B803] (AR v2)
Copy OK

Track 10

Filename C:\Program Files (x86)\Exact Audio Copy\Flac\10. It Could Happen To You.wav

Pre-gap length 0:00:02.00

Peak level 88.3 %
Extraction speed 1.7 X
Track quality 100.0 %
Test CRC 3F49B2CE
Copy CRC 3F49B2CE
Accurately ripped (confidence 6) [88144913] (AR v2)
Copy OK

Track 11

Filename C:\Program Files (x86)\Exact Audio Copy\Flac\11. I Want To Be Wanted.wav

Pre-gap length 0:00:02.00

Peak level 91.0 %
Extraction speed 1.8 X
Track quality 100.0 %
Test CRC 6B16ACCF
Copy CRC 6B16ACCF
Accurately ripped (confidence 6) [A0725251] (AR v2)
Copy OK

Track 12

Filename C:\Program Files (x86)\Exact Audio Copy\Flac\12. Summertime.wav

Pre-gap length 0:00:02.00

Peak level 90.9 %
Extraction speed 1.9 X
Track quality 100.0 %
Test CRC 62F25CBA
Copy CRC 62F25CBA
Accurately ripped (confidence 6) [53D6CBCF] (AR v2)
Copy OK

Track 13

Filename C:\Program Files (x86)\Exact Audio Copy\Flac\13. Misty.wav

Pre-gap length 0:00:02.00

Peak level 92.9 %
Extraction speed 1.9 X
Track quality 100.0 %
Test CRC 8D7B3801
Copy CRC 8D7B3801
Accurately ripped (confidence 6) [58024431] (AR v2)
Copy OK

Track 14

Filename C:\Program Files (x86)\Exact Audio Copy\Flac\14. Love Is A Many-Splendored Thing.wav

Pre-gap length 0:00:02.00

Peak level 88.9 %
Extraction speed 1.6 X
Track quality 99.9 %
Test CRC 885A07D7
Copy CRC 885A07D7
Accurately ripped (confidence 6) [C56B16C8] (AR v2)
Copy OK

Track 15

Filename C:\Program Files (x86)\Exact Audio Copy\Flac\15. A Summer Place.wav

Pre-gap length 0:00:02.00

Peak level 85.9 %
Extraction speed 1.9 X
Track quality 100.0 %
Test CRC 492F7865
Copy CRC 492F7865
Accurately ripped (confidence 6) [824CF99C] (AR v2)
Copy OK

Track 16

Filename C:\Program Files (x86)\Exact Audio Copy\Flac\16. Maria.wav

Pre-gap length 0:00:02.00

Peak level 92.0 %
Extraction speed 1.8 X
Track quality 99.9 %
Test CRC BE91CE86
Copy CRC BE91CE86
Accurately ripped (confidence 6) [EECDDB44] (AR v2)
Copy OK

Track 17

Filename C:\Program Files (x86)\Exact Audio Copy\Flac\17. Never On Sunday.wav

Pre-gap length 0:00:02.00

Peak level 87.9 %
Extraction speed 2.1 X
Track quality 100.0 %
Test CRC FC5B35F4
Copy CRC FC5B35F4
Accurately ripped (confidence 6) [24CE7C85] (AR v2)
Copy OK

Track 18

Filename C:\Program Files (x86)\Exact Audio Copy\Flac\18. As Time Goes By.wav

Pre-gap length 0:00:02.00

Peak level 87.9 %
Extraction speed 2.1 X
Track quality 100.0 %
Test CRC 2BC71EFC
Copy CRC 2BC71EFC
Accurately ripped (confidence 6) [73E51D41] (AR v2)
Copy OK

Track 19

Filename C:\Program Files (x86)\Exact Audio Copy\Flac\19. The Exodus Song.wav

Pre-gap length 0:00:01.73

Peak level 79.2 %
Extraction speed 1.9 X
Track quality 99.9 %
Test CRC 7FB3873C
Copy CRC 7FB3873C
Accurately ripped (confidence 6) [2C661025] (AR v2)
Copy OK

Track 20

Filename C:\Program Files (x86)\Exact Audio Copy\Flac\20. Tonight.wav

Pre-gap length 0:00:01.74

Peak level 93.1 %
Extraction speed 2.1 X
Track quality 100.0 %
Test CRC E9267997
Copy CRC E9267997
Accurately ripped (confidence 6) [02FE41AA] (AR v2)
Copy OK

All tracks accurately ripped

No errors occurred

End of status report

–– CUETools DB Plugin V2.1.6

[CTDB TOCID: wQUmpt4f5w62XQdBYAvrQMELcnE-] found
Submit result: already submitted
Track | CTDB Status
1 | (32/32) Accurately ripped
2 | (32/32) Accurately ripped
3 | (32/32) Accurately ripped
4 | (32/32) Accurately ripped
5 | (32/32) Accurately ripped
6 | (32/32) Accurately ripped
7 | (32/32) Accurately ripped
8 | (32/32) Accurately ripped
9 | (32/32) Accurately ripped
10 | (32/32) Accurately ripped
11 | (32/32) Accurately ripped
12 | (32/32) Accurately ripped
13 | (32/32) Accurately ripped
14 | (32/32) Accurately ripped
15 | (32/32) Accurately ripped
16 | (32/32) Accurately ripped
17 | (32/32) Accurately ripped
18 | (32/32) Accurately ripped
19 | (32/32) Accurately ripped
20 | (32/32) Accurately ripped

==== Log checksum B503B69CDA57F53EF042DAE8ACF65DB2669CC5836C24EAD56E21DDFE4328E6F2 ====

––––––––––––––––––––––––––––––––––––––––
Analyzed: Andy Williams / The Real…Andy Williams CD01
––––––––––––––––––––––––––––––––––––––––

DR Peak RMS Duration Track
––––––––––––––––––––––––––––––––––––––––
DR10 -1.52 dB -14.08 dB 2:48 01-Moon River (From 'Breakfast at Tiffany's') [Album Version]
DR10 -1.33 dB -14.07 dB 2:54 02-Danny Boy
DR9 -1.23 dB -12.92 dB 3:07 03-Tammy
DR9 -1.54 dB -12.93 dB 2:52 04-The Twelfth of Never
DR8 -1.65 dB -12.55 dB 2:59 05-I'm Old Fashioned
DR8 -1.39 dB -11.30 dB 3:23 06-Come to Me, Bend to Me
DR8 -0.79 dB -11.46 dB 3:15 07-Secret Love
DR8 -1.02 dB -11.30 dB 3:02 08-The Heather on the Hill
DR8 -1.12 dB -11.65 dB 3:43 09-Can I Forget You
DR8 -1.08 dB -11.81 dB 3:01 10-It Could Happen to You
DR8 -0.82 dB -11.32 dB 3:19 11-I Want to Be Wanted
DR7 -0.82 dB -10.28 dB 3:06 12-Summertime
DR7 -0.63 dB -10.71 dB 3:23 13-Misty
DR8 -1.01 dB -11.47 dB 2:52 14-Love Is a Many-Splendored Thing [From the 20th Century-Fox Picture]
DR8 -1.31 dB -11.93 dB 2:36 15-A Summer Place [Album Version]
DR9 -0.72 dB -13.52 dB 3:41 16-Maria [From the U.A. Release, 'West Side Story']
DR8 -1.11 dB -11.08 dB 3:01 17-Never On Sunday from the Jules Dassin Picture [Album Version]
DR8 -1.12 dB -12.88 dB 3:09 18-As Time Goes By From the Warner Bros. Picture, 'Casablanca' [Album Version]
DR8 -2.01 dB -12.22 dB 3:14 19-The Exodus Song [Album Version]
DR9 -0.62 dB -12.97 dB 2:35 20-Tonight
––––––––––––––––––––––––––––––––––––––––

Number of tracks: 20
Official DR value: DR8

Samplerate: 44100 Hz
Channels: 2
Bits per sample: 16


Exact Audio Copy V1.3 from 2. September 2016

EAC extraction logfile from 7. July 2017, 23:22

Andy Williams / The Real… Andy Williams (CD2)

Used drive : TSSTcorpCDDVDW SE-208AB Adapter: 2 ID: 0

Read mode : Secure
Utilize accurate stream : Yes
Defeat audio cache : Yes
Make use of C2 pointers : No

Read offset correction : 6
Overread into Lead-In and Lead-Out : No
Fill up missing offset samples with silence : Yes
Delete leading and trailing silent blocks : No
Null samples used in CRC calculations : Yes
Used interface : Installed external ASPI interface
Gap handling : Appended to previous track

Used output format : User Defined Encoder
Selected bitrate : 768 kBit/s
Quality : High
Add ID3 tag : No
Command line compressor : C:\Program Files (x86)\Exact Audio Copy\Flac\flac.exe
Additional command line options : -8 -V -T "ARTIST=%artist%" -T "TITLE=%title%" -T "ALBUM=%albumtitle%" -T "DATE=%year%" -T "TRACKNUMBER=%tracknr%" -T "GENRE=%genre%" -T "COMMENT=%comment%" -T "BAND=%albuminterpret%" -T "ALBUMARTIST=%albuminterpret%" -T "COMPOSER=%composer%" %haslyrics%–tag-from-file=LYRICS="%lyricsfile%"%haslyrics% -T "DISCNUMBER=%cdnumber%" -T "TOTALDISCS=%totalcds%" -T "TOTALTRACKS=%numtracks%" %hascover%–picture="%coverfile%"%hascover% %source% -o %dest%

TOC of the extracted CD

Track | Start | Length | Start sector | End sector
––––––––––––––––––––––––––––-
1 | 0:00.00 | 3:44.20 | 0 | 16819
2 | 3:44.20 | 3:37.60 | 16820 | 33154
3 | 7:22.05 | 3:13.00 | 33155 | 47629
4 | 10:35.05 | 3:36.65 | 47630 | 63894
5 | 14:11.70 | 3:39.52 | 63895 | 80371
6 | 17:51.47 | 3:42.17 | 80372 | 97038
7 | 21:33.64 | 3:52.25 | 97039 | 114463
8 | 25:26.14 | 2:52.65 | 114464 | 127428
9 | 28:19.04 | 3:20.10 | 127429 | 142438
10 | 31:39.14 | 3:30.00 | 142439 | 158188
11 | 35:09.14 | 2:47.25 | 158189 | 170738
12 | 37:56.39 | 2:56.02 | 170739 | 183940
13 | 40:52.41 | 2:10.23 | 183941 | 193713
14 | 43:02.64 | 3:03.00 | 193714 | 207438
15 | 46:05.64 | 2:26.26 | 207439 | 218414
16 | 48:32.15 | 3:21.23 | 218415 | 233512
17 | 51:53.38 | 1:42.53 | 233513 | 241215
18 | 53:36.16 | 2:46.20 | 241216 | 253685
19 | 56:22.36 | 2:02.45 | 253686 | 262880
20 | 58:25.06 | 3:30.55 | 262881 | 278685

Track 1

Filename C:\Program Files (x86)\Exact Audio Copy\Flac\01. Embraceable You.wav

Pre-gap length 0:00:02.00

Peak level 90.9 %
Extraction speed 1.2 X
Track quality 100.0 %
Test CRC 21FF0883
Copy CRC 21FF0883
Accurately ripped (confidence 5) [73510DCC] (AR v2)
Copy OK

Track 2

Filename C:\Program Files (x86)\Exact Audio Copy\Flac\02. How Long Has This Been Going On.wav

Pre-gap length 0:00:02.00

Peak level 100.0 %
Extraction speed 1.1 X
Track quality 99.9 %
Test CRC 774F2020
Copy CRC 774F2020
Accurately ripped (confidence 5) [273754F7] (AR v2)
Copy OK

Track 3

Filename C:\Program Files (x86)\Exact Audio Copy\Flac\03. The Touch Of Your Lips.wav

Pre-gap length 0:00:02.00

Peak level 90.4 %
Extraction speed 1.4 X
Track quality 100.0 %
Test CRC 8B53C83B
Copy CRC 8B53C83B
Accurately ripped (confidence 5) [01B8E442] (AR v2)
Copy OK

Track 4

Filename C:\Program Files (x86)\Exact Audio Copy\Flac\04. I See Your Face Before Me.wav

Pre-gap length 0:00:02.00

Peak level 83.0 %
Extraction speed 1.5 X
Track quality 100.0 %
Test CRC 4DE2ABE6
Copy CRC 4DE2ABE6
Accurately ripped (confidence 5) [EB17126D] (AR v2)
Copy OK

Track 5

Filename C:\Program Files (x86)\Exact Audio Copy\Flac\05. The Way You Look Tonight.wav

Pre-gap length 0:00:02.00

Peak level 91.4 %
Extraction speed 1.6 X
Track quality 100.0 %
Test CRC 0B845E8E
Copy CRC 0B845E8E
Accurately ripped (confidence 5) [6AF86075] (AR v2)
Copy OK

Track 6

Filename C:\Program Files (x86)\Exact Audio Copy\Flac\06. If I Would Ever Leave You.wav

Pre-gap length 0:00:02.00

Peak level 82.0 %
Extraction speed 1.6 X
Track quality 100.0 %
Test CRC BD583428
Copy CRC BD583428
Accurately ripped (confidence 5) [FB3D6A2E] (AR v2)
Copy OK

Track 7

Filename C:\Program Files (x86)\Exact Audio Copy\Flac\07. My One And Only Love.wav

Pre-gap length 0:00:01.73

Peak level 83.9 %
Extraction speed 1.8 X
Track quality 100.0 %
Test CRC AFC3CF26
Copy CRC AFC3CF26
Accurately ripped (confidence 5) [AA8650E0] (AR v2)
Copy OK

Track 8

Filename C:\Program Files (x86)\Exact Audio Copy\Flac\08. Stranger On The Shore.wav

Pre-gap length 0:00:02.00

Peak level 88.6 %
Extraction speed 1.7 X
Track quality 100.0 %
Test CRC 6A6E3C70
Copy CRC 6A6E3C70
Accurately ripped (confidence 5) [F105F9F3] (AR v2)
Copy OK

Track 9

Filename C:\Program Files (x86)\Exact Audio Copy\Flac\09. Warm All Over.wav

Pre-gap length 0:00:02.00

Peak level 84.2 %
Extraction speed 1.8 X
Track quality 100.0 %
Test CRC E4B47392
Copy CRC E4B47392
Accurately ripped (confidence 4) [CEC990F1] (AR v2)
Copy OK

Track 10

Filename C:\Program Files (x86)\Exact Audio Copy\Flac\10. More Than You Know.wav

Pre-gap length 0:00:02.00

Peak level 86.5 %
Extraction speed 1.9 X
Track quality 100.0 %
Test CRC D4D35ADF
Copy CRC D4D35ADF
Accurately ripped (confidence 5) [1ABCE814] (AR v2)
Copy OK

Track 11

Filename C:\Program Files (x86)\Exact Audio Copy\Flac\11. Love Is Here To Stay.wav

Pre-gap length 0:00:02.00

Peak level 78.8 %
Extraction speed 1.6 X
Track quality 99.9 %
Test CRC D1281E82
Copy CRC D1281E82
Accurately ripped (confidence 5) [710BADAA] (AR v2)
Copy OK

Track 12

Filename C:\Program Files (x86)\Exact Audio Copy\Flac\12. Warm And Willing.wav

Pre-gap length 0:00:02.00

Peak level 80.2 %
Extraction speed 1.9 X
Track quality 100.0 %
Test CRC 87908122
Copy CRC 87908122
Accurately ripped (confidence 5) [16F6F3FA] (AR v2)
Copy OK

Track 13

Filename C:\Program Files (x86)\Exact Audio Copy\Flac\13. Falling In Love With Love.wav

Pre-gap length 0:00:02.00

Peak level 87.0 %
Extraction speed 1.9 X
Track quality 100.0 %
Test CRC 7D44D322
Copy CRC 7D44D322
Accurately ripped (confidence 5) [1FB42A03] (AR v2)
Copy OK

Track 14

Filename C:\Program Files (x86)\Exact Audio Copy\Flac\14. I Left My Heart In San Francisco.wav

Pre-gap length 0:00:02.00

Peak level 89.9 %
Extraction speed 2.1 X
Track quality 100.0 %
Test CRC F25E4E1E
Copy CRC F25E4E1E
Accurately ripped (confidence 5) [453E1C24] (AR v2)
Copy OK

Track 15

Filename C:\Program Files (x86)\Exact Audio Copy\Flac\15. You Are My Sunshine.wav

Pre-gap length 0:00:02.00

Peak level 93.7 %
Extraction speed 2.0 X
Track quality 100.0 %
Test CRC 46E17112
Copy CRC 46E17112
Accurately ripped (confidence 5) [82DDFD2B] (AR v2)
Copy OK

Track 16

Filename C:\Program Files (x86)\Exact Audio Copy\Flac\16. What Kind Of Fool Am I.wav

Pre-gap length 0:00:02.00

Peak level 92.2 %
Extraction speed 2.2 X
Track quality 100.0 %
Test CRC A60ECC20
Copy CRC A60ECC20
Accurately ripped (confidence 5) [AE3E3B10] (AR v2)
Copy OK

Track 17

Filename C:\Program Files (x86)\Exact Audio Copy\Flac\17. When You're Smiling (The Whole World Smiles With You).wav

Pre-gap length 0:00:02.00

Peak level 99.9 %
Extraction speed 1.9 X
Track quality 100.0 %
Test CRC 723578D2
Copy CRC 723578D2
Accurately ripped (confidence 5) [0BC7387B] (AR v2)
Copy OK

Track 18

Filename C:\Program Files (x86)\Exact Audio Copy\Flac\18. Days Of Wine And Roses.wav

Pre-gap length 0:00:02.00

Peak level 88.2 %
Extraction speed 2.2 X
Track quality 100.0 %
Test CRC 0B018A16
Copy CRC 0B018A16
Accurately ripped (confidence 5) [9ECD0EFE] (AR v2)
Copy OK

Track 19

Filename C:\Program Files (x86)\Exact Audio Copy\Flac\19. It's A Most Unusual Day.wav

Pre-gap length 0:00:02.00

Peak level 97.3 %
Extraction speed 2.1 X
Track quality 100.0 %
Test CRC 3E153447
Copy CRC 3E153447
Accurately ripped (confidence 5) [2FC0B56E] (AR v2)
Copy OK

Track 20

Filename C:\Program Files (x86)\Exact Audio Copy\Flac\20. My Coloring Book.wav

Pre-gap length 0:00:02.00

Peak level 82.3 %
Extraction speed 2.4 X
Track quality 100.0 %
Test CRC B484AF72
Copy CRC B484AF72
Accurately ripped (confidence 5) [EE8CB165] (AR v2)
Copy OK

All tracks accurately ripped

No errors occurred

End of status report

–– CUETools DB Plugin V2.1.6

[CTDB TOCID: ow.kETryIYiZVW.8iklyHAsTVkE-] found
Submit result: ow.kETryIYiZVW.8iklyHAsTVkE- has been confirmed
Track | CTDB Status
1 | (29/29) Accurately ripped
2 | (29/29) Accurately ripped
3 | (28/29) Accurately ripped
4 | (29/29) Accurately ripped
5 | (29/29) Accurately ripped
6 | (29/29) Accurately ripped
7 | (29/29) Accurately ripped
8 | (29/29) Accurately ripped
9 | (29/29) Accurately ripped
10 | (29/29) Accurately ripped
11 | (29/29) Accurately ripped
12 | (29/29) Accurately ripped
13 | (29/29) Accurately ripped
14 | (29/29) Accurately ripped
15 | (29/29) Accurately ripped
16 | (29/29) Accurately ripped
17 | (29/29) Accurately ripped
18 | (29/29) Accurately ripped
19 | (29/29) Accurately ripped
20 | (29/29) Accurately ripped

==== Log checksum D9DF0B2C7E305AC97E2287D301AED08CDFA0BA609285714A729BF7FAD46CE998 ====

––––––––––––––––––––––––––––––––––––––––
Analyzed: Andy Williams / The Real…Andy Williams CD02
––––––––––––––––––––––––––––––––––––––––

DR Peak RMS Duration Track
––––––––––––––––––––––––––––––––––––––––
DR10 -0.82 dB -13.45 dB 3:44 01-Embraceable You
DR11 0.00 dB -14.78 dB 3:38 02-How Long Has This Been Going On
DR10 -0.87 dB -14.38 dB 3:13 03-The Touch Of Your Lips
DR11 -1.61 dB -15.90 dB 3:37 04-I See Your Face Before Me
DR9 -0.78 dB -13.88 dB 3:40 05-The Way You Look Tonight
DR10 -1.72 dB -16.26 dB 3:42 06-If I Would Ever Leave You
DR11 -1.52 dB -15.32 dB 3:52 07-My One And Only Love
DR10 -1.04 dB -14.70 dB 2:53 08-Stranger On The Shore
DR10 -1.49 dB -14.40 dB 3:20 09-Warm All Over
DR10 -1.25 dB -14.40 dB 3:30 10-More Than You Know
DR10 -2.06 dB -15.72 dB 2:47 11-Love Is Here To Stay
DR10 -1.91 dB -14.76 dB 2:56 12-Warm And Willing
DR10 -1.20 dB -14.17 dB 2:10 13-Falling In Love With Love
DR10 -0.92 dB -15.13 dB 3:03 14-I Left My Heart In San Francisco
DR10 -0.56 dB -13.25 dB 2:26 15-You Are My Sunshine
DR10 -0.70 dB -14.31 dB 3:21 16-What Kind Of Fool Am I?
DR11 0.00 dB -13.09 dB 1:43 17-When You're Smiling (The Whole World Smiles With You)
DR9 -1.09 dB -13.79 dB 2:46 18-Days Of Wine And Roses
DR11 -0.24 dB -13.29 dB 2:03 19-It's A Most Unusual Day
DR10 -1.69 dB -15.73 dB 3:31 20-My Coloring Book
––––––––––––––––––––––––––––––––––––––––

Number of tracks: 20
Official DR value: DR10

Samplerate: 44100 Hz
Channels: 2
Bits per sample: 16


Exact Audio Copy V1.3 from 2. September 2016

EAC extraction logfile from 8. July 2017, 10:56

Andy Williams / The Real… Andy Williams (CD3)

Used drive : HL-DT-STDVD+-RW GU90N Adapter: 1 ID: 0

Read mode : Secure
Utilize accurate stream : Yes
Defeat audio cache : Yes
Make use of C2 pointers : No

Read offset correction : 102
Overread into Lead-In and Lead-Out : No
Fill up missing offset samples with silence : Yes
Delete leading and trailing silent blocks : No
Null samples used in CRC calculations : Yes
Used interface : Installed external ASPI interface
Gap handling : Appended to previous track

Used output format : User Defined Encoder
Selected bitrate : 768 kBit/s
Quality : High
Add ID3 tag : No
Command line compressor : C:\Program Files (x86)\Exact Audio Copy\Flac\flac.exe
Additional command line options : -8 -V -T "ARTIST=%artist%" -T "TITLE=%title%" -T "ALBUM=%albumtitle%" -T "DATE=%year%" -T "TRACKNUMBER=%tracknr%" -T "GENRE=%genre%" -T "COMMENT=%comment%" -T "BAND=%albuminterpret%" -T "ALBUMARTIST=%albuminterpret%" -T "COMPOSER=%composer%" %haslyrics%–tag-from-file=LYRICS="%lyricsfile%"%haslyrics% -T "DISCNUMBER=%cdnumber%" -T "TOTALDISCS=%totalcds%" -T "TOTALTRACKS=%numtracks%" %hascover%–picture="%coverfile%"%hascover% %source% -o %dest%

TOC of the extracted CD

Track | Start | Length | Start sector | End sector
––––––––––––––––––––––––––––-
1 | 0:00.00 | 2:24.66 | 0 | 10865
2 | 2:24.66 | 2:52.61 | 10866 | 23826
3 | 5:17.52 | 1:58.15 | 23827 | 32691
4 | 7:15.67 | 2:53.29 | 32692 | 45695
5 | 10:09.21 | 3:21.45 | 45696 | 60815
6 | 13:30.66 | 3:04.63 | 60816 | 74678
7 | 16:35.54 | 3:09.74 | 74679 | 88927
8 | 19:45.53 | 2:55.50 | 88928 | 102102
9 | 22:41.28 | 2:09.11 | 102103 | 111788
10 | 24:50.39 | 2:33.33 | 111789 | 123296
11 | 27:23.72 | 2:17.27 | 123297 | 133598
12 | 29:41.24 | 3:11.00 | 133599 | 147923
13 | 32:52.24 | 2:34.18 | 147924 | 159491
14 | 35:26.42 | 2:50.04 | 159492 | 172245
15 | 38:16.46 | 3:54.38 | 172246 | 189833
16 | 42:11.09 | 2:17.12 | 189834 | 200120
17 | 44:28.21 | 3:58.09 | 200121 | 217979
18 | 48:26.30 | 3:25.27 | 217980 | 233381
19 | 51:51.57 | 2:17.21 | 233382 | 243677
20 | 54:09.03 | 2:31.72 | 243678 | 255074

Track 1

Filename C:\Program Files (x86)\Exact Audio Copy\Flac\01. Can't Get Used To Losing You.wav

Pre-gap length 0:00:02.00

Peak level 100.0 %
Extraction speed 1.2 X
Track quality 100.0 %
Test CRC C8E9C496
Copy CRC C8E9C496
Accurately ripped (confidence 5) [88DBBDD3] (AR v2)
Copy OK

Track 2

Filename C:\Program Files (x86)\Exact Audio Copy\Flac\02. I Really Don't Want To Know.wav

Pre-gap length 0:00:02.00

Peak level 83.6 %
Extraction speed 1.3 X
Track quality 100.0 %
Test CRC 9D0B33C3
Copy CRC 9D0B33C3
Accurately ripped (confidence 5) [FA797C91] (AR v2)
Copy OK

Track 3

Filename C:\Program Files (x86)\Exact Audio Copy\Flac\03. Exactly Like You.wav

Pre-gap length 0:00:02.00

Peak level 94.1 %
Extraction speed 1.0 X
Track quality 99.9 %
Test CRC BA6ACEDB
Copy CRC BA6ACEDB
Accurately ripped (confidence 5) [B7E15674] (AR v2)
Copy OK

Track 4

Filename C:\Program Files (x86)\Exact Audio Copy\Flac\04. May Each Day.wav

Pre-gap length 0:00:02.00

Peak level 86.0 %
Extraction speed 1.5 X
Track quality 100.0 %
Test CRC 1F3170C7
Copy CRC 1F3170C7
Accurately ripped (confidence 5) [8E692615] (AR v2)
Copy OK

Track 5

Filename C:\Program Files (x86)\Exact Audio Copy\Flac\05. The Second Time Around.wav

Pre-gap length 0:00:02.00

Peak level 62.6 %
Extraction speed 1.6 X
Track quality 100.0 %
Test CRC 37DCA425
Copy CRC 37DCA425
Accurately ripped (confidence 5) [F7DB29AF] (AR v2)
Copy OK

Track 6

Filename C:\Program Files (x86)\Exact Audio Copy\Flac\06. Tender Is The Night.wav

Pre-gap length 0:00:02.00

Peak level 65.9 %
Extraction speed 1.7 X
Track quality 100.0 %
Test CRC 19C5A3B1
Copy CRC 19C5A3B1
Accurately ripped (confidence 5) [971FC768] (AR v2)
Copy OK

Track 7

Filename C:\Program Files (x86)\Exact Audio Copy\Flac\07. It Might As Well Be Spring.wav

Pre-gap length 0:00:02.00

Peak level 70.9 %
Extraction speed 1.8 X
Track quality 100.0 %
Test CRC F645B2A0
Copy CRC F645B2A0
Accurately ripped (confidence 5) [B4E5B0A2] (AR v2)
Copy OK

Track 8

Filename C:\Program Files (x86)\Exact Audio Copy\Flac\08. Three Coins In The Fountain.wav

Pre-gap length 0:00:02.00

Peak level 80.6 %
Extraction speed 1.8 X
Track quality 100.0 %
Test CRC F94402DB
Copy CRC F94402DB
Accurately ripped (confidence 5) [4EF7F35D] (AR v2)
Copy OK

Track 9

Filename C:\Program Files (x86)\Exact Audio Copy\Flac\09. Sleigh Ride.wav

Pre-gap length 0:00:02.00

Peak level 96.5 %
Extraction speed 1.5 X
Track quality 99.9 %
Test CRC BD68ADB7
Copy CRC BD68ADB7
Accurately ripped (confidence 5) [2E37B9A9] (AR v2)
Copy OK

Track 10

Filename C:\Program Files (x86)\Exact Audio Copy\Flac\10. It's The Most Wonderful Time Of The Year.wav

Pre-gap length 0:00:02.00

Peak level 87.1 %
Extraction speed 1.9 X
Track quality 100.0 %
Test CRC 8FCFF9E5
Copy CRC 8FCFF9E5
Accurately ripped (confidence 5) [A400AF33] (AR v2)
Copy OK

Track 11

Filename C:\Program Files (x86)\Exact Audio Copy\Flac\11. Let It Snow! Let It Snow! Let It Snow!.wav

Pre-gap length 0:00:02.00

Peak level 85.7 %
Extraction speed 1.9 X
Track quality 100.0 %
Test CRC BEC03B56
Copy CRC BEC03B56
Accurately ripped (confidence 5) [2F9F57F6] (AR v2)
Copy OK

Track 12

Filename C:\Program Files (x86)\Exact Audio Copy\Flac\12. Silver Bells.wav

Pre-gap length 0:00:02.00

Peak level 95.6 %
Extraction speed 2.1 X
Track quality 100.0 %
Test CRC 453AE8E9
Copy CRC 453AE8E9
Accurately ripped (confidence 5) [46173560] (AR v2)
Copy OK

Track 13

Filename C:\Program Files (x86)\Exact Audio Copy\Flac\13. The Christmas Song (Chestnuts Roasting On An Open Fire).wav

Pre-gap length 0:00:02.00

Peak level 87.0 %
Extraction speed 2.0 X
Track quality 100.0 %
Test CRC AC534A4F
Copy CRC AC534A4F
Accurately ripped (confidence 5) [CDDCB102] (AR v2)
Copy OK

Track 14

Filename C:\Program Files (x86)\Exact Audio Copy\Flac\14. Joy To The World.wav

Pre-gap length 0:00:02.00

Peak level 98.2 %
Extraction speed 1.0 X
Track quality 100.0 %
Test CRC CCE0A204
Copy CRC CCE0A204
Accurately ripped (confidence 5) [AF5497B1] (AR v2)
Copy OK

Track 15

Filename C:\Program Files (x86)\Exact Audio Copy\Flac\15. Mary's Little Boy Child.wav

Pre-gap length 0:00:02.00

Peak level 88.1 %
Extraction speed 0.8 X
Track quality 100.0 %
Test CRC 1C7DFD8C
Copy CRC 1C7DFD8C
Accurately ripped (confidence 5) [FFCEF6E6] (AR v2)
Copy OK

Track 16

Filename C:\Program Files (x86)\Exact Audio Copy\Flac\16. The Little Drummer Boy.wav

Pre-gap length 0:00:02.00

Peak level 79.2 %
Extraction speed 0.7 X
Track quality 100.0 %
Test CRC 93BFC291
Copy CRC 93BFC291
Accurately ripped (confidence 5) [22E04E94] (AR v2)
Copy OK

Track 17

Filename C:\Program Files (x86)\Exact Audio Copy\Flac\17. A Song And A Christmas Tree (The Twelve Days Of Christmas).wav

Pre-gap length 0:00:02.00

Peak level 81.2 %
Extraction speed 0.7 X
Track quality 100.0 %
Test CRC EC160D86
Copy CRC EC160D86
Accurately ripped (confidence 5) [939FBE7F] (AR v2)
Copy OK

Track 18

Filename C:\Program Files (x86)\Exact Audio Copy\Flac\18. Have Yourself A Merry Little Christmas.wav

Pre-gap length 0:00:02.00

Peak level 81.6 %
Extraction speed 0.7 X
Track quality 100.0 %
Test CRC 1D2F2474
Copy CRC 1D2F2474
Accurately ripped (confidence 5) [367A6CE4] (AR v2)
Copy OK

Track 19

Filename C:\Program Files (x86)\Exact Audio Copy\Flac\19. Silent Night.wav

Pre-gap length 0:00:02.00

Peak level 73.6 %
Extraction speed 0.6 X
Track quality 100.0 %
Test CRC 3B43D65F
Copy CRC 3B43D65F
Accurately ripped (confidence 5) [816AB7FD] (AR v2)
Copy OK

Track 20

Filename C:\Program Files (x86)\Exact Audio Copy\Flac\20. White Christmas.wav

Pre-gap length 0:00:02.00

Peak level 83.7 %
Extraction speed 0.3 X
Track quality 99.8 %
Test CRC EE3B8ACA
Copy CRC EE3B8ACA
Accurately ripped (confidence 5) [FF4D8ECA] (AR v2)
Copy OK

All tracks accurately ripped

No errors occurred

End of status report

–– CUETools DB Plugin V2.1.6

[CTDB TOCID: isbf5kVYwIAlNvDxCepKcDwySUY-] found
Submit result: isbf5kVYwIAlNvDxCepKcDwySUY- has been confirmed
Track | CTDB Status
1 | (26/26) Accurately ripped
2 | (26/26) Accurately ripped
3 | (26/26) Accurately ripped
4 | (26/26) Accurately ripped
5 | (26/26) Accurately ripped
6 | (26/26) Accurately ripped
7 | (26/26) Accurately ripped
8 | (26/26) Accurately ripped
9 | (26/26) Accurately ripped
10 | (26/26) Accurately ripped
11 | (26/26) Accurately ripped
12 | (26/26) Accurately ripped
13 | (26/26) Accurately ripped
14 | (26/26) Accurately ripped
15 | (26/26) Accurately ripped
16 | (26/26) Accurately ripped
17 | (26/26) Accurately ripped
18 | (26/26) Accurately ripped
19 | (25/26) Accurately ripped
20 | (26/26) Accurately ripped

==== Log checksum 881659373E0EC361C0709F42DDD778EF052B695C1A4187B6636A50DA62A51F0B ====

––––––––––––––––––––––––––––––––––––––––
Analyzed: Andy Williams / The Real…Andy Williams CD03
––––––––––––––––––––––––––––––––––––––––

DR Peak RMS Duration Track
––––––––––––––––––––––––––––––––––––––––
DR12 0.00 dB -14.02 dB 2:25 01-Can't Get Used To Losing You
DR11 -1.55 dB -15.55 dB 2:53 02-I Really Don't Want To Know
DR11 -0.53 dB -13.46 dB 1:58 03-Exactly Like You
DR10 -1.30 dB -14.46 dB 2:53 04-May Each Day
DR10 -4.07 dB -16.90 dB 3:22 05-The Second Time Around
DR9 -3.61 dB -16.17 dB 3:05 06-Tender Is The Night
DR9 -2.98 dB -16.05 dB 3:10 07-It Might As Well Be Spring
DR10 -1.87 dB -15.94 dB 2:56 08-Three Coins In The Fountain
DR11 -0.31 dB -14.02 dB 2:09 09-Steigh Ride
DR9 -1.20 dB -13.53 dB 2:33 10-It's The Most Wonderful Time Of The Year
DR11 -1.34 dB -15.01 dB 2:17 11-Let It Snow! Let It Snow! Let It Snow!
DR11 -0.39 dB -13.72 dB 3:11 12-Silver Bells
DR10 -1.20 dB -14.58 dB 2:34 13-The Christmas Song (Chestnuts Roasting On An Open Fire)
DR10 -0.16 dB -13.46 dB 2:50 14-Joy To The World
DR11 -1.10 dB -16.12 dB 3:55 15-Mary's Little Boy Child
DR11 -2.02 dB -16.03 dB 2:17 16-The Little Drummer Boy
DR11 -1.80 dB -15.41 dB 3:58 17-A song And A Christmas Tree (The Twelve Days Of Christmas)
DR10 -1.76 dB -15.20 dB 3:25 18-Have Yourself A Merry Little Christmas
DR10 -2.66 dB -15.55 dB 2:17 19-Silent Night
DR10 -1.54 dB -14.89 dB 2:32 20-White Christmas
––––––––––––––––––––––––––––––––––––––––

Number of tracks: 20
Official DR value: DR10

Samplerate: 44100 Hz
Channels: 2
Bits per sample: 16

Andy Williams - The Real... Andy Williams: The Ultimate Collection (2011) 3CD Set

Andy Williams - The Real... Andy Williams: The Ultimate Collection (2011) 3CD Set