Subcategories
Tags
Language
Tags

Anthony Phillips - Private Parts & Pieces Part I (1978) + Part II: Back To The Pavilion (1980) 2CD Set, Remastered 2009 [Re-Up]

Posted By: Designol
Anthony Phillips - Private Parts & Pieces Part I (1978) + Part II: Back To The Pavilion (1980) 2CD Set, Remastered 2009 [Re-Up]

Anthony Phillips - Private Parts & Pieces Part I + Part II: Back To The Pavilion (2009) 2 CD Set
EAC | FLAC | Image (Cue&Log) ~ 635 Mb | Mp3 (CBR320) ~ 305 Mb | Scans ~ 18 Mb
Prog-Rock, Folk, Finger-Picked Guitar, Art Rock | Label: Voiceprint | # VP532CD | 02:13:19

Two CD set containing a pair of releases from the veteran guitarist and former member of Genesis: Private Parts & Pieces Pt. 1 and Private Parts & Pieces Part 2: Back From The Pavillion. Private Parts and Pieces was originally released in the UK as a free bonus album as part of the Sides release. It was released as a stand alone album shortly afterwards in late 1978. The album is almost all acoustic based material that had been written between Ant leaving Genesis and the release of The Geese and The Ghost. Pt. 2: Back To The Pavillion was released in early 1980 due to the incredible success of the original Private Parts and Pieces album.

Private Parts & Pieces, Part I:

A very pleasing and at times surprising collection of Anthony Phillips' odds and sods, leftover tracks and demos, some derived from the best early compositions by him and Michael Rutherford, and a few Genesis footnotes (a farewell song, in a pop vein, to original drummer John Silver, and snippets of pieces from unrecorded early Genesis songs), mostly played on electric guitar, classical acoustic guitar and 12-string, in enough varied styles, tempos, and moods to make this a highly enjoyable collection. One needn't even be a fan of Genesis to like it, although it would help to be amenable to art-rock. Phillips sings in a couple of places, and while he's no Peter Gabriel, he's not bad, either, considering that none of this stuff was ever really supposed to see the light of day. His main strength is on the guitar, however, and he does dazzle there, particularly on the 11-minute "Flamingo," a first movement of a projected guitar concerto that is one of the finest classical guitar showcases to come out of the whole art-rock scene. There are also some keyboard-based pieces on both synthesizer and acoustic piano, among them "Autumnal," a sweet impressionistic piece that is oddly inventive, despite its obvious (and inevitable) debt to Debussy.

Review by Bruce Eder, Allmusic.com

Private Parts & Pieces, Part II Back To The Pavilion:

The strongest of Phillips' vault raidings, made up of pieces cut during 1976 and 1977, is, at times, his most Genesis-like release in mood and texture. The centerpiece is the "Scottish Suite," an ambitious, genuinely impressive instrumental piece (adapted from Scottish and Paraguayan folk material) that, as Phillips' own notes concede, is closely related to "Henry" from The Geese and the Ghost. Phillips' work is weighted a little more toward his keyboard playing than some other releases, but he also plays plenty of electric guitar very aggressively, and with some beautiful melodies as source material, the result is an eminently listenable, surprisingly lithe and unpretentious progressive rock album. Michael Rutherford shows up on bass, and King Crimson alumnus Mel Collins plays flute on one track (Crimson alumnus Andy McCulloch is also present on drums for two tracks). The musical content does vary, from Expressionist, almost Satie-like miniatures to bold, multi-layered suites, but as they are all interesting and none are mutually exclusive in terms of style, this could be Phillips' most accessible solo release.

Review by Bruce Eder, Allmusic.com

Anthony Phillips - Private Parts & Pieces Part I (1978) + Part II: Back To The Pavilion (1980) 2CD Set, Remastered 2009 [Re-Up]



Tracklist:

CD1 - Private Parts & Pieces Part I (1978):

01. Beauty and The Beast (04:10)
02. Field Of Eternity (05:15)
03. Tibetan Yak-Music (06:11)
04. Lullaby - Old Father Time (01:19)
05. Harmonium in the Dust (or Harmonius Stradosphore) (02:33)
06. Tregenna Afternoons (07:51)
07. Stranger (Extra Track) (06:13)
08. Reaper (07:41)
09. Autumnal (06:02)
10. Flamingo (11:10)
11. Seven Long Years (03:04)
12. Silver Song (Extra Track) (03:22)
13. Movement IV from Guitar Quintet (Extra Track) (07:07)

CD2 - Private Parts & Pieces, Part II Back To The Pavilion (1980):

01. Scottish Suite: (i) Salmon Leap (02:47)
02. Scottish Suite: (ii) Parting Thistle (02:26)
03. Scottish Suite: (iii) Electric Reaper (03:00)
04. Scottish Suite: (iv) Amorphous, Cadaverous and Nebulous (04:52)
05. Scottish Suite: (v) Salmon's Last Sleepwalk (02:02)
06. Lindsay (03:44)
07. K2 (09:00)
08. Postlude: End of the Season (00:33)
09. Heavens (04:25)
10. Spring Meeting (03:52)
11. Romany's Aria (00:51)
12. Chinaman (00:43)
13. Nocturne (04:04)
14. Magic Garden (01:54)
15. Von Runkel's Yorker Music (00:45)
16. Will O' the Wisp (03:34)
17. Tremulous (01:09)
18. I Saw You Today (04:33)
19. Back to the Pavillion (03:01)
20. Lucy: An Illusion (03:51)


Exact Audio Copy V0.99 prebeta 1 from 25. May 2007

Отчёт EAC об извлечении, выполненном 28. марта 2011, 20:36

Anthony Phillips / Private Parts And Pieces I (2010 CD re-issue)

Дисковод: PIONEER DVD-RW DVR-212D Adapter: 1 ID: 1

Режим чтения : Достоверность
Использование точного потока : Да
Отключение кэша аудио : Да
Использование указателей C2 : Нет

Коррекция смещения при чтении : 48
Способность читать области Lead-in и Lead-out : Нет
Заполнение пропущенных сэмплов тишиной : Да
Удаление блоков с тишиной в начале и конце : Нет
Интерфейс : Установленный внешний ASPI-интерфейс

Выходной формат : Пользовательский кодировщик
Выбранный битрейт : 768 kBit/s
Качество : Высокий
Добавление ID3-тэга : Нет
Утилита сжатия : C:\Program Files\Exact Audio Copy\FLAC\FLAC.EXE
Дополнительные параметры : -6 -V -T "ARTIST=%a" -T "TITLE=%t" -T "ALBUM=%g" -T "DATE=%y" -T "TRACKNUMBER=%n" -T "GENRE=%m" -T "COMMENT=%e" %s -o %d


TOC извлечённого CD

Трек | Старт | Длительность | Начальный сектор | Конечный сектор
––––––––––––––––––––––––––––––––––-
1 | 0:00.00 | 4:10.67 | 0 | 18816
2 | 4:10.67 | 5:15.74 | 18817 | 42515
3 | 9:26.66 | 6:11.31 | 42516 | 70371
4 | 15:38.22 | 1:19.54 | 70372 | 76350
5 | 16:58.01 | 2:33.57 | 76351 | 87882
6 | 19:31.58 | 7:51.51 | 87883 | 123258
7 | 27:23.34 | 6:13.31 | 123259 | 151264
8 | 33:36.65 | 7:41.72 | 151265 | 185911
9 | 41:18.62 | 6:02.51 | 185912 | 213112
10 | 47:21.38 | 11:10.71 | 213113 | 263433
11 | 58:32.34 | 3:04.02 | 263434 | 277235
12 | 61:36.36 | 3:22.15 | 277236 | 292400
13 | 64:58.51 | 7:07.64 | 292401 | 324489


Характеристики диапазона извлечения и сообщения об ошибках

Выбранный диапазон

Имя файла E:\TORRENT\Anthony Phillips (1978+1980)\CD1\Anthony Phillips - Private Parts And Pieces I (2010 CD re-issue).wav

Пиковый уровень 99.7 %
Качество диапазона 100.0 %
CRC копии 848A322B
Копирование… OK


AccurateRip: сводка

Трек 1 точное извлечение (доверие 5) [B6E98CCC]
Трек 2 точное извлечение (доверие 4) [024881C0]
Трек 3 точное извлечение (доверие 4) [30317858]
Трек 4 точное извлечение (доверие 4) [D4640C0E]
Трек 5 точное извлечение (доверие 4) [00DA12A3]
Трек 6 точное извлечение (доверие 4) [DC3A6CF7]
Трек 7 точное извлечение (доверие 5) [DAFB70D5]
Трек 8 точное извлечение (доверие 4) [04C095ED]
Трек 9 точное извлечение (доверие 4) [F3C48678]
Трек 10 точное извлечение (доверие 4) [8A28DC54]
Трек 11 точное извлечение (доверие 4) [6263A84A]
Трек 12 точное извлечение (доверие 4) [F7548F27]
Трек 13 точное извлечение (доверие 4) [A78D27DF]

Ошибок не произошло

Конец отчёта

[CUETools log; Date: 15.06.2016 0:05:36; Version: 2.1.4]
[CTDB TOCID: OGvZ2oxF0myHtGqSZTaYlYxduPg-] found.
Track | CTDB Status
1 | (7/7) Accurately ripped
2 | (7/7) Accurately ripped
3 | (7/7) Accurately ripped
4 | (7/7) Accurately ripped
5 | (7/7) Accurately ripped
6 | (7/7) Accurately ripped
7 | (7/7) Accurately ripped
8 | (7/7) Accurately ripped
9 | (7/7) Accurately ripped
10 | (7/7) Accurately ripped
11 | (7/7) Accurately ripped
12 | (7/7) Accurately ripped
13 | (7/7) Accurately ripped
[AccurateRip ID: 002074c9-014caaca-a710e60d] found.
Track [ CRC | V2 ] Status
01 [b6e98ccc|8130e89f] (04+09/13) Accurately ripped
02 [024881c0|06a0534c] (04+09/13) Accurately ripped
03 [30317858|6aca0cda] (04+09/13) Accurately ripped
04 [d4640c0e|688128ae] (04+09/13) Accurately ripped
05 [00da12a3|09fa3b8a] (04+09/13) Accurately ripped
06 [dc3a6cf7|13b70c63] (04+09/13) Accurately ripped
07 [dafb70d5|28b456c7] (04+09/13) Accurately ripped
08 [04c095ed|65156edd] (04+09/13) Accurately ripped
09 [f3c48678|5cfe63ad] (04+09/13) Accurately ripped
10 [8a28dc54|18ee0065] (04+09/13) Accurately ripped
11 [6263a84a|439b0ad4] (04+09/13) Accurately ripped
12 [f7548f27|81d33e35] (04+09/13) Accurately ripped
13 [a78d27df|3c71f964] (04+09/13) Accurately ripped

Track Peak [ CRC32 ] [W/O NULL] [ LOG ]
– 99,7 [95478FC2] [848A322B] W/O NULL
01 94,3 [B2D92E7A] [2D1A8C5E]
02 80,5 [9E69BCA0] [BEE113A0]
03 92,6 [AF1FCF98] [0E4FF24B]
04 91,3 [3EBF940D] [8A943EA7]
05 98,8 [BD53FFB0] [8EFAEC66]
06 93,7 [0441EA75] [F3DEB6EA]
07 98,8 [3B2EC3DF] [67651F07]
08 97,3 [D8B6D4AD] [B5FD235C]
09 90,8 [484D06F2] [F3944834]
10 99,7 [735B83F7] [3FB84C6A]
11 98,8 [04448AD2] [0D0FCB0F]
12 98,8 [FB01C028] [3146B7CA]
13 95,9 [D60AC4DF] [1FB23AC0]

foobar2000 1.2 / Dynamic Range Meter 1.1.1
log date: 2016-06-14 20:56:40

––––––––––––––––––––––––––––––––––––––––
Analyzed: Anthony Phillips / Private Parts And Pieces I (2010 CD re-issue)
––––––––––––––––––––––––––––––––––––––––

DR Peak RMS Duration Track
––––––––––––––––––––––––––––––––––––––––
DR10 -0.50 dB -16.31 dB 4:11 01-Beauty and The Beast
DR13 -1.88 dB -17.83 dB 5:16 02-Field Of Eternity
DR13 -0.66 dB -18.72 dB 6:11 03-Tibetan Yak-Music
DR14 -0.78 dB -20.12 dB 1:20 04-Lullaby - Old Father Time
DR10 -0.10 dB -11.85 dB 2:34 05-Harmonium in the Dust (or Harmonius Stradosphore)
DR12 -0.56 dB -17.81 dB 7:52 06-Tregenna Afternoons
DR13 -0.10 dB -17.63 dB 6:13 07-Stranger (Extra Track)
DR13 -0.23 dB -18.07 dB 7:42 08-Reaper
DR13 -0.84 dB -18.55 dB 6:03 09-Autumnal
DR13 -0.02 dB -18.01 dB 11:11 10-Flamingo
DR12 -0.10 dB -16.24 dB 3:04 11-Seven Long Years
DR11 -0.10 dB -14.38 dB 3:22 12-Silver Song (Extra Track)
DR13 -0.36 dB -18.02 dB 7:08 13-Movement IV from Guitar Quintet (Extra Track)
––––––––––––––––––––––––––––––––––––––––

Number of tracks: 13
Official DR value: DR12

Samplerate: 44100 Hz
Channels: 2
Bits per sample: 16
Bitrate: 694 kbps
Codec: FLAC
================================================================================


Exact Audio Copy V0.99 prebeta 1 from 25. May 2007

Отчёт EAC об извлечении, выполненном 28. марта 2011, 21:07

Anthony Phillips / Private Parts & Pieces, Part II "Back To The Pavilion"

Дисковод: PIONEER DVD-RW DVR-212D Adapter: 1 ID: 1

Режим чтения : Достоверность
Использование точного потока : Да
Отключение кэша аудио : Да
Использование указателей C2 : Нет

Коррекция смещения при чтении : 48
Способность читать области Lead-in и Lead-out : Нет
Заполнение пропущенных сэмплов тишиной : Да
Удаление блоков с тишиной в начале и конце : Нет
Интерфейс : Установленный внешний ASPI-интерфейс

Выходной формат : Пользовательский кодировщик
Выбранный битрейт : 768 kBit/s
Качество : Высокий
Добавление ID3-тэга : Нет
Утилита сжатия : C:\Program Files\Exact Audio Copy\FLAC\FLAC.EXE
Дополнительные параметры : -6 -V -T "ARTIST=%a" -T "TITLE=%t" -T "ALBUM=%g" -T "DATE=%y" -T "TRACKNUMBER=%n" -T "GENRE=%m" -T "COMMENT=%e" %s -o %d


TOC извлечённого CD

Трек | Старт | Длительность | Начальный сектор | Конечный сектор
––––––––––––––––––––––––––––––––––-
1 | 0:00.00 | 2:47.43 | 0 | 12567
2 | 2:47.43 | 2:26.48 | 12568 | 23565
3 | 5:14.16 | 3:00.40 | 23566 | 37105
4 | 8:14.56 | 4:52.38 | 37106 | 59043
5 | 13:07.19 | 2:02.19 | 59044 | 68212
6 | 15:09.38 | 3:44.48 | 68213 | 85060
7 | 18:54.11 | 9:00.30 | 85061 | 125590
8 | 27:54.41 | 0:33.02 | 125591 | 128067
9 | 28:27.43 | 4:25.43 | 128068 | 147985
10 | 32:53.11 | 3:52.35 | 147986 | 165420
11 | 36:45.46 | 0:51.06 | 165421 | 169251
12 | 37:36.52 | 0:43.01 | 169252 | 172477
13 | 38:19.53 | 4:04.22 | 172478 | 190799
14 | 42:24.00 | 1:54.11 | 190800 | 199360
15 | 44:18.11 | 0:45.35 | 199361 | 202770
16 | 45:03.46 | 3:34.18 | 202771 | 218838
17 | 48:37.64 | 1:09.28 | 218839 | 224041
18 | 49:47.17 | 4:33.39 | 224042 | 244555
19 | 54:20.56 | 3:01.07 | 244556 | 258137
20 | 57:21.63 | 3:51.40 | 258138 | 275502


Характеристики диапазона извлечения и сообщения об ошибках

Выбранный диапазон

Имя файла E:\TORRENT\Anthony Phillips (1978+1980)\CD2\Anthony Phillips - Private Parts & Pieces, Part II Back To The Pavilion.wav

Пиковый уровень 100.0 %
Качество диапазона 100.0 %
CRC теста 19B1892B
CRC копии 19B1892B
Копирование… OK


AccurateRip: сводка

Трек 1 точное извлечение (доверие 3) [20C147E2]
Трек 2 точное извлечение (доверие 3) [7BB5F79C]
Трек 3 точное извлечение (доверие 3) [9FA6CD99]
Трек 4 точное извлечение (доверие 3) [CDF1E4C7]
Трек 5 точное извлечение (доверие 3) [77F2F49C]
Трек 6 точное извлечение (доверие 4) [4C1E2479]
Трек 7 точное извлечение (доверие 3) [6E1099D3]
Трек 8 точное извлечение (доверие 4) [5BFCA771]
Трек 9 точное извлечение (доверие 3) [9D9D2BE3]
Трек 10 точное извлечение (доверие 4) [A2497F57]
Трек 11 точное извлечение (доверие 3) [D7E3F9D4]
Трек 12 точное извлечение (доверие 4) [CB4DF76A]
Трек 13 точное извлечение (доверие 4) [68A425A0]
Трек 14 точное извлечение (доверие 4) [3C21B7E2]
Трек 15 точное извлечение (доверие 3) [D7FF35D3]
Трек 16 точное извлечение (доверие 3) [6C6B9B6C]
Трек 17 точное извлечение (доверие 4) [527B100F]
Трек 18 точное извлечение (доверие 3) [BE967486]
Трек 19 точное извлечение (доверие 3) [F2D82861]
Трек 20 точное извлечение (доверие 3) [3507F704]

Ошибок не произошло

Конец отчёта

[CUETools log; Date: 15.06.2016 0:05:52; Version: 2.1.4]
[CTDB TOCID: LHfH8gYJGPdUnTELjtgHUndgsoE-] found.
Track | CTDB Status
1 | (7/7) Accurately ripped
2 | (7/7) Accurately ripped
3 | (7/7) Accurately ripped
4 | (7/7) Accurately ripped
5 | (7/7) Accurately ripped
6 | (7/7) Accurately ripped
7 | (7/7) Accurately ripped
8 | (7/7) Accurately ripped
9 | (7/7) Accurately ripped
10 | (7/7) Accurately ripped
11 | (7/7) Accurately ripped
12 | (7/7) Accurately ripped
13 | (7/7) Accurately ripped
14 | (7/7) Accurately ripped
15 | (7/7) Accurately ripped
16 | (7/7) Accurately ripped
17 | (7/7) Accurately ripped
18 | (7/7) Accurately ripped
19 | (7/7) Accurately ripped
20 | (7/7) Accurately ripped
[AccurateRip ID: 002de76c-02982fae-340e5914] found.
Track [ CRC | V2 ] Status
01 [20c147e2|e2cd6ea3] (03+09/14) Accurately ripped
02 [7bb5f79c|4a07332e] (03+09/14) Accurately ripped
03 [9fa6cd99|c47dbe68] (03+09/14) Accurately ripped
04 [cdf1e4c7|832b8058] (03+09/14) Accurately ripped
05 [77f2f49c|38751a00] (03+09/14) Accurately ripped
06 [4c1e2479|c672545d] (03+09/14) Accurately ripped
07 [6e1099d3|83a92541] (03+09/14) Accurately ripped
08 [5bfca771|a610608e] (03+09/14) Accurately ripped
09 [9d9d2be3|0a6c6a3f] (03+09/14) Accurately ripped
10 [a2497f57|948cff7b] (03+09/14) Accurately ripped
11 [d7e3f9d4|8d6070f2] (03+09/14) Accurately ripped
12 [cb4df76a|c0f0133e] (03+09/14) Accurately ripped
13 [68a425a0|e6bb6682] (03+09/14) Accurately ripped
14 [3c21b7e2|fd110244] (03+09/14) Accurately ripped
15 [d7ff35d3|d29f2118] (03+09/14) Accurately ripped
16 [6c6b9b6c|e9c696f9] (03+09/14) Accurately ripped
17 [527b100f|2bf3ceb2] (03+09/14) Accurately ripped
18 [be967486|1ad0c8ae] (03+09/14) Accurately ripped
19 [f2d82861|893a0564] (03+09/14) Accurately ripped
20 [3507f704|1f75fa06] (03+09/14) Accurately ripped

Track Peak [ CRC32 ] [W/O NULL] [ LOG ]
– 100,0 [844F7529] [19B1892B] W/O NULL
01 98,8 [6EB77AA0] [6601FFA5]
02 75,6 [3CB80AB9] [07FBA4C6]
03 100,0 [1ABA459C] [4AEEDE90]
04 100,0 [7546AC6B] [1BACF2D7]
05 50,9 [90E77BE4] [87FD7DD1]
06 91,3 [DD75CEE5] [D5F6618A]
07 96,1 [0F2F3EDD] [D26BEE03]
08 51,6 [DC5245B1] [C77A202C]
09 89,1 [B174D096] [5FB9FAED]
10 82,5 [DC013D82] [094D73C6]
11 54,2 [F7F50EDE] [CD2B5E6E]
12 59,9 [2F5837C9] [20B439C8]
13 78,9 [13AD9964] [EA08B3BB]
14 67,0 [B8AC1ED4] [1EAF700E]
15 42,0 [04D6EAA9] [D4086B7B]
16 68,9 [5E371490] [8F22FD93]
17 58,8 [2896D7D9] [3DB64523]
18 75,6 [B5EE3DA0] [76FD075B]
19 93,6 [A4B6297C] [C2D81735]
20 79,8 [9D0BA50D] [21B7797D]

foobar2000 1.2 / Dynamic Range Meter 1.1.1
log date: 2016-06-14 20:56:58

––––––––––––––––––––––––––––––––––––––––
Analyzed: Anthony Phillips / Private Parts & Pieces, Part II 'Back To The Pavilion'
––––––––––––––––––––––––––––––––––––––––

DR Peak RMS Duration Track
––––––––––––––––––––––––––––––––––––––––
DR10 -0.10 dB -12.70 dB 2:48 01-Scottish Suite: (i) Salmon Leap
DR13 -2.42 dB -18.84 dB 2:27 02-Scottish Suite: (ii) Parting Thistle
DR12 0.00 dB -16.25 dB 3:01 03-Scottish Suite: (iii) Electric Reaper
DR11 0.00 dB -15.02 dB 4:53 04-Scottish Suite: (iv) Amorphous, Cadaverous and Nebulous
DR11 -5.86 dB -20.85 dB 2:02 05-Scottish Suite: (v) Salmon's Last Sleepwalk
DR14 -0.79 dB -19.27 dB 3:45 06-Lindsay
DR13 -0.34 dB -18.95 dB 9:00 07-K2
DR12 -5.73 dB -22.72 dB 0:33 08-Postlude: End of the Season
DR10 -0.99 dB -15.53 dB 4:26 09-Heavens
DR13 -1.67 dB -18.57 dB 3:52 10-Spring Meeting
DR11 -5.32 dB -20.39 dB 0:51 11-Romany's Aria
DR11 -4.45 dB -24.05 dB 0:43 12-Chinaman
DR12 -2.06 dB -18.96 dB 4:04 13-Nocturne
DR11 -3.47 dB -19.67 dB 1:54 14-Magic Garden
DR9 -7.53 dB -21.72 dB 0:45 15-Von Runkel's Yorker Music
DR15 -3.23 dB -21.98 dB 3:34 16-Will O' the Wisp
DR10 -4.60 dB -20.46 dB 1:09 17-Tremulous
DR11 -2.42 dB -20.14 dB 4:34 18-I Saw You Today
DR15 -0.57 dB -22.21 dB 3:01 19-Back to the Pavillion
DR13 -1.95 dB -18.66 dB 3:52 20-Lucy: An Illusion
––––––––––––––––––––––––––––––––––––––––

Number of tracks: 20
Official DR value: DR12

Samplerate: 44100 Hz
Channels: 2
Bits per sample: 16
Bitrate: 634 kbps
Codec: FLAC
================================================================================

Anthony Phillips - Private Parts & Pieces Part I (1978) + Part II: Back To The Pavilion (1980) 2CD Set, Remastered 2009 [Re-Up]

Anthony Phillips - Private Parts & Pieces Part I (1978) + Part II: Back To The Pavilion (1980) 2CD Set, Remastered 2009 [Re-Up]

All thanks to original releaser - Fragile59

More interesting music in My Blog