Tags
Language
Tags

Aretha Franklin - One Lord, One Faith, One Baptism (1987) [1994, Japan]

Posted By: BlondStyle
Aretha Franklin - One Lord, One Faith, One Baptism (1987) [1994, Japan]

Aretha Franklin - One Lord, One Faith, One Baptism (1987) [1994, Japan]
Soul, Deep Soul, Religious, Gospel | EAC Rip | FLAC, Img+CUE+LOG+Scans (PNG) | 46:31 Min. | 926,59 Mb
Label: Arista/BMG Victor Inc. (Japan) | Cat.# BVCA-643 | Released: 1994-04-21 (1987)
Aretha Franklin - One Lord, One Faith, One Baptism (1987) [1994, Japan]

"One Lord, One Faith, One Baptism" is a 1987 gospel album recorded by Aretha Franklin, for Arista Records. Recorded at New Bethel Baptist Church in Detroit, Michigan, over the course of three nights (July 27, 28, and 30, 1987), "One Lord, One Faith, One Baptism" became an album that combined the gospel talents of Aretha, her late sisters Erma and Carolyn, and fellow gospel singer Mavis Staples. However, this release had modest sales, peaking at #106 on Billboard's album chart, and paled in comparison to Aretha's legendary classic Amazing Grace recording. It has sold approximately 150,000 copies to date (doubled for its two discs to approximately 300,000 copies to date). The original release was a double vinyl LP issued by Arista Records in December, 1987. An abridged single CD was also issued removing two tracks (the speech by Rev. Jesse Jackson that opens Side 3 of the vinyl edition, and the Prayer Invocation by Rev. Donald Parsons that appeared on Side 4 of the vinyl edition).
~Wikipedia

Aretha Franklin - One Lord, One Faith, One Baptism (1987) [1994, Japan]

Fifteen years after Amazing Grace, her groundbreaking gospel record, Aretha Franklin returned to the church yet again, and though the results couldn't top the wall-to-wall power and spirit found on her first, the double-album One Lord, One Faith, One Baptism, it's still a worthy document of what the church meant to her. The roster of invited guests was enough to get gospel fans excited, including the Rev. Jesse Jackson, Rev. Jasper Williams, and Rev. C.L. Franklin (her brother, who delivered the invocation), plus Mavis Staples, Joe Ligon (from the Mighty Clouds of Joy), and her sisters, Carol and Erma. Slotted next to sanctified standards like "Surely God Is Able" and "The Lord's Prayer," were several great selections from the pop repertoire, including a scorching version of "Higher Ground." Staples stops by for an ebullient run through the latter-day standard "Oh Happy Day," and the performance closes with a touching finale, "Packing Up, Getting Ready to Go," featuring Staples and Ligon, plus Carol and Erma Franklin.
~Review by John Bush

Aretha Franklin - One Lord, One Faith, One Baptism (1987) [1994, Japan]

Aretha Franklin - One Lord, One Faith, One Baptism (1987) [1994, Japan]




Release of this album: 1987 [2xLPs Arista, Cat.# AL-8497, USA]
Release of this CD: 1994, April, 21 [CD Arista/BMG Victor Inc. (Japan), Cat.# BVCA-643, EAN: 4988017046562]
℗ 1994 Arista Records, Inc.
Manufactured by BMG Victor Inc. Tokyo, Japan
Made in Japan


Credits:

Arranged By [Music And Choir] – Minister Thomas A. Whitfield
Bass – Lanar Brantley
Conductor [Choir] – Michael E. Fletcher
Engineer – Mike Iacopelli
Guitar – Michael Wright
Mixed By – Frank Fisher
Organ – Earl J. Wright, Jr.
Percussion – Dana Davis
Piano – Nick Johnson, Thomas A. Whitfield
Producer, Vocals – Aretha Franklin


Tracklist:

01. Walk In The Light (04:01)
02. Rev. Cecil Franklin / Prayer Invocation (05:49)
03. Rev. Jesse Jackson / Introduction Of Aretha and The Franklin Sisters (00:48)
04. Aretha Franklin and The Franklin Sisters / Jesus Hears Every Prayer (07:20)
05. Aretha Franklin and The Franklin Sisters / Surely God Is Able (04:47)
06. The Lord's Prayer (05:07)
07. Rev. Jesse Jackson / Introduction Of Aretha and Mavis Staples (03:22)
08. Aretha Franklin with Mavis Staples / Oh Happy Day (06:09)
09. Aretha Franklin with Mavis Staples / We Need Power (06:32)
10. Ave Maria (06:50)
11. Rev. Jaspar Williams / Into To Higher Ground (04:08)
12. Aretha Franklin and Rev. Jaspar Williams / Higher Ground (03:57)
13. Aretha Franklin and Joe Ligon / I've Been In The Storm Too Long (08:11)
14. Aretha Franklin, Mavis Staples, Joe Ligon and The Franklin Sisters / Packing Up, Getting Ready To Go (05:35)

Exact Audio Copy V1.3 from 2. September 2016

EAC extraction logfile from 8. July 2018, 20:50

Aretha Franklin / One Lord, One Faith, One Baptism

Used drive : PIONEER BD-RW BDR-208D Adapter: 1 ID: 0

Read mode : Secure
Utilize accurate stream : Yes
Defeat audio cache : Yes
Make use of C2 pointers : No

Read offset correction : 667
Overread into Lead-In and Lead-Out : No
Fill up missing offset samples with silence : Yes
Delete leading and trailing silent blocks : No
Null samples used in CRC calculations : Yes
Used interface : Native Win32 interface for Win NT & 2000

Used output format : Internal WAV Routines
Sample format : 44.100 Hz; 16 Bit; Stereo


TOC of the extracted CD

Track | Start | Length | Start sector | End sector
––––––––––––––––––––––––––––-
1 | 0:00.37 | 4:00.48 | 37 | 18084
2 | 4:01.10 | 5:48.67 | 18085 | 44251
3 | 9:50.02 | 0:47.50 | 44252 | 47826
4 | 10:37.52 | 7:20.30 | 47827 | 80856
5 | 17:58.07 | 4:47.03 | 80857 | 102384
6 | 22:45.10 | 5:06.40 | 102385 | 125374
7 | 27:51.50 | 3:22.22 | 125375 | 140546
8 | 31:13.72 | 6:09.28 | 140547 | 168249
9 | 37:23.25 | 6:31.62 | 168250 | 197636
10 | 43:55.12 | 6:50.10 | 197637 | 228396
11 | 50:45.22 | 4:08.28 | 228397 | 247024
12 | 54:53.50 | 3:57.30 | 247025 | 264829
13 | 58:51.05 | 8:10.40 | 264830 | 301619
14 | 67:01.45 | 5:34.67 | 301620 | 326736


Range status and errors

Selected range

Filename D:\BlondStyle\Aretha Franklin - One Lord, One Faith, One Baptism.wav

Peak level 100.0 %
Extraction speed 4.2 X
Range quality 99.9 %
Test CRC 681FC500
Copy CRC 681FC500
Copy OK

No errors occurred


AccurateRip summary

Track 1 accurately ripped (confidence 3) [ABB9A439] (AR v2)
Track 2 accurately ripped (confidence 3) [A822649E] (AR v2)
Track 3 accurately ripped (confidence 3) [2DBA7376] (AR v2)
Track 4 accurately ripped (confidence 3) [E56B74DD] (AR v2)
Track 5 accurately ripped (confidence 3) [0AB9B2A9] (AR v2)
Track 6 accurately ripped (confidence 3) [A9F66164] (AR v2)
Track 7 accurately ripped (confidence 3) [E5BCD3E9] (AR v2)
Track 8 accurately ripped (confidence 3) [F7CA1666] (AR v2)
Track 9 accurately ripped (confidence 3) [5248DB94] (AR v2)
Track 10 accurately ripped (confidence 3) [E405A431] (AR v2)
Track 11 accurately ripped (confidence 3) [10DD053B] (AR v2)
Track 12 accurately ripped (confidence 3) [5818103B] (AR v2)
Track 13 accurately ripped (confidence 3) [3FE072B6] (AR v2)
Track 14 accurately ripped (confidence 3) [0CE3A778] (AR v2)

All tracks accurately ripped

End of status report

–– CUETools DB Plugin V2.1.6

[CTDB TOCID: 7J7BX487iIqC65wuR2fCPMi3aHA-] found
Submit result: 7J7BX487iIqC65wuR2fCPMi3aHA- has been confirmed
Track | CTDB Status
1 | (13/14) Accurately ripped
2 | (13/14) Accurately ripped
3 | (13/14) Accurately ripped
4 | (13/14) Accurately ripped
5 | (13/14) Accurately ripped
6 | (13/14) Accurately ripped
7 | (13/14) Accurately ripped
8 | (13/14) Accurately ripped
9 | (13/14) Accurately ripped
10 | (13/14) Accurately ripped
11 | (13/14) Accurately ripped
12 | (13/14) Accurately ripped
13 | (11/14) Accurately ripped
14 | (12/14) Accurately ripped


==== Log checksum B2F0429D3DFA1DC6DF4EDDD5F49CC98040CB439673C1D2CB6277ADBD106B6282 ====

––––––––––––––––––––––––––––––––––––––––
Statistics for: 12-Higher Ground
Number of samples: 10469340
Duration: 3:57
––––––––––––––––––––––––––––––––––––––––

Left Right

Peak Value: -0.07 dB –- 0.00 dB
Avg RMS: -16.26 dB –- -16.99 dB
DR channel: 12.80 dB –- 14.06 dB
––––––––––––––––––––––––––––––––––––––––

Official DR Value: DR13

Samplerate: 44100 Hz
Channels: 2
Bits per sample: 16
Bitrate: 831 kbps
Codec: FLAC
================================================================================
Statistics for: 13-I've Been In The Storm Too Long
Number of samples: 21632520
Duration: 8:11
––––––––––––––––––––––––––––––––––––––––

Left Right

Peak Value: -2.69 dB –- -1.25 dB
Avg RMS: -18.00 dB –- -17.52 dB
DR channel: 11.35 dB –- 11.74 dB
––––––––––––––––––––––––––––––––––––––––

Official DR Value: DR12

Samplerate: 44100 Hz
Channels: 2
Bits per sample: 16
Bitrate: 831 kbps
Codec: FLAC
================================================================================
––––––––––––––––––––––––––––––––––––––––
Analyzed: Aretha Franklin And The Franklin Sisters / One Lord, One Faith, One Baptism (1-2)
Aretha Franklin With Mavis Staples, Joe Ligon And The Franklin Sisters / One Lord, One Faith, One Baptism (3)
––––––––––––––––––––––––––––––––––––––––

DR Peak RMS Duration Track
––––––––––––––––––––––––––––––––––––––––
DR12 -3.20 dB -19.24 dB 7:20 04-Jesus Hears Every Prayer
DR12 -1.50 dB -15.94 dB 4:47 05-Surely God Is Able
DR11 -1.01 dB -14.53 dB 5:35 14-Packing Up, Getting Ready To Go
––––––––––––––––––––––––––––––––––––––––

Number of tracks: 3
Official DR value: DR12

Samplerate: 44100 Hz
Channels: 2
Bits per sample: 16
Bitrate: 831 kbps
Codec: FLAC
================================================================================

––––––––––––––––––––––––––––––––––––––––
Analyzed: Aretha Franklin With Mavis Staples / One Lord, One Faith, One Baptism
––––––––––––––––––––––––––––––––––––––––

DR Peak RMS Duration Track
––––––––––––––––––––––––––––––––––––––––
DR13 0.00 dB -15.33 dB 6:09 08-Oh Happy Day
DR12 -0.32 dB -15.56 dB 6:32 09-We Need Power
––––––––––––––––––––––––––––––––––––––––

Number of tracks: 2
Official DR value: DR12

Samplerate: 44100 Hz
Channels: 2
Bits per sample: 16
Bitrate: 831 kbps
Codec: FLAC
================================================================================

––––––––––––––––––––––––––––––––––––––––
Analyzed: Aretha Franklin / One Lord, One Faith, One Baptism
––––––––––––––––––––––––––––––––––––––––

DR Peak RMS Duration Track
––––––––––––––––––––––––––––––––––––––––
DR12 -0.32 dB -16.65 dB 4:01 01-Walk In The Light
DR12 0.00 dB -17.88 dB 5:07 06-The Lord's Prayer
DR12 -2.03 dB -18.74 dB 6:50 10-Ave Maria
––––––––––––––––––––––––––––––––––––––––

Number of tracks: 3
Official DR value: DR12

Samplerate: 44100 Hz
Channels: 2
Bits per sample: 16
Bitrate: 831 kbps
Codec: FLAC
================================================================================

––––––––––––––––––––––––––––––––––––––––
Analyzed: Rev. Cecil Franklin / One Lord, One Faith, One Baptism (1)
Rev. Jaspar Williams / One Lord, One Faith, One Baptism (2)
––––––––––––––––––––––––––––––––––––––––

DR Peak RMS Duration Track
––––––––––––––––––––––––––––––––––––––––
DR14 -0.94 dB -18.60 dB 5:49 02-Prayer Invocation
DR12 -2.94 dB -18.73 dB 4:08 11-Into To Higher Ground
––––––––––––––––––––––––––––––––––––––––

Number of tracks: 2
Official DR value: DR13

Samplerate: 44100 Hz
Channels: 2
Bits per sample: 16
Bitrate: 831 kbps
Codec: FLAC
================================================================================

––––––––––––––––––––––––––––––––––––––––
Analyzed: Rev. Jesse Jackson / One Lord, One Faith, One Baptism
––––––––––––––––––––––––––––––––––––––––

DR Peak RMS Duration Track
––––––––––––––––––––––––––––––––––––––––
DR14 -8.24 dB -26.34 dB 0:48 03-Introduction Of Aretha And The Franklin Sisters
DR13 -1.10 dB -18.89 dB 3:22 07-Introduction Of Aretha And Mavis Staples
––––––––––––––––––––––––––––––––––––––––

Number of tracks: 2
Official DR value: DR14

Samplerate: 44100 Hz
Channels: 2
Bits per sample: 16
Bitrate: 831 kbps
Codec: FLAC
================================================================================

See also:


password: BlondStyle