Subcategories
Tags
Language
Tags

Autechre - Albums Collection 2001-2013 (8CD) Japanese Releases [Re-Up]

Posted By: Designol
Autechre - Albums Collection 2001-2013 (8CD) Japanese Releases [Re-Up]

Autechre - Albums Collection 2001-2013 (8CD) [Japanese Releases]
EAC | FLAC | Tracks (Cue&Log) ~ 2.84 Gb | Scans included | Time: 09:04:03
Genre: IDM, Experimental Electronic, Glitch, Ambient

Collection includes seven japanese releases: Confield (2001); Draft 7.30 (2003); Untilted (2005); Quaristice (2008); Move Of Ten (2010); Oversteps (2010); Exai (2013).

Like Aphex Twin, Autechre were about as close to being experimental techno superstars as the tenets of their genre and the limitations of their audience allowed. Through a series of full-length works and a smattering of EPs on Warp, Clear, and their own Skam label, Autechre consistently garnered the praise of press and public alike. Unlike many of their more club-bound colleagues, however, Autechre's Sean Booth and Rob Brown had roots planted firmly in American electro, and though the more mood-based, sharply digital texture of their update seemed to speak otherwise, it was through early 12"s like Egyptian Lover's "Egypt, Egypt," Grandmaster Flash's "Scorpio," and "Pretty" Tony Butler's "Get Some" that their combined aesthetic began to form.

Booth and Brown met through a mutual friend, trading junked-up pause-button mixtapes of their favorite singles back and forth. Happening onto some bargain basement analog gear through questionable circumstances, the pair began experimenting with their own music before they were out of high school. After some disastrous experiences with a few small labels, the pair sent a tape off to Warp Records, whose early releases by Sweet Exorcist, Nightmares on Wax, and B12 were announcing a new age in U.K.-based techno (and one in which Autechre would become a key component). Releasing a handful of early singles through the label, Autechre's first stabs were collected on their debut full-length, Incunabula, as well as the 10" box set remix EP Basscadet.

Subsequent albums reached a wider audience through stateside reissue, first on Wax Trax!/TVT, later on Nothing (the label managed by Nine Inch Nails' Trent Reznor), and finally through a stateside branch of Warp. Although stylistically rooted, affectations for the ponderous extend beyond their name and track titles ("C/Pach," "Bronchusevenmx24"), with the basic premise of their approach being music without a whole lot of stylistic baggage but plenty of DSP'ed-to-death hyper-programming. Later albums Untilted (2005), Quaristice (2008), Oversteps (2010), Move of Ten (2010), and the two-hour Exai (2013) were not as groundbreaking, yet Autechre easily retained one of the most distinctive sounds in the world of electronica.

In addition to Autechre, Booth and Brown released material as Gescom on their own Skam imprint and through the Clear label, most notably the Sounds of Machines Our Parents Used EP on the latter. The group also provided a number of memorable remixes (oftentimes more memorable than the original material) for artists including Palmskin Productions, Slowly, Mike Ink, DJ Food, Scorn, Skinny Puppy, Tortoise, Phoenecia, Various Artists, the Black Dog, Apparat, and the Bug.

Sean Cooper, Allmusic.com

Autechre - Albums Collection 2001-2013 (8CD) Japanese Releases [Re-Up]





Autechre - Albums Collection 2001-2013 (8CD) Japanese Releases [Re-Up]

Autechre - Confield (2001)
EAC | FLAC | Tracks (Cue&Log) ~ 485 Mb | Mp3 (CBR320) ~ 178 Mb | Scans included
Label: Beat Records | # BRC-36 | Time: 01:14:00

Despite the dozens of experimental electronics producers constantly nipping at their heels, Autechre remained at the forefront of academic sound processing with a highly awaited sixth full album. Whether pushing the next new thing in 2001 is enough to keep listeners coming back to this LP years later is a much different question, and the assault of non-rhythmic beats sprayed all over Confield is enough to keep most from even trying. Opener "VI Scose Poise" is a bouncing-ball-in-a-ring-modulator production that reveals only a few of Autechre's excellent minor-key melodies, while the second off, "Cfern," keeps listeners guessing as well with a parade of conflicting rhythms and head-spinning beats. In fact, it's a palpable relief when "Cfern" leads directly into more straightforward electro territory with "Pen Expers." There are faint glimpses of the melancholy beauty of Autechre's early work, but this experimental, rigidly academic work is a record to respect, not enjoy.

Review by John Bush, Allmusic.com

Tracklist:

01. VI Scose Poise (06:58)
02. Cfern (06:43)
03. Pen Expers (07:10)
04. Sim Gishel (07:16)
05. Parhelic Triangle (06:05)
06. Bine (04:42)
07. Eidetic Casein (06:14)
08. Uviol (08:37)
09. Lentic Catachresis (09:08)
10. MCR Quarter * Bonus track for Japan (11:02)


Exact Audio Copy V0.99 prebeta 5 from 4. May 2009

Отчёт EAC об извлечении, выполненном 2. апреля 2010, 1:08

Autechre / Confield BRC34

Дисковод: PLEXTOR CD-R PREMIUM2 Adapter: 0 ID: 0

Режим чтения : Достоверность
Использование точного потока : Да
Отключение кэша аудио : Да
Использование указателей C2 : Нет

Коррекция смещения при чтении : 30
Способность читать области Lead-in и Lead-out : Да
Заполнение пропущенных сэмплов тишиной : Да
Удаление блоков с тишиной в начале и конце : Нет
При вычислениях CRC использовались нулевые сэмплы : Да
Интерфейс : Встроенный Win32-интерфейс для Win NT/2000
Обработка зазоров : Добавлено к предыдущему треку

Выходной формат : Внутренние WAV-операции
Формат сэмплов : 44.100 Гц; 16 бит; стерео


TOC извлечённого CD

Трек | Старт | Длительность | Начальный сектор | Конечный сектор
––––––––––––––––––––––––––––––––––-
1 | 0:00.00 | 6:58.43 | 0 | 31392
2 | 6:58.43 | 6:43.23 | 31393 | 61640
3 | 13:41.66 | 7:10.04 | 61641 | 93894
4 | 20:51.70 | 7:16.41 | 93895 | 126635
5 | 28:08.36 | 6:05.61 | 126636 | 154071
6 | 34:14.22 | 4:42.69 | 154072 | 175290
7 | 38:57.16 | 6:14.26 | 175291 | 203366
8 | 45:11.42 | 8:37.26 | 203367 | 242167
9 | 53:48.68 | 9:08.47 | 242168 | 283314
10 | 62:57.40 | 11:02.67 | 283315 | 333031


Трек 1

Имя файла F:\Autechre - 5 Beat Records releases\Confield - 2001 BRC34\01 VI Scose Poise.wav

Длина предзазора 0:00:02.00

Пиковый уровень 98.8 %
Качество трека 100.0 %
CRC теста 5233A5DA
CRC копии 5233A5DA
Точное извлечение (достоверность 4) [418ADAEF]
Копирование… OK

Трек 2

Имя файла F:\Autechre - 5 Beat Records releases\Confield - 2001 BRC34\02 Cfern.wav

Длина предзазора 0:00:01.13

Пиковый уровень 98.8 %
Качество трека 100.0 %
CRC теста 0B8FD6C6
CRC копии 0B8FD6C6
Точное извлечение (достоверность 4) [25634A4A]
Копирование… OK

Трек 3

Имя файла F:\Autechre - 5 Beat Records releases\Confield - 2001 BRC34\03 Pen Expers.wav

Длина предзазора 0:00:01.05

Пиковый уровень 96.6 %
Качество трека 100.0 %
CRC теста BB6B1318
CRC копии BB6B1318
Точное извлечение (достоверность 4) [D3F50900]
Копирование… OK

Трек 4

Имя файла F:\Autechre - 5 Beat Records releases\Confield - 2001 BRC34\04 Sim Gishel.wav

Пиковый уровень 98.8 %
Качество трека 100.0 %
CRC теста F87BACB9
CRC копии F87BACB9
Точное извлечение (достоверность 4) [D04AC651]
Копирование… OK

Трек 5

Имя файла F:\Autechre - 5 Beat Records releases\Confield - 2001 BRC34\05 Parhelic Triangle.wav

Длина предзазора 0:00:01.15

Пиковый уровень 98.8 %
Качество трека 100.0 %
CRC теста DDE22FDC
CRC копии DDE22FDC
Точное извлечение (достоверность 4) [95C70F06]
Копирование… OK

Трек 6

Имя файла F:\Autechre - 5 Beat Records releases\Confield - 2001 BRC34\06 Bine.wav

Пиковый уровень 98.8 %
Качество трека 100.0 %
CRC теста 3E345E49
CRC копии 3E345E49
Точное извлечение (достоверность 4) [B16690F5]
Копирование… OK

Трек 7

Имя файла F:\Autechre - 5 Beat Records releases\Confield - 2001 BRC34\07 Eidetic Casein.wav

Длина предзазора 0:00:01.14

Пиковый уровень 99.9 %
Качество трека 100.0 %
CRC теста 4DFDF0E1
CRC копии 4DFDF0E1
Точное извлечение (достоверность 4) [A330B583]
Копирование… OK

Трек 8

Имя файла F:\Autechre - 5 Beat Records releases\Confield - 2001 BRC34\08 Uviol.wav

Пиковый уровень 99.9 %
Качество трека 100.0 %
CRC теста 61D33E2B
CRC копии 61D33E2B
Точное извлечение (достоверность 4) [ADAE765D]
Копирование… OK

Трек 9

Имя файла F:\Autechre - 5 Beat Records releases\Confield - 2001 BRC34\09 Lentic Catachresis.wav

Пиковый уровень 99.9 %
Качество трека 100.0 %
CRC теста D18D3847
CRC копии D18D3847
Точное извлечение (достоверность 4) [48EF226F]
Копирование… OK

Трек 10

Имя файла F:\Autechre - 5 Beat Records releases\Confield - 2001 BRC34\10 MCR Quarter x Bonus track for Japan.wav

Длина предзазора 0:00:38.30

Пиковый уровень 73.0 %
Качество трека 100.0 %
CRC теста 51A30108
CRC копии 51A30108
Точное извлечение (достоверность 4) [3D07D24A]
Копирование… OK


Все треки извлечены точно

Ошибок не произошло

Конец отчёта

foobar2000 1.2 / Dynamic Range Meter 1.1.1
log date: 2013-07-11 23:12:29

––––––––––––––––––––––––––––––––––––––––
Analyzed: Autechre / Confield
––––––––––––––––––––––––––––––––––––––––

DR Peak RMS Duration Track
––––––––––––––––––––––––––––––––––––––––
DR12 -0.10 dB -17.25 dB 6:59 01-VI Scose Poise
DR9 -0.10 dB -10.85 dB 6:43 02-Cfern
DR9 -0.30 dB -10.74 dB 7:10 03-Pen Expers
DR8 -0.10 dB -10.91 dB 7:17 04-Sim Gishel
DR9 -0.10 dB -11.13 dB 6:06 05-Parhelic Triangle
DR8 -0.10 dB -9.76 dB 4:43 06-Bine
DR9 0.00 dB -11.12 dB 6:14 07-Eidetic Casein
DR9 0.00 dB -10.73 dB 8:37 08-Uviol
DR10 0.00 dB -11.53 dB 9:09 09-Lentic Catachresis
DR3 -2.72 dB -6.59 dB 11:03 10-MCR Quarter * Bonus track for Japan
––––––––––––––––––––––––––––––––––––––––

Number of tracks: 10
Official DR value: DR9

Samplerate: 44100 Hz
Channels: 2
Bits per sample: 16
Bitrate: 1050 kbps
Codec: FLAC
================================================================================




Autechre - Albums Collection 2001-2013 (8CD) Japanese Releases [Re-Up]

Autechre - Draft 7.30 (2003)
EAC | FLAC | Tracks (Cue&Log) ~ 350 Mb | Mp3 (CBR320) ~ 158 Mb | Scans included
Label: Beat Records | # BRC-67 | Time: 01:02:51

After an LP and several EPs of baffling, beat-damaged digital concrete, Autechre was definitely due for a change. Rob Brown and Sean Booth have never turned in a substandard production, but 2001's cold, dispirited Confield merely flaunted their programming prowess instead of offering music that listeners could enjoy. Something less than a radical reinvention, Draft 7.30 does return the duo to the more inviting climes of past masterpieces like Tri Repetae (if not Basscadet). The record is immediately more compelling than Confield, with less focus on their trademarked random-beat-making software. A few melodies, suitably obtuse and wispy, creep in as well. "V-Proc" is an excellent production, somehow spacious and claustrophobic at the same time, with stuttered percussion and a hip-hop beat pounding away in the background. "61e.CR" and "P.:Ntil" also have glimpses of a repetitive beat, even if the usual recycle bin of percussion noise nearly overwhelms them near the end. The 12-minute "Surripere" is an epic of deliciously chilly atmospheres, though the usual Autechre beat madness could've used a timeout. Most importantly, though, the duo has pulled away from the brink; no one ever doubted that Autechre was at the extreme of experimental techno for its own sake, but given a record like Draft 7.30, listeners might actually return for multiple listens.

Review by John Bush, Allmusic.com

Tracklist:

01. Xylin Room (06:09)
02. IV VV IV VV VIII (04:50)
03. 61e.CR (05:38)
04. Tapr (03:14)
05. Surripere (11:23)
06. Theme of Sudden Roundabout (04:51)
07. VL Al 5 (04:56)
08. P.:Ntil (07:07)
09. V-Proc (06:00)
10. Reniform Puls (08:38)


Exact Audio Copy V0.99 prebeta 5 from 4. May 2009

Отчёт EAC об извлечении, выполненном 2. апреля 2010, 19:12

Autechre / Draft 7.30 BRC-67

Дисковод: PLEXTOR CD-R PREMIUM2 Adapter: 0 ID: 0

Режим чтения : Достоверность
Использование точного потока : Да
Отключение кэша аудио : Да
Использование указателей C2 : Нет

Коррекция смещения при чтении : 30
Способность читать области Lead-in и Lead-out : Да
Заполнение пропущенных сэмплов тишиной : Да
Удаление блоков с тишиной в начале и конце : Нет
При вычислениях CRC использовались нулевые сэмплы : Да
Интерфейс : Встроенный Win32-интерфейс для Win NT/2000
Обработка зазоров : Добавлено к предыдущему треку

Выходной формат : Внутренние WAV-операции
Формат сэмплов : 44.100 Гц; 16 бит; стерео


TOC извлечённого CD

Трек | Старт | Длительность | Начальный сектор | Конечный сектор
––––––––––––––––––––––––––––––––––-
1 | 0:00.00 | 6:09.15 | 0 | 27689
2 | 6:09.15 | 4:50.57 | 27690 | 49496
3 | 10:59.72 | 5:38.38 | 49497 | 74884
4 | 16:38.35 | 3:14.66 | 74885 | 89500
5 | 19:53.26 | 11:23.23 | 89501 | 140748
6 | 31:16.49 | 4:51.60 | 140749 | 162633
7 | 36:08.34 | 4:56.44 | 162634 | 184877
8 | 41:05.03 | 7:07.46 | 184878 | 216948
9 | 48:12.49 | 6:00.00 | 216949 | 243948
10 | 54:12.49 | 8:38.69 | 243949 | 282867


Трек 1

Имя файла F:\Autechre - 5 Beat Records releases\Draft 7.30 - 2003 BRC-67\01 Xylin Room.wav

Длина предзазора 0:00:02.00

Пиковый уровень 100.0 %
Качество трека 100.0 %
CRC теста E59C852B
CRC копии E59C852B
Трек не обнаружен в базе AccurateRip
Копирование… OK

Трек 2

Имя файла F:\Autechre - 5 Beat Records releases\Draft 7.30 - 2003 BRC-67\02 IV VV IV VV VIII.wav

Пиковый уровень 99.0 %
Качество трека 100.0 %
CRC теста 8C9ABA04
CRC копии 8C9ABA04
Точность не определена (достоверность 55) [7F67A272], AccurateRip вернул [26083389]
Копирование… OK

Трек 3

Имя файла F:\Autechre - 5 Beat Records releases\Draft 7.30 - 2003 BRC-67\03 61e.CR.wav

Пиковый уровень 100.0 %
Качество трека 100.0 %
CRC теста 33D73F7E
CRC копии 33D73F7E
Точность не определена (достоверность 51) [6D5E47B2], AccurateRip вернул [85F99080]
Копирование… OK

Трек 4

Имя файла F:\Autechre - 5 Beat Records releases\Draft 7.30 - 2003 BRC-67\04 Tapr.wav

Пиковый уровень 99.2 %
Качество трека 100.0 %
CRC теста 77D966F6
CRC копии 77D966F6
Точность не определена (достоверность 57) [7F9D4C6D], AccurateRip вернул [C45FA00F]
Копирование… OK

Трек 5

Имя файла F:\Autechre - 5 Beat Records releases\Draft 7.30 - 2003 BRC-67\05 Surripere.wav

Пиковый уровень 99.7 %
Качество трека 100.0 %
CRC теста F704E9EB
CRC копии F704E9EB
Точность не определена (достоверность 57) [4F0C16B3], AccurateRip вернул [CC72D8E4]
Копирование… OK

Трек 6

Имя файла F:\Autechre - 5 Beat Records releases\Draft 7.30 - 2003 BRC-67\06 Theme of Sudden Roundabout.wav

Пиковый уровень 99.5 %
Качество трека 100.0 %
CRC теста 1F70B6C3
CRC копии 1F70B6C3
Точность не определена (достоверность 56) [F1904608], AccurateRip вернул [006EAF97]
Копирование… OK

Трек 7

Имя файла F:\Autechre - 5 Beat Records releases\Draft 7.30 - 2003 BRC-67\07 VL Al 5.wav

Пиковый уровень 99.9 %
Качество трека 100.0 %
CRC теста FA6FDF37
CRC копии FA6FDF37
Точность не определена (достоверность 55) [1A65FF95], AccurateRip вернул [5C6CD47C]
Копирование… OK

Трек 8

Имя файла F:\Autechre - 5 Beat Records releases\Draft 7.30 - 2003 BRC-67\08 P.-Ntil.wav

Пиковый уровень 99.8 %
Качество трека 100.0 %
CRC теста 40BBE139
CRC копии 40BBE139
Точность не определена (достоверность 57) [712C6E5A], AccurateRip вернул [A7F6686F]
Копирование… OK

Трек 9

Имя файла F:\Autechre - 5 Beat Records releases\Draft 7.30 - 2003 BRC-67\09 V-Proc.wav

Пиковый уровень 99.5 %
Качество трека 100.0 %
CRC теста DFEFDAD9
CRC копии DFEFDAD9
Точность не определена (достоверность 57) [A3135EED], AccurateRip вернул [CE97D507]
Копирование… OK

Трек 10

Имя файла F:\Autechre - 5 Beat Records releases\Draft 7.30 - 2003 BRC-67\10 Reniform Puls.wav

Пиковый уровень 99.9 %
Качество трека 100.0 %
CRC теста 828543EB
CRC копии 828543EB
Точность не определена (достоверность 50) [3D4A7398], AccurateRip вернул [B8AE8764]
Копирование… OK


9 трек(и) не удалось проверить на точность
1 трек(и) не содержатся в базе AccurateRip

Ни один трек не прошёл проверки на точность
В вашей базе может быть иной вариант штамповки диска

Ошибок не произошло

Конец отчёта

foobar2000 1.2 / Dynamic Range Meter 1.1.1
log date: 2013-07-11 23:12:51

––––––––––––––––––––––––––––––––––––––––
Analyzed: Autechre / Draft 7.30 BRC-67
––––––––––––––––––––––––––––––––––––––––

DR Peak RMS Duration Track
––––––––––––––––––––––––––––––––––––––––
DR9 0.00 dB -11.30 dB 6:09 01-Xylin Room
DR8 -0.09 dB -10.60 dB 4:51 02-IV VV IV VV VIII
DR11 0.00 dB -13.31 dB 5:39 03-61e.CR
DR11 -0.06 dB -12.83 dB 3:15 04-Tapr
DR6 -0.02 dB -8.24 dB 11:23 05-Surripere
DR9 -0.04 dB -10.66 dB 4:52 06-Theme of Sudden Roundabout
DR10 -0.01 dB -11.20 dB 4:57 07-VL Al 5
DR11 -0.01 dB -12.54 dB 7:08 08-P.:Ntil
DR9 -0.04 dB -9.77 dB 6:00 09-V-Proc
DR10 -0.01 dB -12.34 dB 8:39 10-Reniform Puls
––––––––––––––––––––––––––––––––––––––––

Number of tracks: 10
Official DR value: DR9

Samplerate: 44100 Hz
Channels: 2
Bits per sample: 16
Bitrate: 645 kbps
Codec: FLAC
================================================================================




Autechre - Albums Collection 2001-2013 (8CD) Japanese Releases [Re-Up]

Autechre - Untilted (2005)
EAC | FLAC | Tracks (Cue&Log) ~ 340 Mb | Mp3 (CBR320) ~ 172 Mb | Scans included
Label: Beat Records | # BRC-122 | Time: 01:11:51

During the '90s, before Autechre's Sean Booth and Rob Brown became fully enamored of their audio software, they were masters of electronic composition. They built tracks that were epic and slowly unfolding ("Bike") or jarring and tight ("Eutow"), but always original and usually surprisingly infectious. After pursuing their theories of digital noise down a rabbit hole for several years, they returned to what had made their name with an uncharacteristically bright record in 2003 (Draft 7.30) and a continuation of that sound with 2005's Untilted. Booth and Brown work more with discernible drum samples here, compared to their prior focus on metalloid beats, and they have also rediscovered the value of pausing slightly before the digital merry-go-round begins another circuit. The duo haven't lost their refusal to compromise; the kinetic opener "LCC" is halted abruptly just as it gains steam – around the 7:20 mark. Overall, it's clear they're simply spending more time with the construction of their tracks than the processing of their beats. Close to 15 years after their formation, Autechre certainly aren't launching any new styles, and there's no innovative music to be heard here, but Untilted does represent the duo returning to the green fields of their youth after a few years sowing their wild oats.

Review by John Bush, Allmusic.com

Tracklist:

01. LCC (07:46)
02. Ipacial Section (09:57)
03. Pro Radii (08:41)
04. Augmatic Disport (09:27)
05. Iera (04:54)
06. Fermium (05:44)
07. The Trees (07:26)
08. Sublimit (16:00)
09. Zurich 2001 * Bonus track for japan (01:51)


Exact Audio Copy V0.99 prebeta 5 from 4. May 2009

Отчёт EAC об извлечении, выполненном 1. апреля 2010, 23:18

Autechre / Untilted BRC-122

Дисковод: PLEXTOR CD-R PREMIUM2 Adapter: 0 ID: 0

Режим чтения : Достоверность
Использование точного потока : Да
Отключение кэша аудио : Да
Использование указателей C2 : Нет

Коррекция смещения при чтении : 30
Способность читать области Lead-in и Lead-out : Да
Заполнение пропущенных сэмплов тишиной : Да
Удаление блоков с тишиной в начале и конце : Нет
При вычислениях CRC использовались нулевые сэмплы : Да
Интерфейс : Встроенный Win32-интерфейс для Win NT/2000
Обработка зазоров : Добавлено к предыдущему треку

Выходной формат : Внутренние WAV-операции
Формат сэмплов : 44.100 Гц; 16 бит; стерео


TOC извлечённого CD

Трек | Старт | Длительность | Начальный сектор | Конечный сектор
––––––––––––––––––––––––––––––––––-
1 | 0:00.00 | 7:46.15 | 0 | 34964
2 | 7:46.15 | 9:57.18 | 34965 | 79757
3 | 17:43.33 | 8:41.44 | 79758 | 118876
4 | 26:25.02 | 9:27.72 | 118877 | 161473
5 | 35:52.74 | 4:54.69 | 161474 | 183592
6 | 40:47.68 | 5:44.29 | 183593 | 209421
7 | 46:32.22 | 7:26.19 | 209422 | 242890
8 | 53:58.41 | 16:00.54 | 242891 | 314944
9 | 69:59.20 | 1:51.64 | 314945 | 323333


Трек 1

Имя файла F:\Autechre - 5 Beat Records releases\Untilted - 2005 BRC-122\01 LCC.wav

Длина предзазора 0:00:02.00

Пиковый уровень 100.0 %
Качество трека 100.0 %
CRC теста A9E294EB
CRC копии A9E294EB
Трек не обнаружен в базе AccurateRip
Копирование… OK

Трек 2

Имя файла F:\Autechre - 5 Beat Records releases\Untilted - 2005 BRC-122\02 Ipacial Section.wav

Пиковый уровень 100.0 %
Качество трека 100.0 %
CRC теста 8169DEC9
CRC копии 8169DEC9
Трек не обнаружен в базе AccurateRip
Копирование… OK

Трек 3

Имя файла F:\Autechre - 5 Beat Records releases\Untilted - 2005 BRC-122\03 Pro Radii.wav

Пиковый уровень 100.0 %
Качество трека 100.0 %
CRC теста A3BB3051
CRC копии A3BB3051
Трек не обнаружен в базе AccurateRip
Копирование… OK

Трек 4

Имя файла F:\Autechre - 5 Beat Records releases\Untilted - 2005 BRC-122\04 Augmatic Disport.wav

Пиковый уровень 99.9 %
Качество трека 100.0 %
CRC теста E6CD8B02
CRC копии E6CD8B02
Трек не обнаружен в базе AccurateRip
Копирование… OK

Трек 5

Имя файла F:\Autechre - 5 Beat Records releases\Untilted - 2005 BRC-122\05 Iera.wav

Пиковый уровень 100.0 %
Качество трека 100.0 %
CRC теста E1FE757C
CRC копии E1FE757C
Трек не обнаружен в базе AccurateRip
Копирование… OK

Трек 6

Имя файла F:\Autechre - 5 Beat Records releases\Untilted - 2005 BRC-122\06 Fermium.wav

Пиковый уровень 100.0 %
Качество трека 100.0 %
CRC теста 376E02D5
CRC копии 376E02D5
Трек не обнаружен в базе AccurateRip
Копирование… OK

Трек 7

Имя файла F:\Autechre - 5 Beat Records releases\Untilted - 2005 BRC-122\07 The Trees.wav

Пиковый уровень 100.0 %
Качество трека 100.0 %
CRC теста D7384BC5
CRC копии D7384BC5
Трек не обнаружен в базе AccurateRip
Копирование… OK

Трек 8

Имя файла F:\Autechre - 5 Beat Records releases\Untilted - 2005 BRC-122\08 Sublimit.wav

Пиковый уровень 100.0 %
Качество трека 100.0 %
CRC теста 89FEB0BA
CRC копии 89FEB0BA
Трек не обнаружен в базе AccurateRip
Копирование… OK

Трек 9

Имя файла F:\Autechre - 5 Beat Records releases\Untilted - 2005 BRC-122\09 Zurich 2001 x Bonus track for japan.wav

Длина предзазора 0:00:10.39

Пиковый уровень 85.6 %
Качество трека 100.0 %
CRC теста BFB18B09
CRC копии BFB18B09
Трек не обнаружен в базе AccurateRip
Копирование… OK


Ни одного трека нет в базе AccurateRip

Ошибок не произошло

Конец отчёта

foobar2000 1.2 / Dynamic Range Meter 1.1.1
log date: 2013-07-11 23:14:37

––––––––––––––––––––––––––––––––––––––––
Analyzed: Autechre / Untilted BRC-122
––––––––––––––––––––––––––––––––––––––––

DR Peak RMS Duration Track
––––––––––––––––––––––––––––––––––––––––
DR12 0.00 dB -13.67 dB 7:46 01-LCC
DR9 0.00 dB -11.40 dB 9:57 02-Ipacial Section
DR8 0.00 dB -11.03 dB 8:42 03-Pro Radii
DR11 0.00 dB -13.34 dB 9:28 04-Augmatic Disport
DR13 0.00 dB -14.88 dB 4:55 05-Iera
DR18 0.00 dB -19.40 dB 5:44 06-Fermium
DR14 0.00 dB -16.89 dB 7:26 07-The Trees
DR12 0.00 dB -14.83 dB 16:01 08-Sublimit
DR7 -1.35 dB -10.70 dB 1:52 09-Zurich 2001 * Bonus track for japan
––––––––––––––––––––––––––––––––––––––––

Number of tracks: 9
Official DR value: DR12

Samplerate: 44100 Hz
Channels: 2
Bits per sample: 16
Bitrate: 867 kbps
Codec: FLAC
================================================================================




Autechre - Albums Collection 2001-2013 (8CD) Japanese Releases [Re-Up]

Autechre - Quaristice (2008)
EAC | FLAC | Tracks (Cue&Log) ~ 376 Mb | Mp3 (CBR320) ~ 184 Mb | Scans included
Label: Beat Records | # BRC-333 | Time: 01:17:12

"Unified" and "cohesive" would not be two of the first couple hundred words used to describe Quaristice, the first Autechre album since 2005's Untilted. The only aspect that prevents Quaristice from seeming open-ended, as a bunch of tracks splayed arbitrarily across a disc, is that it begins and ends with ambient (as in entirely beat-less) pieces; an arc might gradually become apparent, but that would only be the result of increased familiarity with the sequence of tracks. It's disparate, to say the very least, but that is not at the listener's expense. Just by glancing at the length of the track list, it's apparent the album is not standard-operating Autechre; at 73 minutes in length, most of the 20 tracks are more like vignettes, yet the ideas arrive fully formed, never appearing to be dashed off or loosely sketched. The variety of ideas is nearly imposing, the best of which include the deadened chiming and clanging of "Simmm," the stealth jitter of "Tankakern," the Drexciya-worthy pitch-black neo-electro of "Rale," and the handful of stunning and duly swarthy ambient tracks – especially the closing 12 minutes shared by the chilling "Notwo" and "Outh9x" tandem. A couple moments, unsurprisingly, border on the inscrutable, with "Fol3" sounding like a collage of car collisions and slammed doors smeared and backmasked for nearly four minutes, and "bnc Cstl" more like a hyper-speed gag of sound effects, its high hats and snares tucked deeply into the mix. While it can take some time to get a handle on its generous stream of components, Quaristice is far from just another Autechre album. Not since LP5 has being impressed been so obviously secondary to enjoyment.

Review by Andy Kellman, Allmusic.com

Tracklist:

01. Altibzz (02:52)
02. The Plc (04:16)
03. IO (03:08)
04. Plyphon (02:33)
05. Perlence (03:25)
06. SonDEremawe (01:21)
07. Simmm (05:00)
08. Paralel Suns (03:03)
09. Steels (02:56)
10. Tankakern (03:39)
11. rale (03:42)
12. Fol3 (03:47)
13. fwzE (02:38)
14. 90101-5l-l (03:11)
15. bnc Castl (02:51)
16. Theswere (02:12)
17. WNSN (04:56)
18. Chenc9 (04:57)
19. Notwo (05:34)
20. Outh9X (07:12)
21. nu-Nr6d *Bonus Track For Japan (03:51)


Exact Audio Copy V0.99 prebeta 5 from 4. May 2009

Отчёт EAC об извлечении, выполненном 2. апреля 2010, 0:48

Autechre / Quaristice BCR-333

Дисковод: PLEXTOR CD-R PREMIUM2 Adapter: 0 ID: 0

Режим чтения : Достоверность
Использование точного потока : Да
Отключение кэша аудио : Да
Использование указателей C2 : Нет

Коррекция смещения при чтении : 30
Способность читать области Lead-in и Lead-out : Да
Заполнение пропущенных сэмплов тишиной : Да
Удаление блоков с тишиной в начале и конце : Нет
При вычислениях CRC использовались нулевые сэмплы : Да
Интерфейс : Встроенный Win32-интерфейс для Win NT/2000
Обработка зазоров : Добавлено к предыдущему треку

Выходной формат : Внутренние WAV-операции
Формат сэмплов : 44.100 Гц; 16 бит; стерео


TOC извлечённого CD

Трек | Старт | Длительность | Начальный сектор | Конечный сектор
––––––––––––––––––––––––––––––––––-
1 | 0:00.00 | 2:52.36 | 0 | 12935
2 | 2:52.36 | 4:16.53 | 12936 | 32188
3 | 7:09.14 | 3:08.26 | 32189 | 46314
4 | 10:17.40 | 2:33.13 | 46315 | 57802
5 | 12:50.53 | 3:25.31 | 57803 | 73208
6 | 16:16.09 | 1:21.00 | 73209 | 79283
7 | 17:37.09 | 5:00.01 | 79284 | 101784
8 | 22:37.10 | 3:03.36 | 101785 | 115545
9 | 25:40.46 | 2:56.17 | 115546 | 128762
10 | 28:36.63 | 3:39.36 | 128763 | 145223
11 | 32:16.24 | 3:42.40 | 145224 | 161913
12 | 35:58.64 | 3:47.09 | 161914 | 178947
13 | 39:45.73 | 2:38.52 | 178948 | 190849
14 | 42:24.50 | 3:11.06 | 190850 | 205180
15 | 45:35.56 | 2:51.73 | 205181 | 218078
16 | 48:27.54 | 2:12.19 | 218079 | 227997
17 | 50:39.73 | 4:56.55 | 227998 | 250252
18 | 55:36.53 | 4:57.30 | 250253 | 272557
19 | 60:34.08 | 5:34.12 | 272558 | 297619
20 | 66:08.20 | 7:12.42 | 297620 | 330061
21 | 73:20.62 | 3:51.21 | 330062 | 347407


Трек 1

Имя файла F:\Autechre - 5 Beat Records releases\Quaristice - 2008 BRC-333\01 Altibzz.wav

Длина предзазора 0:00:02.00

Пиковый уровень 98.8 %
Качество трека 100.0 %
CRC теста 76863587
CRC копии 76863587
Точное извлечение (достоверность 3) [DE9AD837]
Копирование… OK

Трек 2

Имя файла F:\Autechre - 5 Beat Records releases\Quaristice - 2008 BRC-333\02 The Plc.wav

Пиковый уровень 98.8 %
Качество трека 100.0 %
CRC теста 59839ECC
CRC копии 59839ECC
Точное извлечение (достоверность 3) [A65798D3]
Копирование… OK

Трек 3

Имя файла F:\Autechre - 5 Beat Records releases\Quaristice - 2008 BRC-333\03 IO.wav

Пиковый уровень 98.8 %
Качество трека 100.0 %
CRC теста C6AAC104
CRC копии C6AAC104
Точное извлечение (достоверность 3) [5182F892]
Копирование… OK

Трек 4

Имя файла F:\Autechre - 5 Beat Records releases\Quaristice - 2008 BRC-333\04 Plyphon.wav

Пиковый уровень 98.8 %
Качество трека 100.0 %
CRC теста 85DCDC15
CRC копии 85DCDC15
Точное извлечение (достоверность 3) [19BC2104]
Копирование… OK

Трек 5

Имя файла F:\Autechre - 5 Beat Records releases\Quaristice - 2008 BRC-333\05 Perlence.wav

Пиковый уровень 98.8 %
Качество трека 100.0 %
CRC теста 4A9C24DC
CRC копии 4A9C24DC
Точное извлечение (достоверность 3) [6996AC64]
Копирование… OK

Трек 6

Имя файла F:\Autechre - 5 Beat Records releases\Quaristice - 2008 BRC-333\06 SonDEremawe.wav

Пиковый уровень 79.3 %
Качество трека 100.0 %
CRC теста EC0E1677
CRC копии EC0E1677
Точное извлечение (достоверность 3) [03E74176]
Копирование… OK

Трек 7

Имя файла F:\Autechre - 5 Beat Records releases\Quaristice - 2008 BRC-333\07 Simmm.wav

Пиковый уровень 98.8 %
Качество трека 100.0 %
CRC теста 223D85D7
CRC копии 223D85D7
Точное извлечение (достоверность 3) [AB87D62A]
Копирование… OK

Трек 8

Имя файла F:\Autechre - 5 Beat Records releases\Quaristice - 2008 BRC-333\08 Paralel Suns.wav

Пиковый уровень 98.8 %
Качество трека 100.0 %
CRC теста 57A4C6EE
CRC копии 57A4C6EE
Точное извлечение (достоверность 3) [5958BE66]
Копирование… OK

Трек 9

Имя файла F:\Autechre - 5 Beat Records releases\Quaristice - 2008 BRC-333\09 Steels.wav

Пиковый уровень 98.8 %
Качество трека 100.0 %
CRC теста EC4E81FA
CRC копии EC4E81FA
Точное извлечение (достоверность 3) [D2CC67B7]
Копирование… OK

Трек 10

Имя файла F:\Autechre - 5 Beat Records releases\Quaristice - 2008 BRC-333\10 Tankakern.wav

Пиковый уровень 98.8 %
Качество трека 100.0 %
CRC теста 860C570D
CRC копии 860C570D
Точное извлечение (достоверность 3) [76FC70A6]
Копирование… OK

Трек 11

Имя файла F:\Autechre - 5 Beat Records releases\Quaristice - 2008 BRC-333\11 rale.wav

Пиковый уровень 98.8 %
Качество трека 100.0 %
CRC теста 50421852
CRC копии 50421852
Точное извлечение (достоверность 3) [DAB3DAE4]
Копирование… OK

Трек 12

Имя файла F:\Autechre - 5 Beat Records releases\Quaristice - 2008 BRC-333\12 Fol3.wav

Пиковый уровень 98.8 %
Качество трека 100.0 %
CRC теста 26971433
CRC копии 26971433
Точное извлечение (достоверность 3) [FDAD3B47]
Копирование… OK

Трек 13

Имя файла F:\Autechre - 5 Beat Records releases\Quaristice - 2008 BRC-333\13 fwzE.wav

Пиковый уровень 98.8 %
Качество трека 100.0 %
CRC теста 15CB7519
CRC копии 15CB7519
Точное извлечение (достоверность 3) [3DA95138]
Копирование… OK

Трек 14

Имя файла F:\Autechre - 5 Beat Records releases\Quaristice - 2008 BRC-333\14 90101-5l-l.wav

Пиковый уровень 98.8 %
Качество трека 100.0 %
CRC теста 6F275417
CRC копии 6F275417
Точное извлечение (достоверность 3) [70F87A12]
Копирование… OK

Трек 15

Имя файла F:\Autechre - 5 Beat Records releases\Quaristice - 2008 BRC-333\15 bnc Castl.wav

Пиковый уровень 98.8 %
Качество трека 100.0 %
CRC теста E142B2F9
CRC копии E142B2F9
Точное извлечение (достоверность 3) [3A3A3656]
Копирование… OK

Трек 16

Имя файла F:\Autechre - 5 Beat Records releases\Quaristice - 2008 BRC-333\16 Theswere.wav

Пиковый уровень 98.8 %
Качество трека 100.0 %
CRC теста 616E926D
CRC копии 616E926D
Точное извлечение (достоверность 3) [BFAE33B8]
Копирование… OK

Трек 17

Имя файла F:\Autechre - 5 Beat Records releases\Quaristice - 2008 BRC-333\17 WNSN.wav

Пиковый уровень 98.8 %
Качество трека 100.0 %
CRC теста 6938B23B
CRC копии 6938B23B
Точное извлечение (достоверность 3) [64D130B2]
Копирование… OK

Трек 18

Имя файла F:\Autechre - 5 Beat Records releases\Quaristice - 2008 BRC-333\18 Chenc9.wav

Пиковый уровень 98.8 %
Качество трека 100.0 %
CRC теста E6C17FE1
CRC копии E6C17FE1
Точное извлечение (достоверность 3) [A62B419C]
Копирование… OK

Трек 19

Имя файла F:\Autechre - 5 Beat Records releases\Quaristice - 2008 BRC-333\19 Notwo.wav

Пиковый уровень 98.8 %
Качество трека 100.0 %
CRC теста 6BEC2A9E
CRC копии 6BEC2A9E
Точное извлечение (достоверность 3) [34B66BAE]
Копирование… OK

Трек 20

Имя файла F:\Autechre - 5 Beat Records releases\Quaristice - 2008 BRC-333\20 Outh9X.wav

Пиковый уровень 98.8 %
Качество трека 100.0 %
CRC теста CA1AF539
CRC копии CA1AF539
Точное извлечение (достоверность 3) [2E114057]
Копирование… OK

Трек 21

Имя файла F:\Autechre - 5 Beat Records releases\Quaristice - 2008 BRC-333\21 nu-Nr6d xBonus Track For Japan.wav

Пиковый уровень 99.5 %
Качество трека 100.0 %
CRC теста 5BD6FEE0
CRC копии 5BD6FEE0
Точное извлечение (достоверность 3) [63A3D397]
Копирование… OK


Все треки извлечены точно

Ошибок не произошло

Конец отчёта

foobar2000 1.2 / Dynamic Range Meter 1.1.1
log date: 2013-07-11 23:14:04

––––––––––––––––––––––––––––––––––––––––
Analyzed: Autechre / Quaristice BCR-333
––––––––––––––––––––––––––––––––––––––––

DR Peak RMS Duration Track
––––––––––––––––––––––––––––––––––––––––
DR10 -0.10 dB -12.90 dB 2:52 01-Altibzz
DR9 -0.10 dB -11.08 dB 4:17 02-The Plc
DR9 -0.10 dB -10.51 dB 3:08 03-IO
DR4 -0.10 dB -8.34 dB 2:33 04-Plyphon
DR8 -0.10 dB -10.23 dB 3:25 05-Perlence
DR7 -2.01 dB -14.73 dB 1:21 06-SonDEremawe
DR10 -0.10 dB -13.82 dB 5:00 07-Simmm
DR10 -0.10 dB -13.03 dB 3:03 08-Paralel Suns
DR9 -0.10 dB -11.12 dB 2:56 09-Steels
DR8 -0.10 dB -9.35 dB 3:39 10-Tankakern
DR8 -0.10 dB -9.83 dB 3:43 11-rale
DR12 -0.10 dB -14.41 dB 3:47 12-Fol3
DR11 -0.10 dB -12.41 dB 2:39 13-fwzE
DR6 -0.10 dB -8.35 dB 3:11 14-90101-5l-l
DR13 -0.10 dB -14.42 dB 2:52 15-bnc Castl
DR9 -0.10 dB -11.45 dB 2:12 16-Theswere
DR8 -0.10 dB -10.27 dB 4:57 17-WNSN
DR12 -0.10 dB -14.61 dB 4:57 18-Chenc9
DR10 -0.10 dB -13.29 dB 5:34 19-Notwo
DR14 -0.10 dB -17.95 dB 7:13 20-Outh9X
DR10 -0.04 dB -14.17 dB 3:51 21-nu-Nr6d *Bonus Track For Japan
––––––––––––––––––––––––––––––––––––––––

Number of tracks: 21
Official DR value: DR9

Samplerate: 44100 Hz
Channels: 2
Bits per sample: 16
Bitrate: 411 kbps
Codec: FLAC
================================================================================




Autechre - Albums Collection 2001-2013 (8CD) Japanese Releases [Re-Up]

Autechre - Move Of Ten (2010)
EAC | FLAC | Tracks (Cue&Log) ~ 282 Mb | Mp3 (CBR320) ~ 130 Mb | Scans included
Label: Beat Records | # BRE-31 | Time: 00:53:25

Autechre, seemingly disregarding fans' worries about quality control, issued the Move of Ten mini-LP just a few short months after the Oversteps LP, and virtually every track here could stand proudly on a full-length. If anything, the tracks on Move of Ten range farther than its companion LP, and with close to 50 minutes of music, it's nearly as impressive an achievement as Oversteps. With just a few exceptions, it's heavily percussive and effects-focused, although melodic undertones do emerge occasionally, as on the highlight, "nth Dafuseder.b."

Review by John Bush, Allmusic.com

Tracklist:

01. Etchogon-S (04:54)
02. y7 (05:08)
03. pce freeze 2.8i (05:12)
04. rew(1) (06:18)
05. nth Dafuseder.b (05:17)
06. iris was a pupil (03:40)
07. no border (03:30)
08. M62 (06:09)
09. ylm0 (03:29)
10. Cep puiqMX (04:09)
11. ClnChr (bonus track for Japan) (05:33)


Exact Audio Copy V0.99 prebeta 5 from 4. May 2009

Отчёт EAC об извлечении, выполненном 12. июля 2010, 19:42

Autechre / Move Of Ten (BRE-31)

Дисковод: PLEXTOR CD-R PREMIUM2 Adapter: 0 ID: 0

Режим чтения : Достоверность
Использование точного потока : Да
Отключение кэша аудио : Да
Использование указателей C2 : Нет

Коррекция смещения при чтении : 30
Способность читать области Lead-in и Lead-out : Да
Заполнение пропущенных сэмплов тишиной : Да
Удаление блоков с тишиной в начале и конце : Нет
При вычислениях CRC использовались нулевые сэмплы : Да
Интерфейс : Встроенный Win32-интерфейс для Win NT/2000
Обработка зазоров : Добавлено к предыдущему треку

Выходной формат : Внутренние WAV-операции
Формат сэмплов : 44.100 Гц; 16 бит; стерео


TOC извлечённого CD

Трек | Старт | Длительность | Начальный сектор | Конечный сектор
––––––––––––––––––––––––––––––––––-
1 | 0:00.00 | 4:54.50 | 0 | 22099
2 | 4:54.50 | 5:08.68 | 22100 | 45267
3 | 10:03.43 | 5:12.47 | 45268 | 68714
4 | 15:16.15 | 6:18.07 | 68715 | 97071
5 | 21:34.22 | 5:17.66 | 97072 | 120912
6 | 26:52.13 | 3:40.14 | 120913 | 137426
7 | 30:32.27 | 3:30.44 | 137427 | 153220
8 | 34:02.71 | 6:09.13 | 153221 | 180908
9 | 40:12.09 | 3:29.33 | 180909 | 196616
10 | 43:41.42 | 4:09.53 | 196617 | 215344
11 | 47:51.20 | 5:33.57 | 215345 | 240376


Трек 1

Имя файла F:\Autechre - Move Of Ten (BRE-31) - 2010\01. Etchogon-S.wav

Длина предзазора 0:00:02.00

Пиковый уровень 98.4 %
Качество трека 100.0 %
CRC теста FB7523CA
CRC копии FB7523CA
Трек не обнаружен в базе AccurateRip
Копирование… OK

Трек 2

Имя файла F:\Autechre - Move Of Ten (BRE-31) - 2010\02. y7.wav

Пиковый уровень 98.5 %
Качество трека 100.0 %
CRC теста EED6090C
CRC копии EED6090C
Трек не обнаружен в базе AccurateRip
Копирование… OK

Трек 3

Имя файла F:\Autechre - Move Of Ten (BRE-31) - 2010\03. pce freeze 2.8i.wav

Пиковый уровень 98.6 %
Качество трека 100.0 %
CRC теста 3575BC70
CRC копии 3575BC70
Трек не обнаружен в базе AccurateRip
Копирование… OK

Трек 4

Имя файла F:\Autechre - Move Of Ten (BRE-31) - 2010\04. rew(1).wav

Пиковый уровень 100.0 %
Качество трека 100.0 %
CRC теста 73A0AF90
CRC копии 73A0AF90
Трек не обнаружен в базе AccurateRip
Копирование… OK

Трек 5

Имя файла F:\Autechre - Move Of Ten (BRE-31) - 2010\05. nth Dafuseder.b.wav

Пиковый уровень 97.6 %
Качество трека 100.0 %
CRC теста 0D3D2A6B
CRC копии 0D3D2A6B
Трек не обнаружен в базе AccurateRip
Копирование… OK

Трек 6

Имя файла F:\Autechre - Move Of Ten (BRE-31) - 2010\06. iris was a pupil.wav

Пиковый уровень 97.9 %
Качество трека 100.0 %
CRC теста FF285279
CRC копии FF285279
Трек не обнаружен в базе AccurateRip
Копирование… OK

Трек 7

Имя файла F:\Autechre - Move Of Ten (BRE-31) - 2010\07. no border.wav

Пиковый уровень 98.4 %
Качество трека 100.0 %
CRC теста 3A1FCBAC
CRC копии 3A1FCBAC
Трек не обнаружен в базе AccurateRip
Копирование… OK

Трек 8

Имя файла F:\Autechre - Move Of Ten (BRE-31) - 2010\08. M62.wav

Пиковый уровень 98.4 %
Качество трека 100.0 %
CRC теста DA4C7FBF
CRC копии DA4C7FBF
Трек не обнаружен в базе AccurateRip
Копирование… OK

Трек 9

Имя файла F:\Autechre - Move Of Ten (BRE-31) - 2010\09. ylm0.wav

Пиковый уровень 97.7 %
Качество трека 100.0 %
CRC теста CBC3C259
CRC копии CBC3C259
Трек не обнаружен в базе AccurateRip
Копирование… OK

Трек 10

Имя файла F:\Autechre - Move Of Ten (BRE-31) - 2010\10. Cep puiqMX.wav

Пиковый уровень 98.4 %
Качество трека 100.0 %
CRC теста 6761D1B4
CRC копии 6761D1B4
Трек не обнаружен в базе AccurateRip
Копирование… OK

Трек 11

Имя файла F:\Autechre - Move Of Ten (BRE-31) - 2010\11. ClnChr (bonus track for Japan).wav

Пиковый уровень 98.4 %
Качество трека 100.0 %
CRC теста DC0C48C9
CRC копии DC0C48C9
Трек не обнаружен в базе AccurateRip
Копирование… OK


Ни одного трека нет в базе AccurateRip

Ошибок не произошло

Конец отчёта

foobar2000 1.2 / Dynamic Range Meter 1.1.1
log date: 2013-07-11 23:13:06

––––––––––––––––––––––––––––––––––––––––
Analyzed: Autechre / Move Of Ten (BRE-31)
––––––––––––––––––––––––––––––––––––––––

DR Peak RMS Duration Track
––––––––––––––––––––––––––––––––––––––––
DR8 -0.14 dB -9.96 dB 4:55 01-Etchogon-S
DR7 -0.13 dB -8.03 dB 5:09 02-y7
DR10 -0.12 dB -11.09 dB 5:13 03-pce freeze 2.8i
DR8 0.00 dB -9.60 dB 6:18 04-rew(1)
DR11 -0.21 dB -12.62 dB 5:18 05-nth Dafuseder.b
DR8 -0.18 dB -9.84 dB 3:40 06-iris was a pupil
DR9 -0.13 dB -9.87 dB 3:31 07-no border
DR9 -0.13 dB -10.13 dB 6:09 08-M62
DR9 -0.19 dB -10.72 dB 3:29 09-ylm0
DR6 -0.13 dB -8.22 dB 4:10 10-Cep puiqMX
DR8 -0.14 dB -8.95 dB 5:34 11-ClnChr (bonus track for Japan)
––––––––––––––––––––––––––––––––––––––––

Number of tracks: 11
Official DR value: DR8

Samplerate: 44100 Hz
Channels: 2
Bits per sample: 16
Bitrate: 768 kbps
Codec: FLAC
================================================================================




Autechre - Albums Collection 2001-2013 (8CD) Japanese Releases [Re-Up]

Autechre - Oversteps (2010)
EAC | FLAC | Tracks (Cue&Log) ~ 372 Mb | Mp3 (CBR320) ~ 183 Mb | Scans included
Label: Beat Records | # BRC-252 | Time: 01:15:03

Despite their prowess with programming, Sean Booth and Rob Brown have been critics' darlings since the birth of IDM because their music is interesting – not just innovative. Whether long ("Bike") or criminally short ("Eutow"), early Autechre tracks gained praise because they were brilliantly moody and memorably melodic. Oversteps, the duo's tenth full-length in 20 years, is more of the same (in a good way). Introducing the record is "R Ess," which reveals just a hint of the cavernous atmospherics highlighting the album. Make no mistake, the beats are coming, as is the dread synth (that sounds like The Terminator reborn), but it's all done in the context of music that is as engaging as it is experimental. Even on "Qplay," one of the most jarring tracks with its continual clash of beats and effects, Autechre find the beauty in technical rigor.

Review by John Bush, Allmusic.com

Tracklist:

01. r ess (05:12)
02. ilanders (05:32)
03. known(1) (04:42)
04. pt2ph8 (04:09)
05. qplay (04:38)
06. see on see (04:37)
07. Treale (06:05)
08. os veix3 (04:37)
09. O=0 (04:52)
10. d-sho qub (06:26)
11. st epreo (04:08)
12. redfall (03:48)
13. krYlon (06:08)
14. Yuop (07:00)
15. Xektses sql * bonus track for Japan (03:02)


Exact Audio Copy V0.99 prebeta 5 from 4. May 2009

Отчёт EAC об извлечении, выполненном 1. апреля 2010, 23:57

Autechre / Oversteps BRC-252

Дисковод: PLEXTOR CD-R PREMIUM2 Adapter: 0 ID: 0

Режим чтения : Достоверность
Использование точного потока : Да
Отключение кэша аудио : Да
Использование указателей C2 : Нет

Коррекция смещения при чтении : 30
Способность читать области Lead-in и Lead-out : Да
Заполнение пропущенных сэмплов тишиной : Да
Удаление блоков с тишиной в начале и конце : Нет
При вычислениях CRC использовались нулевые сэмплы : Да
Интерфейс : Встроенный Win32-интерфейс для Win NT/2000
Обработка зазоров : Добавлено к предыдущему треку

Выходной формат : Внутренние WAV-операции
Формат сэмплов : 44.100 Гц; 16 бит; стерео


TOC извлечённого CD

Трек | Старт | Длительность | Начальный сектор | Конечный сектор
––––––––––––––––––––––––––––––––––-
1 | 0:00.00 | 5:12.38 | 0 | 23437
2 | 5:12.38 | 5:32.26 | 23438 | 48363
3 | 10:44.64 | 4:42.42 | 48364 | 69555
4 | 15:27.31 | 4:09.60 | 69556 | 88290
5 | 19:37.16 | 4:38.47 | 88291 | 109187
6 | 24:15.63 | 4:37.21 | 109188 | 129983
7 | 28:53.09 | 6:05.00 | 129984 | 157358
8 | 34:58.09 | 4:37.55 | 157359 | 178188
9 | 39:35.64 | 4:52.62 | 178189 | 200150
10 | 44:28.51 | 6:26.16 | 200151 | 229116
11 | 50:54.67 | 4:08.19 | 229117 | 247735
12 | 55:03.11 | 3:48.65 | 247736 | 264900
13 | 58:52.01 | 6:08.64 | 264901 | 292564
14 | 65:00.65 | 7:00.06 | 292565 | 324070
15 | 72:00.71 | 3:02.05 | 324071 | 337725


Трек 1

Имя файла F:\Autechre - 5 Beat Records releases\Oversteps - 2010 BRC-252\01 r ess.wav

Длина предзазора 0:00:02.00

Пиковый уровень 98.1 %
Качество трека 100.0 %
CRC теста 5E9756E2
CRC копии 5E9756E2
Трек не обнаружен в базе AccurateRip
Копирование… OK

Трек 2

Имя файла F:\Autechre - 5 Beat Records releases\Oversteps - 2010 BRC-252\02 ilanders.wav

Пиковый уровень 98.6 %
Качество трека 100.0 %
CRC теста 7A4556C8
CRC копии 7A4556C8
Трек не обнаружен в базе AccurateRip
Копирование… OK

Трек 3

Имя файла F:\Autechre - 5 Beat Records releases\Oversteps - 2010 BRC-252\03 known(1).wav

Пиковый уровень 97.3 %
Качество трека 100.0 %
CRC теста 3B72E138
CRC копии 3B72E138
Трек не обнаружен в базе AccurateRip
Копирование… OK

Трек 4

Имя файла F:\Autechre - 5 Beat Records releases\Oversteps - 2010 BRC-252\04 pt2ph8.wav

Пиковый уровень 98.0 %
Качество трека 100.0 %
CRC теста 56A665B1
CRC копии 56A665B1
Трек не обнаружен в базе AccurateRip
Копирование… OK

Трек 5

Имя файла F:\Autechre - 5 Beat Records releases\Oversteps - 2010 BRC-252\05 qplay.wav

Пиковый уровень 97.9 %
Качество трека 100.0 %
CRC теста 81CCCE33
CRC копии 81CCCE33
Трек не обнаружен в базе AccurateRip
Копирование… OK

Трек 6

Имя файла F:\Autechre - 5 Beat Records releases\Oversteps - 2010 BRC-252\06 see on see.wav

Пиковый уровень 96.3 %
Качество трека 100.0 %
CRC теста 6E616DC4
CRC копии 6E616DC4
Трек не обнаружен в базе AccurateRip
Копирование… OK

Трек 7

Имя файла F:\Autechre - 5 Beat Records releases\Oversteps - 2010 BRC-252\07 Treale.wav

Пиковый уровень 98.7 %
Качество трека 100.0 %
CRC теста D594B047
CRC копии D594B047
Трек не обнаружен в базе AccurateRip
Копирование… OK

Трек 8

Имя файла F:\Autechre - 5 Beat Records releases\Oversteps - 2010 BRC-252\08 os veix3.wav

Пиковый уровень 97.4 %
Качество трека 100.0 %
CRC теста C7BCFD62
CRC копии C7BCFD62
Трек не обнаружен в базе AccurateRip
Копирование… OK

Трек 9

Имя файла F:\Autechre - 5 Beat Records releases\Oversteps - 2010 BRC-252\09 O=0.wav

Пиковый уровень 97.1 %
Качество трека 100.0 %
CRC теста 5855BBC1
CRC копии 5855BBC1
Трек не обнаружен в базе AccurateRip
Копирование… OK

Трек 10

Имя файла F:\Autechre - 5 Beat Records releases\Oversteps - 2010 BRC-252\10 d-sho qub.wav

Пиковый уровень 98.6 %
Качество трека 100.0 %
CRC теста 693318AE
CRC копии 693318AE
Трек не обнаружен в базе AccurateRip
Копирование… OK

Трек 11

Имя файла F:\Autechre - 5 Beat Records releases\Oversteps - 2010 BRC-252\11 st epreo.wav

Пиковый уровень 98.4 %
Качество трека 100.0 %
CRC теста BE20E02D
CRC копии BE20E02D
Трек не обнаружен в базе AccurateRip
Копирование… OK

Трек 12

Имя файла F:\Autechre - 5 Beat Records releases\Oversteps - 2010 BRC-252\12 redfall.wav

Пиковый уровень 97.1 %
Качество трека 100.0 %
CRC теста 70002D33
CRC копии 70002D33
Трек не обнаружен в базе AccurateRip
Копирование… OK

Трек 13

Имя файла F:\Autechre - 5 Beat Records releases\Oversteps - 2010 BRC-252\13 krYlon.wav

Пиковый уровень 97.6 %
Качество трека 100.0 %
CRC теста BD7E1534
CRC копии BD7E1534
Трек не обнаружен в базе AccurateRip
Копирование… OK

Трек 14

Имя файла F:\Autechre - 5 Beat Records releases\Oversteps - 2010 BRC-252\14 Yuop.wav

Пиковый уровень 86.0 %
Качество трека 100.0 %
CRC теста 0D3D826F
CRC копии 0D3D826F
Трек не обнаружен в базе AccurateRip
Копирование… OK

Трек 15

Имя файла F:\Autechre - 5 Beat Records releases\Oversteps - 2010 BRC-252\15 Xektses sql x bonus track for Japan.wav

Длина предзазора 0:00:39.72

Пиковый уровень 86.3 %
Качество трека 100.0 %
CRC теста D524130B
CRC копии D524130B
Трек не обнаружен в базе AccurateRip
Копирование… OK


Ни одного трека нет в базе AccurateRip

Ошибок не произошло

Конец отчёта

foobar2000 1.2 / Dynamic Range Meter 1.1.1
log date: 2013-07-11 23:13:33

––––––––––––––––––––––––––––––––––––––––
Analyzed: Autechre / Oversteps BRC-252
––––––––––––––––––––––––––––––––––––––––

DR Peak RMS Duration Track
––––––––––––––––––––––––––––––––––––––––
DR7 -0.16 dB -10.40 dB 5:13 01-r ess
DR8 -0.12 dB -10.31 dB 5:32 02-ilanders
DR12 -0.23 dB -13.64 dB 4:43 03-known(1)
DR10 -0.17 dB -12.61 dB 4:10 04-pt2ph8
DR10 -0.18 dB -12.20 dB 4:39 05-qplay
DR10 -0.32 dB -13.49 dB 4:37 06-see on see
DR9 -0.11 dB -10.87 dB 6:05 07-Treale
DR14 -0.23 dB -15.83 dB 4:38 08-os veix3
DR9 -0.25 dB -11.52 dB 4:53 09-O=0
DR9 -0.12 dB -13.35 dB 6:26 10-d-sho qub
DR8 -0.14 dB -9.04 dB 4:08 11-st epreo
DR11 -0.25 dB -13.05 dB 3:49 12-redfall
DR8 -0.21 dB -10.61 dB 6:09 13-krYlon
DR11 -1.30 dB -16.96 dB 7:00 14-Yuop
DR13 -1.28 dB -19.33 dB 3:02 15-Xektses sql * bonus track for Japan
––––––––––––––––––––––––––––––––––––––––

Number of tracks: 15
Official DR value: DR10

Samplerate: 44100 Hz
Channels: 2
Bits per sample: 16
Bitrate: 364 kbps
Codec: FLAC
================================================================================




Autechre - Albums Collection 2001-2013 (8CD) Japanese Releases [Re-Up]

Autechre - Exai (2013) 2CDs
EAC | FLAC | Tracks (Cue&Log) ~ 721 Mb | Mp3 (CBR320) ~ 314 Mb | Scans included
Label: Beat Records | # BRC-365 | Time: 02:09:38

Active listening to the entirety of Exai (as in "eleven") is, of course, an endurance test, as it is 120 minutes in length and consists of 17 tracks that could be sequenced in any order with no change of effect. Processing the whole thing is less daunting than it seems on the surface. It begins with the hyper-speed scramble-clutter of "Fleure," but beneath that, there is a bounty of tracks that are riveting and accessible, if by Autechre's challenging and meticulously crafted standard. Several standouts, once fully absorbed, sound utterly unique. "Bladelores," one of three captivating tracks that lasts over ten minutes, has a probing skank to it with a nearly piercing acid line over a buried and blurred symphony. The energizing and abnormally uplifting "T ess xi," led by a direct synthesizer melody and crunching drums, could pass as a remix of something from West London's broken beat massive. "Recks On," somehow crisp and sludgy, is a peculiar hybrid of big beat and bass and is one of the heaviest pieces the duo has produced. The album could have been pared down a bit, yet it's a drop in a bucket for Booth and Brown. Prior to this, their discography clocked in at 18 hours or so. What's another two hours?

Review by Andy Kellman, Allmusic.com

Tracklist:

CD1:

01. FLeure (04:52)
02. irlite (get 0) (10:01)
03. prac-f (04:19)
04. jatevee C (04:14)
05. T ess xi (06:43)
06. vekoS (06:41)
07. Flep (06:42)
08. tuinorizn (03:40)
09. bladelores (12:21)

CD2:

01. 1 1 Is (07:18)
02. nodezsh (08:40)
03. runrepik (04:35)
04. spl9 (07:06)
05. cloudline (10:12)
06. deco Loc (05:27)
07. recks on (09:21)
08. YJY UX (08:23)
09. 18 (keyosc) (08:57)


Exact Audio Copy V1.0 beta 3 from 29. August 2011

Отчёт EAC об извлечении, выполненном 11. марта 2013, 11:11

Autechre / Exai - [BRC-365] CD 1

Дисковод: PLEXTOR CD-R PREMIUM2 Adapter: 3 ID: 0

Режим чтения : Достоверность
Использование точного потока : Да
Отключение кэша аудио : Да
Использование указателей C2 : Нет

Коррекция смещения при чтении : 30
Способность читать области Lead-in и Lead-out : Да
Заполнение пропущенных сэмплов тишиной : Да
Удаление блоков с тишиной в начале и конце : Нет
При вычислениях CRC использовались нулевые сэмплы : Да
Интерфейс : Встроенный Win32-интерфейс для Win NT/2000
Обработка зазоров : Добавлено к предыдущему треку

Выходной формат : Внутренние WAV-операции
Формат сэмплов : 44.100 Гц; 16 бит; стерео


TOC извлечённого CD

Трек | Старт | Длительность | Начальный сектор | Конечный сектор
––––––––––––––––––––––––––––––––––-
1 | 0:00.00 | 4:52.28 | 0 | 21927
2 | 4:52.28 | 10:01.11 | 21928 | 67013
3 | 14:53.39 | 4:19.62 | 67014 | 86500
4 | 19:13.26 | 4:14.10 | 86501 | 105560
5 | 23:27.36 | 6:43.29 | 105561 | 135814
6 | 30:10.65 | 6:41.65 | 135815 | 165954
7 | 36:52.55 | 6:42.38 | 165955 | 196142
8 | 43:35.18 | 3:40.20 | 196143 | 212662
9 | 47:15.38 | 12:21.37 | 212663 | 268274


Трек 1

Имя файла F:\Autechre - 7 Beat Records releases\Exai - 2013 (2 CDs) BRC-365\CD 1\01 FLeure.wav

Длина предзазора 0:00:02.00

Пиковый уровень 98.2 %
Скорость извлечения 5.5 X
Качество трека 100.0 %
CRC теста 3B556DB1
CRC копии 3B556DB1
Трек не обнаружен в базе AccurateRip
Копирование… OK

Трек 2

Имя файла F:\Autechre - 7 Beat Records releases\Exai - 2013 (2 CDs) BRC-365\CD 1\02 irlite (get 0).wav

Пиковый уровень 98.8 %
Скорость извлечения 6.1 X
Качество трека 100.0 %
CRC теста 52456362
CRC копии 52456362
Трек не обнаружен в базе AccurateRip
Копирование… OK

Трек 3

Имя файла F:\Autechre - 7 Beat Records releases\Exai - 2013 (2 CDs) BRC-365\CD 1\03 prac-f.wav

Пиковый уровень 98.5 %
Скорость извлечения 5.8 X
Качество трека 100.0 %
CRC теста 6B3E0CCF
CRC копии 6B3E0CCF
Трек не обнаружен в базе AccurateRip
Копирование… OK

Трек 4

Имя файла F:\Autechre - 7 Beat Records releases\Exai - 2013 (2 CDs) BRC-365\CD 1\04 jatevee C.wav

Пиковый уровень 99.1 %
Скорость извлечения 5.7 X
Качество трека 100.0 %
CRC теста F6D3D83B
CRC копии F6D3D83B
Трек не обнаружен в базе AccurateRip
Копирование… OK

Трек 5

Имя файла F:\Autechre - 7 Beat Records releases\Exai - 2013 (2 CDs) BRC-365\CD 1\05 T ess xi.wav

Пиковый уровень 99.0 %
Скорость извлечения 5.4 X
Качество трека 99.9 %
CRC теста 6712E1C2
CRC копии 6712E1C2
Трек не обнаружен в базе AccurateRip
Копирование… OK

Трек 6

Имя файла F:\Autechre - 7 Beat Records releases\Exai - 2013 (2 CDs) BRC-365\CD 1\06 vekoS.wav

Пиковый уровень 98.7 %
Скорость извлечения 6.1 X
Качество трека 100.0 %
CRC теста A4A365EB
CRC копии A4A365EB
Трек не обнаружен в базе AccurateRip
Копирование… OK

Трек 7

Имя файла F:\Autechre - 7 Beat Records releases\Exai - 2013 (2 CDs) BRC-365\CD 1\07 Flep.wav

Пиковый уровень 99.0 %
Скорость извлечения 6.0 X
Качество трека 100.0 %
CRC теста 208CF56C
CRC копии 208CF56C
Трек не обнаружен в базе AccurateRip
Копирование… OK

Трек 8

Имя файла F:\Autechre - 7 Beat Records releases\Exai - 2013 (2 CDs) BRC-365\CD 1\08 tuinorizn.wav

Пиковый уровень 99.7 %
Скорость извлечения 5.7 X
Качество трека 100.0 %
CRC теста 3DEDF514
CRC копии 3DEDF514
Трек не обнаружен в базе AccurateRip
Копирование… OK

Трек 9

Имя файла F:\Autechre - 7 Beat Records releases\Exai - 2013 (2 CDs) BRC-365\CD 1\09 bladelores.wav

Пиковый уровень 98.6 %
Скорость извлечения 6.4 X
Качество трека 100.0 %
CRC теста 92D691FD
CRC копии 92D691FD
Трек не обнаружен в базе AccurateRip
Копирование… OK


Ни одного трека нет в базе AccurateRip

Ошибок не произошло

Конец отчёта

–– CUETools DB Plugin V2.1.4

[CTDB TOCID: hlIibw8WnYVh9FInuXJlm3AS0rA-] found
Submit result: hlIibw8WnYVh9FInuXJlm3AS0rA- has been confirmed
Track | CTDB Status
1 | (1/9) Accurately ripped
2 | (1/9) Accurately ripped
3 | (1/9) Accurately ripped
4 | (1/9) Accurately ripped
5 | (1/9) Accurately ripped
6 | (1/9) Accurately ripped
7 | (1/9) Accurately ripped
8 | (1/9) Accurately ripped
9 | (1/9) Accurately ripped


==== Контрольная сумма отчёта 5C29F78F2FB32B6F950ADB46F1BB1B0D3C77A39B8F7AD0D452A28C46E5F7E98F ====

foobar2000 1.2 / Dynamic Range Meter 1.1.1
log date: 2013-07-11 23:11:39

––––––––––––––––––––––––––––––––––––––––
Analyzed: Autechre / Exai - [BRC-365] CD 1
––––––––––––––––––––––––––––––––––––––––

DR Peak RMS Duration Track
––––––––––––––––––––––––––––––––––––––––
DR8 -0.15 dB -9.77 dB 4:52 01-FLeure
DR5 -0.10 dB -7.59 dB 10:01 02-irlite (get 0)
DR6 -0.12 dB -7.88 dB 4:20 03-prac-f
DR5 -0.07 dB -6.78 dB 4:14 04-jatevee C
DR7 -0.08 dB -9.22 dB 6:43 05-T ess xi
DR8 -0.11 dB -9.78 dB 6:42 06-vekoS
DR7 -0.08 dB -7.99 dB 6:43 07-Flep
DR6 -0.02 dB -8.59 dB 3:40 08-tuinorizn
DR10 -0.12 dB -12.52 dB 12:21 09-bladelores
––––––––––––––––––––––––––––––––––––––––

Number of tracks: 9
Official DR value: DR7

Samplerate: 44100 Hz
Channels: 2
Bits per sample: 16
Bitrate: 652 kbps
Codec: FLAC
================================================================================


Exact Audio Copy V1.0 beta 3 from 29. August 2011

Отчёт EAC об извлечении, выполненном 11. марта 2013, 11:41

Autechre / Exai [BRC-365] CD 2

Дисковод: PLEXTOR CD-R PREMIUM2 Adapter: 3 ID: 0

Режим чтения : Достоверность
Использование точного потока : Да
Отключение кэша аудио : Да
Использование указателей C2 : Нет

Коррекция смещения при чтении : 30
Способность читать области Lead-in и Lead-out : Да
Заполнение пропущенных сэмплов тишиной : Да
Удаление блоков с тишиной в начале и конце : Нет
При вычислениях CRC использовались нулевые сэмплы : Да
Интерфейс : Встроенный Win32-интерфейс для Win NT/2000
Обработка зазоров : Добавлено к предыдущему треку

Выходной формат : Внутренние WAV-операции
Формат сэмплов : 44.100 Гц; 16 бит; стерео


TOC извлечённого CD

Трек | Старт | Длительность | Начальный сектор | Конечный сектор
––––––––––––––––––––––––––––––––––-
1 | 0:00.00 | 7:18.64 | 0 | 32913
2 | 7:18.64 | 8:40.00 | 32914 | 71913
3 | 15:58.64 | 4:35.18 | 71914 | 92556
4 | 20:34.07 | 7:06.22 | 92557 | 124528
5 | 27:40.29 | 10:12.50 | 124529 | 170478
6 | 37:53.04 | 5:27.19 | 170479 | 195022
7 | 43:20.23 | 9:21.37 | 195023 | 237134
8 | 52:41.60 | 8:23.72 | 237135 | 274931
9 | 61:05.57 | 8:57.18 | 274932 | 315224


Трек 1

Имя файла F:\Autechre - 7 Beat Records releases\Exai - 2013 (2 CDs) BRC-365\CD 2\01 1 1 Is.wav

Длина предзазора 0:00:02.00

Пиковый уровень 98.5 %
Скорость извлечения 4.3 X
Качество трека 99.9 %
CRC теста EF9590AE
CRC копии EF9590AE
Точное извлечение (достоверность 1) [235EF35F] (AR v1)
Копирование… OK

Трек 2

Имя файла F:\Autechre - 7 Beat Records releases\Exai - 2013 (2 CDs) BRC-365\CD 2\02 nodezsh.wav

Пиковый уровень 98.6 %
Скорость извлечения 5.1 X
Качество трека 100.0 %
CRC теста D7AAE168
CRC копии D7AAE168
Точное извлечение (достоверность 1) [A62DAFB7] (AR v1)
Копирование… OK

Трек 3

Имя файла F:\Autechre - 7 Beat Records releases\Exai - 2013 (2 CDs) BRC-365\CD 2\03 runrepik.wav

Пиковый уровень 99.0 %
Скорость извлечения 4.3 X
Качество трека 99.9 %
CRC теста D8FB4BC5
CRC копии D8FB4BC5
Точное извлечение (достоверность 1) [0C771B1C] (AR v1)
Копирование… OK

Трек 4

Имя файла F:\Autechre - 7 Beat Records releases\Exai - 2013 (2 CDs) BRC-365\CD 2\04 spl9.wav

Пиковый уровень 99.8 %
Скорость извлечения 4.8 X
Качество трека 99.9 %
CRC теста 90C47076
CRC копии 90C47076
Точное извлечение (достоверность 1) [B2773769] (AR v1)
Копирование… OK

Трек 5

Имя файла F:\Autechre - 7 Beat Records releases\Exai - 2013 (2 CDs) BRC-365\CD 2\05 cloudline.wav

Пиковый уровень 99.1 %
Скорость извлечения 5.7 X
Качество трека 100.0 %
CRC теста 61EA19F7
CRC копии 61EA19F7
Точное извлечение (достоверность 1) [20FFC2D1] (AR v1)
Копирование… OK

Трек 6

Имя файла F:\Autechre - 7 Beat Records releases\Exai - 2013 (2 CDs) BRC-365\CD 2\06 deco Loc.wav

Пиковый уровень 98.5 %
Скорость извлечения 5.6 X
Качество трека 100.0 %
CRC теста A901609C
CRC копии A901609C
Точное извлечение (достоверность 1) [42792496] (AR v1)
Копирование… OK

Трек 7

Имя файла F:\Autechre - 7 Beat Records releases\Exai - 2013 (2 CDs) BRC-365\CD 2\07 recks on.wav

Пиковый уровень 99.0 %
Скорость извлечения 6.0 X
Качество трека 100.0 %
CRC теста 7EBCD302
CRC копии 7EBCD302
Точное извлечение (достоверность 1) [D00AE6B3] (AR v1)
Копирование… OK

Трек 8

Имя файла F:\Autechre - 7 Beat Records releases\Exai - 2013 (2 CDs) BRC-365\CD 2\08 YJY UX.wav

Длина предзазора 0:00:00.01

Пиковый уровень 98.8 %
Скорость извлечения 5.3 X
Качество трека 99.9 %
CRC теста E3785570
CRC копии E3785570
Точное извлечение (достоверность 1) [0427D88A] (AR v1)
Копирование… OK

Трек 9

Имя файла F:\Autechre - 7 Beat Records releases\Exai - 2013 (2 CDs) BRC-365\CD 2\09 18 (keyosc).wav

Пиковый уровень 98.4 %
Скорость извлечения 6.4 X
Качество трека 100.0 %
CRC теста 83668E1F
CRC копии 83668E1F
Точное извлечение (достоверность 1) [FE1E70C3] (AR v1)
Копирование… OK


Все треки извлечены точно

Ошибок не произошло

Конец отчёта

–– CUETools DB Plugin V2.1.4

[CTDB TOCID: tcP8mWfkeWaChu4tfK2uffQmsqc-] found
Submit result: tcP8mWfkeWaChu4tfK2uffQmsqc- has been confirmed
Track | CTDB Status
1 | (1/1) Accurately ripped
2 | (1/1) Accurately ripped
3 | (1/1) Accurately ripped
4 | (1/1) Accurately ripped
5 | (1/1) Accurately ripped
6 | (1/1) Accurately ripped
7 | (1/1) Accurately ripped
8 | (1/1) Accurately ripped
9 | (1/1) Accurately ripped


==== Контрольная сумма отчёта FE1A447242B600EDCFDB8ECA5B68B8CDB938C84A49377B9FE2F101676AF600B9 ====

foobar2000 1.2 / Dynamic Range Meter 1.1.1
log date: 2013-07-11 23:12:02

––––––––––––––––––––––––––––––––––––––––
Analyzed: Autechre / Exai [BRC-365] CD 2
––––––––––––––––––––––––––––––––––––––––

DR Peak RMS Duration Track
––––––––––––––––––––––––––––––––––––––––
DR9 -0.13 dB -10.81 dB 7:19 01-1 1 Is
DR7 -0.12 dB -10.10 dB 8:40 02-nodezsh
DR8 -0.08 dB -9.69 dB 4:35 03-runrepik
DR9 -0.01 dB -10.01 dB 7:06 04-spl9
DR11 -0.07 dB -12.79 dB 10:13 05-cloudline
DR8 -0.13 dB -9.68 dB 5:27 06-deco Loc
DR8 -0.08 dB -9.69 dB 9:21 07-recks on
DR7 -0.10 dB -10.19 dB 8:24 08-YJY UX
DR9 -0.14 dB -11.25 dB 8:57 09-18 (keyosc)
––––––––––––––––––––––––––––––––––––––––

Number of tracks: 9
Official DR value: DR8

Samplerate: 44100 Hz
Channels: 2
Bits per sample: 16
Bitrate: 594 kbps
Codec: FLAC
================================================================================




All thanks to original releaser - Stripakulina

More interesting music in My Blog