Tags
Language
Tags

Blackmore's Night - Nature's Light (2021)

Posted By: v3122
Blackmore's Night - Nature's Light (2021)

Blackmore's Night - Nature's Light (2021)
EAC | Flac(Image) + Cue + Log & MP3 CBR 320Kbps
2CD | ear-music, GQCS-91011-2 | ~ 602 or 209 Mb | Artwork(jpg) -> 184 Mb
Folk-Rock

Ritchie Blackmore belongs to the most gifted guitarists that rock and metal ever saw to date. Renowned from his days with Deep Purple and Rainbow, Blackmore has created an iconic sound with his guitar that is timeless and a strong element of the success of the mentioned bands.

With the exception of three live shows as Rainbow, the legendary guitarist focusses since 1997 on Blackmore’s Night. Blackmore, together with his wife Candice Night, put the rock’n’roll roots aside and began to explore the world of folk, rock and pop a bit more. ‘Shadow of the Moon’ was the debut album that was released in 1997 and since then Blackmore’s Night has been a rather successful endeavor.

With ‘All Our Yesterdays’ the so far latest studio album has been released a while ago, six years to be precise and it’s the awaited new record ‘Nature’s Light’ that will arrive in the record stores mid-March. In the time of days becoming longer, shortening the nights, it’s ‘Nature’s Light’ that acts as a soundtrack for the upcoming spring season.

Blackmore’s Night start with ‘Once Upon December’ quite winterly into the album and the medieval spirit is right there. Next to the spirit of a time that’s been long gone it’s nature that impacts the album. The brisk ‘Feather in the Wind’ takes you to the next song with an ease. The following tune ‘Darker Shade of Black’ is in contrast to the light-hearted ‘Feather in the Wind’. It’s a gloomy instrumental, one out of two. ‘Der Letzte Musketier’ is the title of the other instrumental that puts Blackmore’s gently swinging guitar into forefront. He still knows how to treat the six strings well.

Via a soulful remake of ‘Wish You Were Here’, a song that Rednex had a smash hit in the 90s, the longplayer gets closer to the finish line. ‘Second Element’ is the emotional closer of ‘Nature’s Light’ and although this kind of music isn’t my very first choice I must admit that the album impresses. It has a certain spirit that help to calm down in these hectic days and you have the feeling to connect to nature, just by listening to these songs. I give ‘Nature’s Light’ a next spin on the record player and you might want to do the same.

~ markusheavymusicblog.org
Blackmore's Night - Nature's Light (2021):

Blackmore's Night - Nature's Light (2021)

Tracklist CD1 - Nature's Light:

01. Once Upon A December [0:03:09.66]
02. Four Winds [0:03:02.56]
03. Feather In The Wind [0:04:30.25]
04. Darker Shade of Black [0:06:05.18]
05. The Twisted Oak [0:04:18.28]
06. Nature's Light [0:04:30.19]
07. Der Letzte Musketier [0:04:57.74]
08. Wish You Were Here [0:05:04.20]
09. Going To The Faire [0:04:34.12]
10. Second Element [0:06:05.42]

Exact Audio Copy V1.3 from 2. September 2016

Отчёт EAC об извлечении, выполненном 23. марта 2021, 19:07

Blackmore's Night / Nature's Light

Дисковод: PLEXTOR DVDR PX-755A Adapter: 1 ID: 1

Режим чтения : Достоверность
Использование точного потока : Да
Отключение кэша аудио : Да
Использование указателей C2 : Нет

Коррекция смещения при чтении : 30
Способность читать области Lead-in и Lead-out : Нет
Заполнение пропущенных сэмплов тишиной : Да
Удаление блоков с тишиной в начале и конце : Нет
При вычислениях CRC использовались нулевые сэмплы : Да
Интерфейс : Встроенный Win32-интерфейс для Win NT/2000

Выходной формат : Пользовательский кодировщик
Выбранный битрейт : 128 kBit/s
Качество : Высокий
Добавление ID3-тега : Нет
Утилита сжатия : C:\Program Files (x86)\Exact Audio Copy\Flac\flac.exe
Дополнительные параметры : -V -8 -T "Date=%year%" -T "Genre=%genre%" %source%


TOC извлечённого CD

Трек | Старт | Длительность | Начальный сектор | Конечный сектор
––––––––––––––––––––––––––––––––––-
1 | 0:00.00 | 3:09.66 | 0 | 14240
2 | 3:09.66 | 3:02.56 | 14241 | 27946
3 | 6:12.47 | 4:30.25 | 27947 | 48221
4 | 10:42.72 | 6:05.18 | 48222 | 75614
5 | 16:48.15 | 4:18.28 | 75615 | 94992
6 | 21:06.43 | 4:30.19 | 94993 | 115261
7 | 25:36.62 | 4:57.74 | 115262 | 137610
8 | 30:34.61 | 5:04.20 | 137611 | 160430
9 | 35:39.06 | 4:34.12 | 160431 | 180992
10 | 40:13.18 | 6:05.42 | 180993 | 208409


Характеристики диапазона извлечения и сообщения об ошибках

Выбранный диапазон

Имя файла D:\РАЗДАЧА\Blackmore's Night - Nature's Light - 2021 [Japan Bonus CD]\CD1\Blackmore's Night - Nature's Light.wav

Пиковый уровень 100.0 %
Скорость извлечения 7.7 X
Качество диапазона 100.0 %
CRC теста 57DE4A3C
CRC копии 57DE4A3C
Копирование… OK

Ошибок не произошло


AccurateRip: сводка

Трек 1 отсутствует в базе данных
Трек 2 отсутствует в базе данных
Трек 3 отсутствует в базе данных
Трек 4 отсутствует в базе данных
Трек 5 отсутствует в базе данных
Трек 6 отсутствует в базе данных
Трек 7 отсутствует в базе данных
Трек 8 отсутствует в базе данных
Трек 9 отсутствует в базе данных
Трек 10 отсутствует в базе данных

Ни одного трека нет в базе AccurateRip

Конец отчёта

–– CUETools DB Plugin V2.1.6

[CTDB TOCID: bdSifso0xTLFqqbasP4aG4BDRUg-] found
Submit result: bdSifso0xTLFqqbasP4aG4BDRUg- has been confirmed
Track | CTDB Status
1 | (39/39) Accurately ripped
2 | (39/39) Accurately ripped
3 | (39/39) Accurately ripped
4 | (39/39) Accurately ripped
5 | (39/39) Accurately ripped
6 | (39/39) Accurately ripped
7 | (39/39) Accurately ripped
8 | (39/39) Accurately ripped
9 | (39/39) Accurately ripped
10 | (39/39) Accurately ripped


==== Контрольная сумма отчёта C98634BD78CCB5BAC5050B5576F7C0C45ADE9257501812D4DAD757A4CDAAF32C ====


[CUETools log; Date: 28.03.2021 9:27:12; Version: 2.1.4]
[AccurateRip ID: 00103b2d-0084dcd6-730ada0a] disk not present in database.

Track Peak [ CRC32 ] [W/O NULL] [ LOG ]
– 100,0 [57DE4A3C] [70429611] CRC32
01 98,7 [29135410] [9EC45F8B]
02 100,0 [23F57648] [404497C5]
03 98,7 [6FFBD801] [D9417642]
04 98,7 [17C0ED37] [7125B337]
05 98,7 [1D09F96C] [B8E033D6]
06 98,7 [F6D87DA3] [782EB10B]
07 98,7 [D8C00741] [FAD51B32]
08 98,7 [9DDE8B3C] [17647229]
09 98,7 [6F7E5457] [892B9D31]
10 98,7 [E1C2B027] [68C76BE5]


Blackmore's Night - Nature's Light (2021)

Tracklist CD2 - Classics:

01. Shadow Of The Moon [0:05:06.62]
02. Under A Violet Moon [0:04:23.35]
03. Storm [0:06:11.43]
04. Way To Mandalay [0:06:25.45]
05. Streets Of London [0:03:45.66]
06. Empty Words [0:02:40.52]
07. Believe In Me [0:04:20.09]
08. Dancer And The Moon [0:04:55.09]
09. All Your Yesterdays [0:03:59.54]

Exact Audio Copy V1.3 from 2. September 2016

Отчёт EAC об извлечении, выполненном 23. марта 2021, 19:20

Blackmore's Night / Nature's Light

Дисковод: PLEXTOR DVDR PX-755A Adapter: 1 ID: 1

Режим чтения : Достоверность
Использование точного потока : Да
Отключение кэша аудио : Да
Использование указателей C2 : Нет

Коррекция смещения при чтении : 30
Способность читать области Lead-in и Lead-out : Нет
Заполнение пропущенных сэмплов тишиной : Да
Удаление блоков с тишиной в начале и конце : Нет
При вычислениях CRC использовались нулевые сэмплы : Да
Интерфейс : Встроенный Win32-интерфейс для Win NT/2000

Выходной формат : Пользовательский кодировщик
Выбранный битрейт : 128 kBit/s
Качество : Высокий
Добавление ID3-тега : Нет
Утилита сжатия : C:\Program Files (x86)\Exact Audio Copy\Flac\flac.exe
Дополнительные параметры : -V -8 -T "Date=%year%" -T "Genre=%genre%" %source%


TOC извлечённого CD

Трек | Старт | Длительность | Начальный сектор | Конечный сектор
––––––––––––––––––––––––––––––––––-
1 | 0:00.00 | 5:06.62 | 0 | 23011
2 | 5:06.62 | 4:23.35 | 23012 | 42771
3 | 9:30.22 | 6:11.43 | 42772 | 70639
4 | 15:41.65 | 6:25.45 | 70640 | 99559
5 | 22:07.35 | 3:45.66 | 99560 | 116500
6 | 25:53.26 | 2:40.52 | 116501 | 128552
7 | 28:34.03 | 4:20.09 | 128553 | 148061
8 | 32:54.12 | 4:55.09 | 148062 | 170195
9 | 37:49.21 | 3:59.54 | 170196 | 188174


Характеристики диапазона извлечения и сообщения об ошибках

Выбранный диапазон

Имя файла D:\РАЗДАЧА\Blackmore's Night - Nature's Light - 2021 [Japan Bonus CD]\CD2\Blackmore's Night - Nature's Light.wav

Пиковый уровень 100.0 %
Скорость извлечения 7.6 X
Качество диапазона 100.0 %
CRC теста 6407999D
CRC копии 6407999D
Копирование… OK

Ошибок не произошло


AccurateRip: сводка

Трек 1 отсутствует в базе данных
Трек 2 отсутствует в базе данных
Трек 3 отсутствует в базе данных
Трек 4 отсутствует в базе данных
Трек 5 отсутствует в базе данных
Трек 6 отсутствует в базе данных
Трек 7 отсутствует в базе данных
Трек 8 отсутствует в базе данных
Трек 9 отсутствует в базе данных

Ни одного трека нет в базе AccurateRip

Конец отчёта

–– CUETools DB Plugin V2.1.6

[CTDB TOCID: FBCwg_oXuSYP.14qPupPmDWgAmI-] found
Submit result: FBCwg_oXuSYP.14qPupPmDWgAmI- has been confirmed
Track | CTDB Status
1 | (5/5) Accurately ripped
2 | (5/5) Accurately ripped
3 | (5/5) Accurately ripped
4 | (5/5) Accurately ripped
5 | (5/5) Accurately ripped
6 | (5/5) Accurately ripped
7 | (5/5) Accurately ripped
8 | (5/5) Accurately ripped
9 | (5/5) Accurately ripped


==== Контрольная сумма отчёта C3C230E752A75C4ECF72868ED8C94A5ED71CED4180AF6D9AA835A060E9640200 ====


[CUETools log; Date: 28.03.2021 9:29:08; Version: 2.1.4]
[AccurateRip ID: 000f114f-006d1fe4-7c09cd09] disk not present in database.

Track Peak [ CRC32 ] [W/O NULL] [ LOG ]
– 100,0 [6407999D] [58F703E2] CRC32
01 95,5 [5542CE4D] [7F347490]
02 99,9 [44E0076D] [C0459A63]
03 98,8 [3918730E] [16066A3C]
04 98,9 [19F39A52] [D302AA5B]
05 100,0 [43E0A289] [EC65D78B]
06 98,8 [F03716F8] [31A5CC0A]
07 98,9 [5E941DF9] [D2B96441]
08 98,8 [AF5E6109] [2060EF67]
09 98,8 [87550560] [151928A6]


Blackmore's Night - Nature's Light (2021)

All thanks go to pishin

Blackmore's Night in my Blog

Download Blackmore's Night - Nature's Light (2021):