Tags
Language
Tags

BlutEngel - Nemesis: Best Of And Reworked (2016) [2CD + DVD, Deluxe Edition]

Posted By: v3122
BlutEngel - Nemesis: Best Of And Reworked (2016) [2CD + DVD, Deluxe Edition]

BlutEngel - Nemesis: Best Of And Reworked (2016)
EAC | Flac(Image) + Cue + Log & MP3 CBR 320Kbps
Out Of Line, OUT 775, 776, 777 | ~ 853 or 282 Mb | Scans(jpg) -> 83 Mb
DVD5: MPEG2, 720x576, 16:9 / AC3, 192 kbps, 48 kHz, 2 ch -> 2.72 Gb
Darkwave / Synth-Gothic

With "Nemesis - The Best Of & Reworked", Blutengel are not only releasing their first official Greatest-Hits-Album, but also a rather special kind of history lesson, presenting classic songs, hits and favorites from the past in the sound of today.

Toying around with the notion of "what if…" is always a rather fascinating affair. It is therefore hardly any wonder that Blutengel-mastermind Chris Pohl, when faced with the proposition of relasing a compilation of his greatest hits, started asking himself the question: "what would our classic tunes have sounded like if we had had today's technology and know how at our hands, back then?" And as a the standard "best of"-fare always has the bitter taste of a cheap cash in, the idea for "Nemesis" was born and Blutengel started re-recording a selection of their favorite hits from their early days from scratch. The result is nothing short of impressive, as classics like the seminal "Black Roses", "Vampire Romance" or "Engelsblut" are not only reinvigorated, but gain a completely new and mesmerizing identity of their own. The new versions experience make revisiting the favorite Blutengel blasts from the past an adventurous and enthralling experience. "Nemesis" is also released as a deluxe double CD with a second disc sporting a selection of the best songs from recent years, as a lavish limited gatefold double vinyl (one black and one golden disc) and as a strictly limited fan box which contains the double CD, plus an exclusive DVD with all official Blutengel video clips and an exclusive Blutengel-logo-medal in an antique silver look on a leather strap. Thus, "Nemesis - The Best Of & Reworked" is not only the perfect entry point into the dark and captivating sonic world of Berlin's Gothic-Pop-masters, but also a unique opportunity for old fans to rediscover the Blutengel canon in an altogether new way. The perfect document of the sonic prowess of this inflential band!

~ napalmrecords.com
BlutEngel - Nemesis: Best Of And Reworked (2016) [2CD + DVD, Deluxe Edition]


BlutEngel - Nemesis: Best Of And Reworked (2016):

BlutEngel - Nemesis: Best Of And Reworked (2016) [2CD + DVD, Deluxe Edition]

Tracklist CD1:

01. Blutengel Vampire Romance (Reworked) 04:45
02. Blutengel Children Of The Night (Reworked) 05:18
03. Blutengel Behind The Mirror (Reworked) 03:51
04. Blutengel Soul Of Ice (Reworked) 05:20
05. Blutengel Die With You (Reworked) 04:55
06. Blutengel Black Roses (Reworked) 04:51
07. Blutengel Lucifer (Reworked) 04:57
08. Blutengel Der Spiegel (Reworked) 03:49
09. Blutengel Engelsblut (Reworked) 05:26
10. Blutengel Weg Zu Mir (Reworked) 04:27
11. Blutengel Bloody Pleasures (Reworked) 04:34
12. Blutengel Reich Mir Die Hand (Reworked) 03:44

Exact Audio Copy V1.1 from 23. June 2015

EAC extraction logfile from 11. March 2016, 18:18

BlutEngel / Nemesis (Deluxe Edition) CD1

Used drive : HP DVD Writer 1170d Adapter: 1 ID: 1

Read mode : Secure
Utilize accurate stream : Yes
Defeat audio cache : Yes
Make use of C2 pointers : No

Read offset correction : 6
Overread into Lead-In and Lead-Out : No
Fill up missing offset samples with silence : Yes
Delete leading and trailing silent blocks : No
Null samples used in CRC calculations : Yes
Used interface : Native Win32 interface for Win NT & 2000

Used output format : User Defined Encoder
Selected bitrate : 1024 kBit/s
Quality : Low
Add ID3 tag : No
Command line compressor : C:\Program Files (x86)\Exact Audio Copy\FLAC\FLAC.EXE
Additional command line options : -V -8 -T "Date=%year%" -T "Genre=%genre%" -T"COMMENT=Ripped by Ungern666" -8 -V %source%


TOC of the extracted CD

Track | Start | Length | Start sector | End sector
––––––––––––––––––––––––––––-
1 | 0:00.00 | 4:45.26 | 0 | 21400
2 | 4:45.26 | 5:18.44 | 21401 | 45294
3 | 10:03.70 | 3:51.18 | 45295 | 62637
4 | 13:55.13 | 5:20.62 | 62638 | 86699
5 | 19:16.00 | 4:55.61 | 86700 | 108885
6 | 24:11.61 | 4:51.07 | 108886 | 130717
7 | 29:02.68 | 4:57.21 | 130718 | 153013
8 | 34:00.14 | 3:49.51 | 153014 | 170239
9 | 37:49.65 | 5:26.48 | 170240 | 194737
10 | 43:16.38 | 4:27.27 | 194738 | 214789
11 | 47:43.65 | 4:34.61 | 214790 | 235400
12 | 52:18.51 | 3:44.28 | 235401 | 252228


Range status and errors

Selected range

Filename C:\EAC\Ungern666\BlutEngel - Nemesis (Deluxe Edition) CD1.wav

Peak level 99.0 %
Extraction speed 7.1 X
Range quality 100.0 %
Test CRC 8BC3C992
Copy CRC 8BC3C992
Copy OK

No errors occurred


AccurateRip summary

Track 1 not present in database
Track 2 not present in database
Track 3 not present in database
Track 4 not present in database
Track 5 not present in database
Track 6 not present in database
Track 7 not present in database
Track 8 not present in database
Track 9 not present in database
Track 10 not present in database
Track 11 not present in database
Track 12 not present in database

None of the tracks are present in the AccurateRip database

End of status report

–– CUETools DB Plugin V2.1.6

[CTDB TOCID: ANf7NQ55E3awTmAo8bDOCR9a0Do-] found
Submit result: ANf7NQ55E3awTmAo8bDOCR9a0Do- has been confirmed
Track | CTDB Status
1 | (15/15) Accurately ripped
2 | (15/15) Accurately ripped
3 | (15/15) Accurately ripped
4 | (15/15) Accurately ripped
5 | (15/15) Accurately ripped
6 | (15/15) Accurately ripped
7 | (15/15) Accurately ripped
8 | (15/15) Accurately ripped
9 | (15/15) Accurately ripped
10 | (15/15) Accurately ripped
11 | (15/15) Accurately ripped
12 | (15/15) Accurately ripped


==== Log checksum F8AC3D1EB0D4037AA0A0180F27371037F32C627F9C098AC914A1B5502D58B2AD ====

foobar2000 1.2.9 / Dynamic Range Meter 1.1.1
log date: 2016-03-12 18:12:47

––––––––––––––––––––––––––––––––––––––––
Analyzed: BlutEngel / Nemesis (Deluxe Edition) CD1
––––––––––––––––––––––––––––––––––––––––

DR Peak RMS Duration Track
––––––––––––––––––––––––––––––––––––––––
DR6 -0.09 dB -8.59 dB 4:45 01-Vampire Romance (Reworked)
DR7 -0.10 dB -9.71 dB 5:19 02-Children Of The Night (Reworked)
DR7 -0.08 dB -9.86 dB 3:51 03-Behind The Mirror (Reworked)
DR6 -0.10 dB -8.28 dB 5:21 04-Soul Of Ice (Reworked)
DR7 -0.14 dB -9.79 dB 4:56 05-Die With You (Reworked)
DR6 -0.12 dB -8.00 dB 4:51 06-Black Roses (Reworked)
DR7 -0.12 dB -9.62 dB 4:57 07-Lucifer(Reworked)
DR6 -0.10 dB -7.51 dB 3:50 08-Der Spiegel (Reworked)
DR7 -0.08 dB -9.26 dB 5:27 09-Engelsblut (Reworked)
DR6 -1.10 dB -8.84 dB 4:27 10-Weg Zu Mir (Reworked)
DR7 -0.10 dB -8.37 dB 4:35 11-Bloody Pleasures (Reworked)
DR6 -0.10 dB -7.79 dB 3:44 12-Reich Mir Die Hand (Reworked)
––––––––––––––––––––––––––––––––––––––––

Number of tracks: 12
Official DR value: DR7

Samplerate: 44100 Hz
Channels: 2
Bits per sample: 16
Bitrate: 1013 kbps
Codec: FLAC

[CUETools log; Date: 12.03.2016 18:05:05; Version: 2.1.4]
[CTDB TOCID: ANf7NQ55E3awTmAo8bDOCR9a0Do-] found.
Track | CTDB Status
1 | (16/16) Accurately ripped
2 | (16/16) Accurately ripped
3 | (16/16) Accurately ripped
4 | (16/16) Accurately ripped
5 | (16/16) Accurately ripped
6 | (16/16) Accurately ripped
7 | (16/16) Accurately ripped
8 | (16/16) Accurately ripped
9 | (16/16) Accurately ripped
10 | (16/16) Accurately ripped
11 | (16/16) Accurately ripped
12 | (16/16) Accurately ripped
[AccurateRip ID: 00199312-00ee0e3d-a50d230c] disk not present in database.

Track Peak [ CRC32 ] [W/O NULL] [ LOG ]
– 99,0 [8BC3C992] [7179D695] CRC32
01 98,9 [898E9BA3] [2D273FD0]
02 98,8 [7B61F3FE] [95EDC551]
03 99,0 [14BE4682] [F1C92C4E]
04 98,8 [D137F87A] [5D4A5352]
05 98,4 [BC117E6F] [DDB55A55]
06 98,6 [B03A4508] [04756D34]
07 98,5 [154903D4] [D69AAD7F]
08 98,8 [C6267B65] [C1627DA8]
09 99,0 [8525F414] [17C1E3C2]
10 88,1 [3174C685] [9A9DE2AF]
11 98,8 [CAE0E98C] [699F79C3]
12 98,8 [4DA45A10] [5E7A856E]

BlutEngel - Nemesis: Best Of And Reworked (2016) [2CD + DVD, Deluxe Edition]

Tracklist CD2:

01. Blutengel Sing 03:25
02. Blutengel Asche Zu Asche 04:25
03. Blutengel Save Our Souls 04:22
04. Blutengel You Walk Away 03:57
05. Blutengel Seelenschmerz (Symphonic Version) 05:54
06. Blutengel Ein Augenblick (Symphonic Version) 05:00
07. Blutengel No Eternity (Piano Version) 03:59
08. Blutengel Dancing In The Light 04:59
09. Blutengel Soultaker 06:13
10. Blutengel Nachtbringer 04:03
11. Blutengel The Oxidising Angel 04:52
12. Blutengel Über Den Horizont 04:17
13. Blutengel Krieger (Electro Version) 03:52
14. Blutengel Monument 04:04

Exact Audio Copy V1.1 from 23. June 2015

EAC extraction logfile from 11. March 2016, 18:57

BlutEngel / Nemesis (Deluxe Edition) CD2

Used drive : HP DVD Writer 1170d Adapter: 1 ID: 1

Read mode : Secure
Utilize accurate stream : Yes
Defeat audio cache : Yes
Make use of C2 pointers : No

Read offset correction : 6
Overread into Lead-In and Lead-Out : No
Fill up missing offset samples with silence : Yes
Delete leading and trailing silent blocks : No
Null samples used in CRC calculations : Yes
Used interface : Native Win32 interface for Win NT & 2000

Used output format : User Defined Encoder
Selected bitrate : 1024 kBit/s
Quality : Low
Add ID3 tag : No
Command line compressor : C:\Program Files (x86)\Exact Audio Copy\FLAC\FLAC.EXE
Additional command line options : -V -8 -T "Date=%year%" -T "Genre=%genre%" -T"COMMENT=Ripped by Ungern666" -8 -V %source%


TOC of the extracted CD

Track | Start | Length | Start sector | End sector
––––––––––––––––––––––––––––-
1 | 0:00.00 | 3:25.22 | 0 | 15396
2 | 3:25.22 | 4:25.58 | 15397 | 35329
3 | 7:51.05 | 4:22.52 | 35330 | 55031
4 | 12:13.57 | 3:57.18 | 55032 | 72824
5 | 16:11.00 | 5:54.73 | 72825 | 99447
6 | 22:05.73 | 5:00.34 | 99448 | 121981
7 | 27:06.32 | 3:59.45 | 121982 | 139951
8 | 31:06.02 | 4:59.57 | 139952 | 162433
9 | 36:05.59 | 6:13.38 | 162434 | 190446
10 | 42:19.22 | 4:03.32 | 190447 | 208703
11 | 46:22.54 | 4:52.74 | 208704 | 230677
12 | 51:15.53 | 4:17.63 | 230678 | 250015
13 | 55:33.41 | 3:52.41 | 250016 | 267456
14 | 59:26.07 | 4:04.15 | 267457 | 285771


Range status and errors

Selected range

Filename C:\EAC\Ungern666\BlutEngel - Nemesis (Deluxe Edition) CD2.wav

Peak level 99.1 %
Extraction speed 6.0 X
Range quality 100.0 %
Test CRC 19BD0C14
Copy CRC 19BD0C14
Copy OK

No errors occurred


AccurateRip summary

Track 1 not present in database
Track 2 not present in database
Track 3 not present in database
Track 4 not present in database
Track 5 not present in database
Track 6 not present in database
Track 7 not present in database
Track 8 not present in database
Track 9 not present in database
Track 10 not present in database
Track 11 not present in database
Track 12 not present in database
Track 13 not present in database
Track 14 not present in database

None of the tracks are present in the AccurateRip database

End of status report

–– CUETools DB Plugin V2.1.6

[CTDB TOCID: EclIhy99iHcbUGscT9QSj2xYWs8-] found
Submit result: EclIhy99iHcbUGscT9QSj2xYWs8- has been confirmed
Track | CTDB Status
1 | (14/14) Accurately ripped
2 | (14/14) Accurately ripped
3 | (14/14) Accurately ripped
4 | (14/14) Accurately ripped
5 | (14/14) Accurately ripped
6 | (14/14) Accurately ripped
7 | (14/14) Accurately ripped
8 | (14/14) Accurately ripped
9 | (14/14) Accurately ripped
10 | (14/14) Accurately ripped
11 | (14/14) Accurately ripped
12 | (14/14) Accurately ripped
13 | (14/14) Accurately ripped
14 | (14/14) Accurately ripped


==== Log checksum 23BA8F5FEEFD4287E5BD84497068DE5AB629FD3230E9AB66BD248742AE996C27 ====

foobar2000 1.2.9 / Dynamic Range Meter 1.1.1
log date: 2016-03-12 18:12:32

––––––––––––––––––––––––––––––––––––––––
Analyzed: BlutEngel / Nemesis (Deluxe Edition) CD2
––––––––––––––––––––––––––––––––––––––––

DR Peak RMS Duration Track
––––––––––––––––––––––––––––––––––––––––
DR5 -1.00 dB -8.15 dB 3:25 01-Sing
DR5 -0.60 dB -8.15 dB 4:26 02-Asche Zu Asche
DR5 -0.09 dB -7.07 dB 4:23 03-Save Our Souls
DR5 -0.10 dB -6.59 dB 3:57 04-You Walk Away
DR7 -0.40 dB -9.59 dB 5:55 05-Seelenschmerz (Symphonic Version)
DR12 -0.07 dB -15.35 dB 5:00 06-Ein Augenblick (Symphonic Version)
DR8 -2.20 dB -12.48 dB 4:00 07-No Eternity (Piano Version)
DR7 -0.19 dB -9.18 dB 5:00 08-Dancing In The Light
DR7 -1.18 dB -10.71 dB 6:14 09-Soultaker
DR6 -0.11 dB -7.66 dB 4:03 10-Nachtbringer
DR5 -0.17 dB -7.79 dB 4:53 11-The Oxidising Angel
DR6 -0.11 dB -7.94 dB 4:18 12-Uber Den Horizont
DR5 -0.40 dB -6.29 dB 3:53 13-Krieger (Electro Version)
DR5 -1.10 dB -9.13 dB 4:04 14-Monument
––––––––––––––––––––––––––––––––––––––––

Number of tracks: 14
Official DR value: DR6

Samplerate: 44100 Hz
Channels: 2
Bits per sample: 16
Bitrate: 929 kbps
Codec: FLAC

[CUETools log; Date: 12.03.2016 18:08:02; Version: 2.1.4]
[CTDB TOCID: EclIhy99iHcbUGscT9QSj2xYWs8-] found.
Track | CTDB Status
1 | (15/15) Accurately ripped
2 | (15/15) Accurately ripped
3 | (15/15) Accurately ripped
4 | (15/15) Accurately ripped
5 | (15/15) Accurately ripped
6 | (15/15) Accurately ripped
7 | (15/15) Accurately ripped
8 | (15/15) Accurately ripped
9 | (15/15) Accurately ripped
10 | (15/15) Accurately ripped
11 | (15/15) Accurately ripped
12 | (15/15) Accurately ripped
13 | (15/15) Accurately ripped
14 | (15/15) Accurately ripped
[AccurateRip ID: 002095b2-015efe22-d60ee20e] disk not present in database.

Track Peak [ CRC32 ] [W/O NULL] [ LOG ]
– 99,1 [19BD0C14] [4D701FF1] CRC32
01 89,1 [B8052FC5] [95CF37DD]
02 93,3 [9374ABFE] [9D888965]
03 98,9 [8D712F2D] [DC1412F8]
04 98,8 [FB3ACFAD] [11775E32]
05 95,4 [BD02EDDC] [EE1C5082]
06 99,1 [7C27C399] [0A0EBA3A]
07 77,6 [35F6AF49] [9A27F751]
08 97,8 [CCC7F9B3] [6ACECC6F]
09 87,3 [01967579] [6A0C2D74]
10 98,7 [91617401] [0157211A]
11 98,0 [AD27A57C] [39593D54]
12 98,8 [66722E79] [9094E39A]
13 95,4 [5A7475B6] [8AEF27B9]
14 88,1 [97693687] [A742576E]

BlutEngel - Nemesis: Best Of And Reworked (2016) [2CD + DVD, Deluxe Edition]

Tracklist DVD:

01. The Oxidising Angel
02. Dancing in the Light
03. Nachtbringer
04. Reich mir die Hand
05. Über den Horizont
06. Save our Souls
07. No Eternity (Piano Version)
08. You walk away
09. Kinder dieser Stadt
10. Krieger (Symphonic Version)
11. Asche zu Asche
12. Sing
13. Kinder der Sterne (Blutengel & Meinhard)

Title: BlutEngel 2016 - Nemesis (Deluxe Edition) - DVD
Size: 2.53 Gb ( 2 654 544,00 KBytes ) - DVD-5
Enabled regions: 1, 2, 3, 4, 5, 6, 8

VTS_01 :
Play Length: 00:54:30
Video: PAL 16:9 (720x576) VBR, Auto Letterboxed
Audio:
Not specified (Dolby AC3, 2 ch)

VTS_02 :
Play Length: 00:00:10
Video: PAL 16:9 (720x576) VBR, Auto Letterboxed
Audio:
Not specified (Dolby AC3, 2 ch)


BlutEngel - Nemesis: Best Of And Reworked (2016) [2CD + DVD, Deluxe Edition]

BlutEngel - Nemesis: Best Of And Reworked (2016) [2CD + DVD, Deluxe Edition]

BlutEngel - Nemesis: Best Of And Reworked (2016) [2CD + DVD, Deluxe Edition]

BlutEngel - Nemesis: Best Of And Reworked (2016) [2CD + DVD, Deluxe Edition]

* * *

BlutEngel - Nemesis: Best Of And Reworked (2016) [2CD + DVD, Deluxe Edition]

All thanks go to ungern666

Download BlutEngel - Nemesis: Best Of And Reworked (2016):