Subcategories

Bob Marley & The Wailers - Exodus (1977) Remastered 1990

Posted By: Designol
Bob Marley & The Wailers - Exodus (1977) Remastered 1990

Bob Marley & The Wailers - Exodus (1977) Remastered 1990
EAC | FLAC | Tracks (Cue&Log) ~ 264 Mb | Mp3 (CBR320) ~ 124 Mb | Scans included | 00:37:20
Roots Reggae, Rocksteady | Label: Tuff Gong / Island | # TGLCD 6 (846 208-2)

Exodus is the ninth studio album by Jamaican reggae recording band Bob Marley and the Wailers, first released 3 June 1977 through Island Records following Rastaman Vibration (1976). Exodus is a reggae album, incorporating elements of blues, soul, British rock and funk. The album's production has been characterized as laid-back with pulsating bass beats and an emphasis on piano, trumpet and guitar. Unlike previous albums from the Wailers, Exodus thematically moves away from cryptic story-telling; instead it revolves around themes of change, religious politics, and sex. The album is split into two halves: the first half revolves around religious politics while the second half is focused on themes of sex and keeping faith. The album was a success both critically and commercially; it received gold certifications in the US, UK and Canada, and was the album that propelled Marley to international stardom. In 1999, Time magazine named Exodus the best album of the 20th century. In 2003, the album was ranked number 169 on Rolling Stone magazine's list of the 500 greatest albums of all time.

After the success of 1974's Natty Dread and 1976's Rastaman Vibration, Bob Marley was not only the most successful reggae musician in the world, he was one of the most powerful men in Jamaica. Powerful enough, in fact, that he was shot by gunmen who broke into his home in December 1976, days before he was to play a massive free concert intended to ease tensions days before a contentious election for Jamaican Prime Minister. In the wake of the assassination attempt, Marley and his band left Jamaica and settled in London for two years, where he recorded 1977's Exodus. Thematically, Exodus represented a subtle but significant shift for Marley; while he continued to speak out against political corruption and for freedom and equality for Third World people, his lyrics dealt less with specifics and more with generalities and the need for peace and love (though "So Much Things to Say," "Guiltiness," and "The Heathen" demonstrate the bullets had taken only so much sting out of Marley's lyrics). And while songs like "Exodus" and "One Love/People Get Ready" were anthemic, they also had less to say than the more pointed material from Marley's earlier albums. However, if Marley had become more wary in his point of view (and not without good cause), his skill as a songwriter was as strong as ever, and Exodus boasted more than a few classics, including the title song, "Three Little Birds," "Waiting in Vain," and "Turn Your Lights Down Low," tunes that defined Marley's gift for sounding laid-back and incisive at once. His gifts as a vocalist were near their peak on these sessions, bringing a broad range of emotional color to his performances, and this lineup of the Wailers – anchored by bassist Aston "Family Man" Barrett, drummer Carlton Barrett, and guitarist Julian "Junior" Murvin – is superb, effortlessly in the pocket throughout. Exodus was recorded at a time when Bob Marley was learning about the unexpected costs of international stardom, but it hadn't yet sapped his creative strengths, and this is one of the finest albums in his stellar catalog.

Review by Mark Deming, Allmusic.com

Bob Marley & The Wailers - Exodus (1977) Remastered 1990



Tracklist:

01. Natural Mystic (3:28)
02. So Much Things To Say (3:08)
03. Guiltiness (3:20)
04. The Heathen (2:32)
05. Exodus (7:35)
06. Jamming (3:31)
07. Waiting In Vain (4:15)
08. Turn Your Lights Down Low (3:39)
09. Three Little Birds (3:00)
10. One Love- People Get Ready (2:51)


Exact Audio Copy V1.0 beta 4 from 7. December 2014

EAC extraction logfile from 7. April 2018, 1:03

Bob Marley & The Wailers / Exodus

Used drive : TSSTcorpCDDVDW SH-224DB Adapter: 1 ID: 0

Read mode : Secure
Utilize accurate stream : Yes
Defeat audio cache : Yes
Make use of C2 pointers : No

Read offset correction : 6
Overread into Lead-In and Lead-Out : No
Fill up missing offset samples with silence : Yes
Delete leading and trailing silent blocks : No
Null samples used in CRC calculations : Yes
Used interface : Native Win32 interface for Win NT & 2000
Gap handling : Appended to previous track

Used output format : User Defined Encoder
Selected bitrate : 896 kBit/s
Quality : High
Add ID3 tag : No
Command line compressor : C:\Program Files\Exact Audio Copy\Flac\flac.exe
Additional command line options : -5 -V -T "ARTIST=%artist%" -T "TITLE=%title%" -T "ALBUM=%albumtitle%" -T "DATE=%year%" -T "TRACKNUMBER=%tracknr%" -T "GENRE=%genre%" -T "COMMENT=%comment%" %source% -o %dest%


TOC of the extracted CD

Track | Start | Length | Start sector | End sector
––––––––––––––––––––––––––––-
1 | 0:00.32 | 3:27.45 | 32 | 15601
2 | 3:28.02 | 3:07.58 | 15602 | 29684
3 | 6:35.60 | 3:19.50 | 29685 | 44659
4 | 9:55.35 | 2:32.02 | 44660 | 56061
5 | 12:27.37 | 7:35.05 | 56062 | 90191
6 | 20:02.42 | 3:31.08 | 90192 | 106024
7 | 23:33.50 | 4:15.32 | 106025 | 125181
8 | 27:49.07 | 3:39.25 | 125182 | 141631
9 | 31:28.32 | 3:00.08 | 141632 | 155139
10 | 34:28.40 | 2:51.30 | 155140 | 167994


Track 1

Filename C:\New Folder\01 - Natural Mystic.wav

Pre-gap length 0:00:02.32

Peak level 90.1 %
Extraction speed 1.6 X
Track quality 100.0 %
Test CRC 13EFF443
Copy CRC 13EFF443
Accurately ripped (confidence 103) [95FE9C47] (AR v2)
Copy OK

Track 2

Filename C:\New Folder\02 - So Much Things To Say.wav

Peak level 99.8 %
Extraction speed 1.8 X
Track quality 100.0 %
Test CRC AA2273BB
Copy CRC AA2273BB
Accurately ripped (confidence 104) [8AC2AA46] (AR v2)
Copy OK

Track 3

Filename C:\New Folder\03 - Guiltiness.wav

Peak level 95.5 %
Extraction speed 1.9 X
Track quality 100.0 %
Test CRC 8DA53694
Copy CRC 8DA53694
Accurately ripped (confidence 105) [C2A36153] (AR v2)
Copy OK

Track 4

Filename C:\New Folder\04 - The Heathen.wav

Peak level 88.2 %
Extraction speed 1.6 X
Track quality 99.9 %
Test CRC 1F934ED5
Copy CRC 1F934ED5
Accurately ripped (confidence 105) [EEAE0CD6] (AR v2)
Copy OK

Track 5

Filename C:\New Folder\05 - Exodus.wav

Peak level 98.8 %
Extraction speed 2.5 X
Track quality 100.0 %
Test CRC 8B8838AD
Copy CRC 8B8838AD
Accurately ripped (confidence 102) [31AD0BFB] (AR v2)
Copy OK

Track 6

Filename C:\New Folder\06 - Jamming.wav

Peak level 100.0 %
Extraction speed 2.5 X
Track quality 100.0 %
Test CRC CD35F9C0
Copy CRC CD35F9C0
Accurately ripped (confidence 105) [C7A93981] (AR v2)
Copy OK

Track 7

Filename C:\New Folder\07 - Waiting In Vain.wav

Peak level 96.1 %
Extraction speed 2.7 X
Track quality 100.0 %
Test CRC CC677BE1
Copy CRC CC677BE1
Accurately ripped (confidence 104) [DCFA1015] (AR v2)
Copy OK

Track 8

Filename C:\New Folder\08 - Turn Your Lights Down Low.wav

Pre-gap length 0:00:00.52

Peak level 100.0 %
Extraction speed 2.7 X
Track quality 100.0 %
Test CRC F717E1DE
Copy CRC F717E1DE
Accurately ripped (confidence 103) [871EE6B5] (AR v2)
Copy OK

Track 9

Filename C:\New Folder\09 - Three Little Birds.wav

Peak level 100.0 %
Extraction speed 2.7 X
Track quality 100.0 %
Test CRC 41A54C2C
Copy CRC 41A54C2C
Accurately ripped (confidence 102) [968FD6B7] (AR v2)
Copy OK

Track 10

Filename C:\New Folder\10 - One Love- People Get Ready.wav

Peak level 99.4 %
Extraction speed 2.8 X
Track quality 100.0 %
Test CRC 163ECBAC
Copy CRC 163ECBAC
Accurately ripped (confidence 101) [E03CB3BB] (AR v2)
Copy OK


All tracks accurately ripped

No errors occurred

End of status report

–– CUETools DB Plugin V2.1.4

[CTDB TOCID: ffVlPU3fx1Rx8uGhJkZ65BzTGIQ-] found
Submit result: ffVlPU3fx1Rx8uGhJkZ65BzTGIQ- has been confirmed
Track | CTDB Status
1 | (195/201) Accurately ripped
2 | (197/201) Accurately ripped, or (1/201) differs in 2288 samples @00:00:29-00:00:31
3 | (195/201) Accurately ripped, or (1/201) differs in 2349 samples @00:00:29-00:00:31
4 | (197/201) Accurately ripped, or (1/201) differs in 1708 samples @00:00:29-00:00:31
5 | (194/201) Accurately ripped, or (1/201) differs in 1904 samples @00:00:29-00:00:31
6 | (195/201) Accurately ripped, or (1/201) differs in 1916 samples @00:00:29-00:00:31
7 | (195/201) Accurately ripped, or (1/201) differs in 2315 samples @00:00:29-00:00:31
8 | (196/201) Accurately ripped
9 | (194/201) Accurately ripped, or (1/201) differs in 2005 samples @00:00:29-00:00:31
10 | (196/201) Accurately ripped, or (1/201) differs in 1994 samples @00:00:29-00:00:31


==== Log checksum F3F180888EBE00161C7375055FECA466E49DC01B7EA3EB37DC1D013106E742A0 ====

foobar2000 1.2 / Dynamic Range Meter 1.1.1
log date: 2018-04-09 18:49:47

––––––––––––––––––––––––––––––––––––––––
Analyzed: Bob Marley & The Wailers / Exodus
––––––––––––––––––––––––––––––––––––––––

DR Peak RMS Duration Track
––––––––––––––––––––––––––––––––––––––––
DR14 -0.90 dB -16.92 dB 3:28 01-Natural Mystic
DR13 -0.02 dB -14.90 dB 3:08 02-So Much Things To Say
DR14 -0.40 dB -16.36 dB 3:20 03-Guiltiness
DR13 -1.08 dB -15.87 dB 2:32 04-The Heathen
DR14 -0.10 dB -16.25 dB 7:35 05-Exodus
DR14 0.00 dB -14.74 dB 3:31 06-Jamming
DR13 -0.34 dB -15.60 dB 4:15 07-Waiting In Vain
DR12 0.00 dB -14.97 dB 3:39 08-Turn Your Lights Down Low
DR14 0.00 dB -15.44 dB 3:00 09-Three Little Birds
DR14 -0.05 dB -15.86 dB 2:51 10-One Love- People Get Ready
––––––––––––––––––––––––––––––––––––––––

Number of tracks: 10
Official DR value: DR14

Samplerate: 44100 Hz
Channels: 2
Bits per sample: 16
Bitrate: 855 kbps
Codec: FLAC
================================================================================

Bob Marley & The Wailers - Exodus (1977) Remastered 1990

Bob Marley & The Wailers - Exodus (1977) Remastered 1990