Subcategories
Tags
Language
Tags

Bobbie Gentry - Girl From Chickasaw County: The Complete Capitol Masters (2018)

Posted By: v3122
Bobbie Gentry - Girl From Chickasaw County: The Complete Capitol Masters (2018)

Bobbie Gentry - Girl From Chickasaw County: The Complete Capitol Masters (2018)
EAC | Flac(Image) + Cue + Log & MP3 CBR 320Kbps
8CD | Universal Music, 5383971 | ~ 2867 or 1246 Mb | Artwork(png) -> 1760 Mb
Country / Blues / Country Blues / Delta Blues / Country Rock / Folk Rock

Like her signature song "Ode to Billie Joe," Bobbie Gentry is an enigma by choice. "Ode to Billie Joe" deliberately leaves out details that would spell out the story and Gentry removed herself from public view sometime in the late '70s for reasons that have never been fully disclosed. Many have tried to track her down because her cult not only persisted into the 21st century, it even grew – so much so that an observer would be forgiven if they believed Gentry was something of an outsider artist instead of a mainstay on television who hosted a variety show of her own. There was a pair of worthy efforts to get to the heart of the Gentry mystery in the 2010s – Tara Murtha wrote an excellent 33 1/3 volume about 1967's Ode to Billie Joe, while the Gentry episode of Tyler Mahan Coe's podcast Cocaine & Rhinestones is enthralling – but the crowning jewel of that revival is The Girl from Chickasaw County: The Complete Capitol Masters, an eight-disc box set that contains everything she recorded for the label, including all seven of her albums, plus 75 unreleased tracks.

To listeners who only know Gentry through "Ode to Billie Joe" or perhaps her hit duets with Glen Campbell ("Let It Be Me," "All I Have to Do Is Dream") or "Fancy," the minor 1969 hit that Reba McEntire revived in 1991, this may seem like overkill, but a cursory listen of the first disc of The Girl from Chickasaw County will prove that false. What makes Gentry so compelling is how she straddled the divide between nascent Americana and show biz, rooting her music in the former while striving for the latter. Certainly, "Ode to Billie Joe" pulsates to the languid rhythms of the south, its eccentricity accentuated by its spectral arrangement, and several of her earliest records tap into this eccentric rhythm, including her version of Jim Ford's "Niki Hoeky." Gentry would keep circling back to this thick, swampy sound again and again, but she'd keep layering on strings, horns, and other studio accouterments that were in fact there from the beginning. All the while, she demonstrated an equal fascination with sentiment and spookiness, working a territory somewhere between Glen Campbell and Tom T. Hall ("Casket Vignette" is impossible to imagine without the latter), slowly moving into adult contemporary without ever losing her deep eccentricity. All the spare demos, overblown outtakes, and show-bizzy live tracks on The Girl from Chickasaw Country wind up emphasizing how Gentry effortlessly embraced these contradictions, her music gaining a richness as she simultaneously pandered and wandered. Much of the music embodies the excesses of its time – it's hard to see a record as mannered and elliptical as Patchwork being released at any point that wasn't 1971 – but even if it sounds tied to its time, it also exists outside of it; it's music that feels lush and haunting, saccharine and genuine, arty and authentic all at once. All of this can be gleaned from Gentry's individual ouvre, but the rarities deepen her work and add to the mystery, making The Girl from Chickasaw County a box set as endlessly beguiling as Bobbie Gentry herself.

by Stephen Thomas Erlewine, allmusic
Bobbie Gentry - Girl From Chickasaw County: The Complete Capitol Masters (2018)

Bobbie Gentry - Girl From Chickasaw County: The Complete Capitol Masters (2018):

Bobbie Gentry - Girl From Chickasaw County: The Complete Capitol Masters (2018)

Tracklist CD1 - 1967 Bobbie Gentry:

01 Mississippi Delta
02 I Saw An Angel Die
03 Chickasaw County Child
04 Sunday Best
05 Niki Hoeky
06 Papa, Woncha Let Me Go To Town With You?
07 Bugs
08 Hurry, Tuesday Child
09 Lazy Willie
10 Ode To Billie Joe
Bonus Tracks
11 The Seventh Son (Demo)
12 I Saw An Angel Die (Demo)
13 Niki Hoeky (Demo)
14 Papa, Woncha Let Me Go To Town With You? (Demo)
15 Hurry, Tuesday Child (Demo)
16 Mississippi Delta (Alternate Version)
17 Sunday Best (Alternate Take)
18 Show-Off (Stereo Version)
19 La Siepe
20 La Citta' E' Grande

Exact Audio Copy V1.3 from 2. September 2016

EAC extraction logfile from 16. February 2019, 17:54

Bobbie Gentry / Bobbie Gentry

Used drive : Optiarc DVD RW AD-7280S Adapter: 1 ID: 0

Read mode : Secure
Utilize accurate stream : Yes
Defeat audio cache : Yes
Make use of C2 pointers : No

Read offset correction : 48
Overread into Lead-In and Lead-Out : No
Fill up missing offset samples with silence : Yes
Delete leading and trailing silent blocks : No
Null samples used in CRC calculations : Yes
Used interface : Native Win32 interface for Win NT & 2000

Used output format : Internal WAV Routines
Sample format : 44.100 Hz; 16 Bit; Stereo


TOC of the extracted CD

Track | Start | Length | Start sector | End sector
––––––––––––––––––––––––––––-
1 | 0:00.00 | 3:05.74 | 0 | 13948
2 | 3:05.74 | 2:58.21 | 13949 | 27319
3 | 6:04.20 | 2:45.16 | 27320 | 39710
4 | 8:49.36 | 2:43.69 | 39711 | 52004
5 | 11:33.30 | 2:45.28 | 52005 | 64407
6 | 14:18.58 | 2:32.02 | 64408 | 75809
7 | 16:50.60 | 2:07.63 | 75810 | 85397
8 | 18:58.48 | 3:52.71 | 85398 | 102868
9 | 22:51.44 | 2:41.27 | 102869 | 114970
10 | 25:32.71 | 4:16.49 | 114971 | 134219
11 | 29:49.45 | 2:25.63 | 134220 | 145157
12 | 32:15.33 | 2:53.05 | 145158 | 158137
13 | 35:08.38 | 2:42.67 | 158138 | 170354
14 | 37:51.30 | 2:31.38 | 170355 | 181717
15 | 40:22.68 | 3:50.22 | 181718 | 198989
16 | 44:13.15 | 3:06.09 | 198990 | 212948
17 | 47:19.24 | 2:34.17 | 212949 | 224515
18 | 49:53.41 | 2:46.74 | 224516 | 237039
19 | 52:40.40 | 4:03.58 | 237040 | 255322
20 | 56:44.23 | 2:19.60 | 255323 | 265807


Range status and errors

Selected range

Filename C:\Users\Alex\Desktop\ALLexxess\Bobbie Gentry\2018 Girl From Chickasaw County (8CD Box Set Universal Music)\1967 Bobbie Gentry\Bobbie Gentry - Bobbie Gentry.wav

Peak level 100.0 %
Extraction speed 4.0 X
Range quality 99.9 %
Test CRC 413E3E0E
Copy CRC 413E3E0E
Copy OK

No errors occurred


AccurateRip summary

Track 1 accurately ripped (confidence 10) [61E301E0] (AR v2)
Track 2 accurately ripped (confidence 10) [E7C45702] (AR v2)
Track 3 accurately ripped (confidence 10) [6AAF9D7D] (AR v2)
Track 4 accurately ripped (confidence 10) [617C431B] (AR v2)
Track 5 accurately ripped (confidence 10) [BDF2DABA] (AR v2)
Track 6 accurately ripped (confidence 10) [1D74B40A] (AR v2)
Track 7 accurately ripped (confidence 10) [3B055918] (AR v2)
Track 8 accurately ripped (confidence 10) [E9B98D5B] (AR v2)
Track 9 accurately ripped (confidence 10) [D5154546] (AR v2)
Track 10 accurately ripped (confidence 10) [170FBE31] (AR v2)
Track 11 accurately ripped (confidence 10) [9EB46304] (AR v2)
Track 12 accurately ripped (confidence 10) [5747520D] (AR v2)
Track 13 accurately ripped (confidence 10) [1D043012] (AR v2)
Track 14 accurately ripped (confidence 10) [1A839D97] (AR v2)
Track 15 accurately ripped (confidence 10) [60CAEE15] (AR v2)
Track 16 accurately ripped (confidence 10) [95517DED] (AR v2)
Track 17 accurately ripped (confidence 10) [DE10B467] (AR v2)
Track 18 accurately ripped (confidence 9) [8E473487] (AR v2)
Track 19 accurately ripped (confidence 10) [AB8DF86A] (AR v2)
Track 20 accurately ripped (confidence 10) [45C12E4F] (AR v2)

All tracks accurately ripped

End of status report

–– CUETools DB Plugin V2.1.6

[CTDB TOCID: oN5jBDaxaN2_aRu8NygrN12NkEM-] found
Submit result: oN5jBDaxaN2_aRu8NygrN12NkEM- has been confirmed
Track | CTDB Status
1 | (22/22) Accurately ripped
2 | (22/22) Accurately ripped
3 | (22/22) Accurately ripped
4 | (22/22) Accurately ripped
5 | (22/22) Accurately ripped
6 | (22/22) Accurately ripped
7 | (22/22) Accurately ripped
8 | (22/22) Accurately ripped
9 | (22/22) Accurately ripped
10 | (22/22) Accurately ripped
11 | (22/22) Accurately ripped
12 | (22/22) Accurately ripped
13 | (22/22) Accurately ripped
14 | (22/22) Accurately ripped
15 | (22/22) Accurately ripped
16 | (22/22) Accurately ripped
17 | (21/22) Accurately ripped
18 | (22/22) Accurately ripped
19 | (22/22) Accurately ripped
20 | (19/22) Accurately ripped


==== Log checksum 6754DDE20592CD8B1EB5E16A1735C3AEA63E7C9757902325D038A76EDFED4DDC ====


Tracklist CD2 - 1968 The Delta Sweete:

01 Okolona River Bottom Band
02 Big Boss Man
03 Reunion
04 Parchman Farm
05 Mornin' Glory
06 Sermon
07 Tobacco Road
08 Penduli Pendulum
09 Jessye' Lisabeth
10 Refractions
11 Louisiana Man
12 Courtyard
Bonus Tracks
13 Seventh Son (Band Version)
14 Feelin' Good (Demo)
15 I Didn't Know (Demo)
16 Morning To Midnight (Demo)
17 Refractions (Demo)
18 Louisiana Man (Demo)
19 Sermon (Demo)
20 Mornin' Glory (Demo)
21 Jessye' Lisabeth (Demo)
22 Courtyard (Demo)
23 Louisiana Man (Live On The Tom Jones Show 1968)
24 Ode To Billie Joe (Live On The Tom Jones Show 1968)

Exact Audio Copy V1.3 from 2. September 2016

EAC extraction logfile from 16. February 2019, 16:42

Bobbie Gentry / The Delta Sweete

Used drive : Optiarc DVD RW AD-7280S Adapter: 1 ID: 0

Read mode : Secure
Utilize accurate stream : Yes
Defeat audio cache : Yes
Make use of C2 pointers : No

Read offset correction : 48
Overread into Lead-In and Lead-Out : No
Fill up missing offset samples with silence : Yes
Delete leading and trailing silent blocks : No
Null samples used in CRC calculations : Yes
Used interface : Native Win32 interface for Win NT & 2000

Used output format : Internal WAV Routines
Sample format : 44.100 Hz; 16 Bit; Stereo


TOC of the extracted CD

Track | Start | Length | Start sector | End sector
––––––––––––––––––––––––––––-
1 | 0:00.00 | 2:56.71 | 0 | 13270
2 | 2:56.71 | 3:00.25 | 13271 | 26795
3 | 5:57.21 | 2:37.34 | 26796 | 38604
4 | 8:34.55 | 3:12.19 | 38605 | 53023
5 | 11:46.74 | 3:09.37 | 53024 | 67235
6 | 14:56.36 | 2:33.67 | 67236 | 78777
7 | 17:30.28 | 2:51.03 | 78778 | 91605
8 | 20:21.31 | 1:55.25 | 91606 | 100255
9 | 22:16.56 | 3:03.30 | 100256 | 114010
10 | 25:20.11 | 2:28.64 | 114011 | 125174
11 | 27:49.00 | 2:39.55 | 125175 | 137154
12 | 30:28.55 | 2:58.11 | 137155 | 150515
13 | 33:26.66 | 2:52.59 | 150516 | 163474
14 | 36:19.50 | 3:21.58 | 163475 | 178607
15 | 39:41.33 | 3:03.72 | 178608 | 192404
16 | 42:45.30 | 3:29.65 | 192405 | 208144
17 | 46:15.20 | 2:30.36 | 208145 | 219430
18 | 48:45.56 | 2:20.37 | 219431 | 229967
19 | 51:06.18 | 2:24.57 | 229968 | 240824
20 | 53:31.00 | 3:04.05 | 240825 | 254629
21 | 56:35.05 | 3:12.42 | 254630 | 269071
22 | 59:47.47 | 2:54.17 | 269072 | 282138
23 | 62:41.64 | 3:24.45 | 282139 | 297483
24 | 66:06.34 | 5:16.70 | 297484 | 321253


Range status and errors

Selected range

Filename C:\Users\Alex\Desktop\ALLexxess\Bobbie Gentry\2018 Girl From Chickasaw County (8CD Box Set Universal Music)\1968 The Delta Sweete\Bobbie Gentry - The Delta Sweete.wav

Peak level 97.0 %
Extraction speed 4.6 X
Range quality 100.0 %
Test CRC F1669F40
Copy CRC F1669F40
Copy OK

No errors occurred


AccurateRip summary

Track 1 accurately ripped (confidence 10) [CF1CED0C] (AR v2)
Track 2 accurately ripped (confidence 10) [A57049EE] (AR v2)
Track 3 accurately ripped (confidence 10) [2FC95F26] (AR v2)
Track 4 accurately ripped (confidence 10) [8AD192ED] (AR v2)
Track 5 accurately ripped (confidence 10) [B7FB6841] (AR v2)
Track 6 accurately ripped (confidence 10) [B8D40110] (AR v2)
Track 7 accurately ripped (confidence 10) [49A51501] (AR v2)
Track 8 accurately ripped (confidence 10) [6D6A395F] (AR v2)
Track 9 accurately ripped (confidence 10) [29573DFC] (AR v2)
Track 10 accurately ripped (confidence 10) [50F0507E] (AR v2)
Track 11 accurately ripped (confidence 10) [D3966B90] (AR v2)
Track 12 accurately ripped (confidence 10) [968CA4A5] (AR v2)
Track 13 accurately ripped (confidence 10) [2723C42C] (AR v2)
Track 14 accurately ripped (confidence 10) [275CE8AB] (AR v2)
Track 15 accurately ripped (confidence 10) [9F416E2A] (AR v2)
Track 16 accurately ripped (confidence 10) [4752DD75] (AR v2)
Track 17 accurately ripped (confidence 10) [008FD5D9] (AR v2)
Track 18 accurately ripped (confidence 10) [1FD2404F] (AR v2)
Track 19 accurately ripped (confidence 10) [BC2E4AA8] (AR v2)
Track 20 accurately ripped (confidence 10) [11639997] (AR v2)
Track 21 accurately ripped (confidence 10) [DB43F4AD] (AR v2)
Track 22 accurately ripped (confidence 10) [BC4C37CD] (AR v2)
Track 23 accurately ripped (confidence 10) [EDD6A0F8] (AR v2)
Track 24 accurately ripped (confidence 10) [62DD3BBF] (AR v2)

All tracks accurately ripped

End of status report

–– CUETools DB Plugin V2.1.6

[CTDB TOCID: EatrMolwNpHuF66c37Iq1PmsftA-] found
Submit result: EatrMolwNpHuF66c37Iq1PmsftA- has been confirmed
Track | CTDB Status
1 | (21/21) Accurately ripped
2 | (21/21) Accurately ripped
3 | (21/21) Accurately ripped
4 | (21/21) Accurately ripped
5 | (21/21) Accurately ripped
6 | (21/21) Accurately ripped
7 | (21/21) Accurately ripped
8 | (21/21) Accurately ripped
9 | (21/21) Accurately ripped
10 | (21/21) Accurately ripped
11 | (21/21) Accurately ripped
12 | (21/21) Accurately ripped
13 | (21/21) Accurately ripped
14 | (21/21) Accurately ripped
15 | (21/21) Accurately ripped
16 | (21/21) Accurately ripped
17 | (21/21) Accurately ripped
18 | (20/21) Accurately ripped
19 | (20/21) Accurately ripped
20 | (21/21) Accurately ripped
21 | (21/21) Accurately ripped
22 | (21/21) Accurately ripped
23 | (20/21) Accurately ripped
24 | (19/21) Accurately ripped


==== Log checksum 9AAD94E80558297E46EBB5ED6E5038B513AE9CCE26B058560457F6324E3B4C3A ====


Tracklist CD3 - 1968 Local Gentry:

01 Sweete Peony
02 Casket Vignette
03 Come Away Melinda
04 The Fool On The Hill
05 Papa's Medicine Show
06 Ace Insurance Man
07 Recollection
08 Sittin' Pretty
09 Eleanor Rigby
10 Peaceful
11 Here, There And Everywhere
Bonus Tracks
12 Hushabye Mountain
13 Skip A Long Sam
14 Conspiracy Of Homer Jones (Unreleased Master)
15 Sweet Peony (Alternate Take)
16 Cotton Candy Sandman (Demo)
17 Hushabye Mountain (Demo)

Exact Audio Copy V1.3 from 2. September 2016

EAC extraction logfile from 16. February 2019, 15:36

Bobbie Gentrry / Local Gentry

Used drive : PLEXTOR BD-R PX-B950SA Adapter: 1 ID: 1

Read mode : Secure
Utilize accurate stream : Yes
Defeat audio cache : Yes
Make use of C2 pointers : No

Read offset correction : 6
Overread into Lead-In and Lead-Out : No
Fill up missing offset samples with silence : Yes
Delete leading and trailing silent blocks : No
Null samples used in CRC calculations : Yes
Used interface : Native Win32 interface for Win NT & 2000

Used output format : Internal WAV Routines
Sample format : 44.100 Hz; 16 Bit; Stereo


TOC of the extracted CD

Track | Start | Length | Start sector | End sector
––––––––––––––––––––––––––––-
1 | 0:00.00 | 2:27.63 | 0 | 11087
2 | 2:27.63 | 2:32.49 | 11088 | 22536
3 | 5:00.37 | 3:21.66 | 22537 | 37677
4 | 8:22.28 | 3:45.03 | 37678 | 54555
5 | 12:07.31 | 3:48.14 | 54556 | 71669
6 | 15:55.45 | 3:32.28 | 71670 | 87597
7 | 19:27.73 | 2:07.62 | 87598 | 97184
8 | 21:35.60 | 3:20.72 | 97185 | 112256
9 | 24:56.57 | 2:29.29 | 112257 | 123460
10 | 27:26.11 | 2:51.57 | 123461 | 136342
11 | 30:17.68 | 2:31.72 | 136343 | 147739
12 | 32:49.65 | 2:48.06 | 147740 | 160345
13 | 35:37.71 | 2:39.00 | 160346 | 172270
14 | 38:16.71 | 3:34.04 | 172271 | 188324
15 | 41:51.00 | 2:26.47 | 188325 | 199321
16 | 44:17.47 | 2:06.23 | 199322 | 208794
17 | 46:23.70 | 3:02.61 | 208795 | 222505


Range status and errors

Selected range

Filename C:\Users\Alex\Desktop\ALLexxess\Bobbie Gentry\2018 Girl From Chickasaw County (8CD Box Set Universal Music)\1968 Local Gentry\Bobbie Gentrry - Local Gentry.wav

Peak level 96.2 %
Extraction speed 5.6 X
Range quality 99.9 %
Test CRC E27A6B3B
Copy CRC E27A6B3B
Copy OK

No errors occurred


AccurateRip summary

Track 1 accurately ripped (confidence 9) [6FCDEE15] (AR v2)
Track 2 accurately ripped (confidence 9) [9658F52A] (AR v2)
Track 3 accurately ripped (confidence 9) [31734341] (AR v2)
Track 4 accurately ripped (confidence 9) [FEF94E51] (AR v2)
Track 5 accurately ripped (confidence 9) [DAE598A9] (AR v2)
Track 6 accurately ripped (confidence 9) [883426B4] (AR v2)
Track 7 accurately ripped (confidence 9) [E7D3BF0A] (AR v2)
Track 8 accurately ripped (confidence 9) [BF8457BF] (AR v2)
Track 9 accurately ripped (confidence 9) [F498FBA1] (AR v2)
Track 10 accurately ripped (confidence 9) [BF294AC3] (AR v2)
Track 11 accurately ripped (confidence 9) [EF3D3E58] (AR v2)
Track 12 accurately ripped (confidence 9) [3B2E4AB4] (AR v2)
Track 13 accurately ripped (confidence 9) [CF66401A] (AR v2)
Track 14 accurately ripped (confidence 9) [34384032] (AR v2)
Track 15 accurately ripped (confidence 9) [6EC50E64] (AR v2)
Track 16 accurately ripped (confidence 9) [C3918565] (AR v2)
Track 17 accurately ripped (confidence 9) [F314279D] (AR v2)

All tracks accurately ripped

End of status report

–– CUETools DB Plugin V2.1.6

[CTDB TOCID: .NJpWd_v1q2QobUSLAxthM5Rlik-] found
Submit result: .NJpWd_v1q2QobUSLAxthM5Rlik- has been confirmed
Track | CTDB Status
1 | (22/22) Accurately ripped
2 | (22/22) Accurately ripped
3 | (22/22) Accurately ripped
4 | (22/22) Accurately ripped
5 | (22/22) Accurately ripped
6 | (22/22) Accurately ripped
7 | (22/22) Accurately ripped
8 | (22/22) Accurately ripped
9 | (22/22) Accurately ripped
10 | (22/22) Accurately ripped
11 | (22/22) Accurately ripped
12 | (22/22) Accurately ripped
13 | (22/22) Accurately ripped
14 | (22/22) Accurately ripped
15 | (22/22) Accurately ripped
16 | (22/22) Accurately ripped
17 | (22/22) Accurately ripped


==== Log checksum D56E8801E58C897BADE30160D3AB530C942C372775DA7C6BC5BEDB5316268C70 ====


Tracklist CD4 - 1968 Bobbie Gentry & Glen Campbell:

01 Less Of Me
02 Little Green Apples
03 Gentle On My Mind
04 Heart To Heart Talk
05 My Elusive Dreams
06 (It's Only Your) Imagination
07 Mornin' Glory
08 Terrible Tangled Web
09 Sunday Mornin'
10 Let It Be Me
11 Scarborough Fair / Canticle
Bonus Tracks
12 All I Have To Do Is Dream
13 Walk Right Back
14 Sunday Mornin' (Alternate Version)
15 Let It Be Me (Without Strings)
16 Scarborough Fair / Canticle (Without Strings)
17 Love Took My Heart And Mashed That Sucker Flat (Duet With Kelly Gordon)
18 Fool On The Hill (Japanese Version)
19 No Me Quiero Enamorar (Spanish Version I'll Never Fall In Love Again)
20 En Todas Partes (Spanish Version Here There And Everywhere)

Exact Audio Copy V1.3 from 2. September 2016

EAC extraction logfile from 16. February 2019, 10:10

Bobbie Gentry & Glen Campbell / Bobbie Gentry & Glen Campbell

Used drive : PLEXTOR BD-R PX-B950SA Adapter: 1 ID: 1

Read mode : Secure
Utilize accurate stream : Yes
Defeat audio cache : Yes
Make use of C2 pointers : No

Read offset correction : 6
Overread into Lead-In and Lead-Out : No
Fill up missing offset samples with silence : Yes
Delete leading and trailing silent blocks : No
Null samples used in CRC calculations : Yes
Used interface : Native Win32 interface for Win NT & 2000

Used output format : Internal WAV Routines
Sample format : 44.100 Hz; 16 Bit; Stereo


TOC of the extracted CD

Track | Start | Length | Start sector | End sector
––––––––––––––––––––––––––––-
1 | 0:00.00 | 2:08.00 | 0 | 9599
2 | 2:08.00 | 3:12.00 | 9600 | 23999
3 | 5:20.00 | 3:07.39 | 24000 | 38063
4 | 8:27.39 | 2:52.48 | 38064 | 51011
5 | 11:20.12 | 3:10.69 | 51012 | 65330
6 | 14:31.06 | 1:49.29 | 65331 | 73534
7 | 16:20.35 | 2:52.50 | 73535 | 86484
8 | 19:13.10 | 2:02.00 | 86485 | 95634
9 | 21:15.10 | 2:30.00 | 95635 | 106884
10 | 23:45.10 | 2:03.06 | 106885 | 116115
11 | 25:48.16 | 3:18.33 | 116116 | 130998
12 | 29:06.49 | 2:31.70 | 130999 | 142393
13 | 31:38.44 | 2:17.13 | 142394 | 152681
14 | 33:55.57 | 2:27.71 | 152682 | 163777
15 | 36:23.53 | 2:03.61 | 163778 | 173063
16 | 38:27.39 | 3:17.25 | 173064 | 187863
17 | 41:44.64 | 2:13.42 | 187864 | 197880
18 | 43:58.31 | 3:45.74 | 197881 | 214829
19 | 47:44.30 | 2:53.24 | 214830 | 227828
20 | 50:37.54 | 2:18.06 | 227829 | 238184


Range status and errors

Selected range

Filename C:\Users\Alex\Desktop\ALLexxess\Bobbie Gentry\2018 Girl From Chickasaw County (8CD Box Set Universal Music)\1968 Bobbie Gentry & Glen Campbell\Bobbie Gentry & Glen Campbell - Bobbie Gentry & Glen Campbell.wav

Peak level 95.3 %
Extraction speed 3.3 X
Range quality 99.9 %
Test CRC 15B4737B
Copy CRC 15B4737B
Copy OK

No errors occurred


AccurateRip summary

Track 1 accurately ripped (confidence 9) [4ACAE34C] (AR v2)
Track 2 accurately ripped (confidence 8) [22C777F1] (AR v2)
Track 3 accurately ripped (confidence 9) [7D1645BB] (AR v2)
Track 4 accurately ripped (confidence 9) [AD67B03F] (AR v2)
Track 5 accurately ripped (confidence 9) [964B1699] (AR v2)
Track 6 accurately ripped (confidence 9) [AFEA3EE6] (AR v2)
Track 7 accurately ripped (confidence 9) [9A419C34] (AR v2)
Track 8 accurately ripped (confidence 9) [9F984D00] (AR v2)
Track 9 accurately ripped (confidence 9) [7D342BF9] (AR v2)
Track 10 accurately ripped (confidence 9) [8EE6B68E] (AR v2)
Track 11 accurately ripped (confidence 9) [F230F6CC] (AR v2)
Track 12 accurately ripped (confidence 9) [617F3454] (AR v2)
Track 13 accurately ripped (confidence 9) [CD94DF9B] (AR v2)
Track 14 accurately ripped (confidence 9) [BFAEA40B] (AR v2)
Track 15 accurately ripped (confidence 9) [A248E895] (AR v2)
Track 16 accurately ripped (confidence 9) [D86F7FCA] (AR v2)
Track 17 accurately ripped (confidence 9) [4C379F91] (AR v2)
Track 18 accurately ripped (confidence 9) [1B0A3973] (AR v2)
Track 19 accurately ripped (confidence 9) [BF808305] (AR v2)
Track 20 accurately ripped (confidence 9) [C404E66D] (AR v2)

All tracks accurately ripped

End of status report

–– CUETools DB Plugin V2.1.6

[CTDB TOCID: UJdnxnuoaHKETj1L28iCjzjNaVU-] found
Submit result: UJdnxnuoaHKETj1L28iCjzjNaVU- has been confirmed
Track | CTDB Status
1 | (22/22) Accurately ripped
2 | (22/22) Accurately ripped
3 | (22/22) Accurately ripped
4 | (22/22) Accurately ripped
5 | (22/22) Accurately ripped
6 | (22/22) Accurately ripped
7 | (22/22) Accurately ripped
8 | (22/22) Accurately ripped
9 | (22/22) Accurately ripped
10 | (22/22) Accurately ripped
11 | (22/22) Accurately ripped
12 | (22/22) Accurately ripped
13 | (22/22) Accurately ripped
14 | (22/22) Accurately ripped
15 | (22/22) Accurately ripped
16 | (22/22) Accurately ripped
17 | (22/22) Accurately ripped
18 | (22/22) Accurately ripped
19 | (22/22) Accurately ripped
20 | (22/22) Accurately ripped


==== Log checksum 1CBCBF4BF4FA93601F9B2656AF536F10CB52BE719B06E34840B4DBCAB84C5A7B ====


Tracklist CD5 - 1969 Touch 'Em With Love:

01 Touch 'Em With Love
02 Greyhound Goin' Somewhere
03 Natural To Be Gone
04 Seasons Come, Seasons Go
05 Glory Hallelujah, How They'll Sing
06 I Wouldn't Be Surprised
07 Son Of A Preacher Man
08 Where's The Playground, Johnny
09 I'll Never Fall In Love Again
10 You've Made Me So Very Happy
Bonus Tracks
11 More Today Than Yesterday
12 Spinning Wheel
13 Touch 'Em With Love (Alternate Stereo Take)
14 Glory Hallelujah, How They'll Sing (Alternate Take)
15 Seasons Come, Seasons Go (Demo)
16 Suppertime
17 God Bless The Child
18 Since I Fell For You
19 Save Your Love For Me
20 Here's That Rainy Day
21 Stormy
22 This Girls In Love With You
23 Windows Of The World

Exact Audio Copy V1.3 from 2. September 2016

EAC extraction logfile from 16. February 2019, 9:27

Bobbie Gentry / Touch 'Em With Love

Used drive : Optiarc DVD RW AD-7280S Adapter: 1 ID: 0

Read mode : Secure
Utilize accurate stream : Yes
Defeat audio cache : Yes
Make use of C2 pointers : No

Read offset correction : 48
Overread into Lead-In and Lead-Out : No
Fill up missing offset samples with silence : Yes
Delete leading and trailing silent blocks : No
Null samples used in CRC calculations : Yes
Used interface : Native Win32 interface for Win NT & 2000

Used output format : Internal WAV Routines
Sample format : 44.100 Hz; 16 Bit; Stereo


TOC of the extracted CD

Track | Start | Length | Start sector | End sector
––––––––––––––––––––––––––––-
1 | 0:00.00 | 2:02.74 | 0 | 9223
2 | 2:02.74 | 2:23.56 | 9224 | 20004
3 | 4:26.55 | 2:19.34 | 20005 | 30463
4 | 6:46.14 | 2:49.56 | 30464 | 43194
5 | 9:35.70 | 2:32.60 | 43195 | 54654
6 | 12:08.55 | 3:22.73 | 54655 | 69877
7 | 15:31.53 | 2:04.20 | 69878 | 79197
8 | 17:35.73 | 2:29.68 | 79198 | 90440
9 | 20:05.66 | 2:52.29 | 90441 | 103369
10 | 22:58.20 | 3:19.00 | 103370 | 118294
11 | 26:17.20 | 2:32.70 | 118295 | 129764
12 | 28:50.15 | 2:39.42 | 129765 | 141731
13 | 31:29.57 | 2:13.68 | 141732 | 151774
14 | 33:43.50 | 2:43.44 | 151775 | 164043
15 | 36:27.19 | 2:51.12 | 164044 | 176880
16 | 39:18.31 | 3:08.44 | 176881 | 191024
17 | 42:27.00 | 2:59.31 | 191025 | 204480
18 | 45:26.31 | 2:56.73 | 204481 | 217753
19 | 48:23.29 | 3:45.12 | 217754 | 234640
20 | 52:08.41 | 2:39.70 | 234641 | 246635
21 | 54:48.36 | 3:28.46 | 246636 | 262281
22 | 58:17.07 | 3:11.42 | 262282 | 276648
23 | 61:28.49 | 2:57.26 | 276649 | 289949


Range status and errors

Selected range

Filename C:\Users\Alex\Desktop\ALLexxess\Bobbie Gentry\2018 Girl From Chickasaw County (8CD Box Set Universal Music)\1969 Touch 'Em With Love\Bobbie Gentry - Touch 'Em With Love.wav

Peak level 95.7 %
Extraction speed 4.3 X
Range quality 100.0 %
Test CRC B879CC89
Copy CRC B879CC89
Copy OK

No errors occurred


AccurateRip summary

Track 1 accurately ripped (confidence 8) [E206EB22] (AR v2)
Track 2 accurately ripped (confidence 8) [0376F234] (AR v2)
Track 3 accurately ripped (confidence 8) [B0588F9E] (AR v2)
Track 4 accurately ripped (confidence 8) [9CA092C1] (AR v2)
Track 5 accurately ripped (confidence 8) [09913394] (AR v2)
Track 6 accurately ripped (confidence 8) [580E8541] (AR v2)
Track 7 accurately ripped (confidence 8) [9F1AE0DB] (AR v2)
Track 8 accurately ripped (confidence 8) [2AD62438] (AR v2)
Track 9 accurately ripped (confidence 8) [C6259A48] (AR v2)
Track 10 accurately ripped (confidence 8) [91EE509B] (AR v2)
Track 11 accurately ripped (confidence 8) [40280F49] (AR v2)
Track 12 accurately ripped (confidence 8) [4069E014] (AR v2)
Track 13 accurately ripped (confidence 8) [6C02E442] (AR v2)
Track 14 accurately ripped (confidence 8) [FC6AF29B] (AR v2)
Track 15 accurately ripped (confidence 8) [30779FE7] (AR v2)
Track 16 accurately ripped (confidence 8) [3749CF09] (AR v2)
Track 17 accurately ripped (confidence 8) [0FB55F34] (AR v2)
Track 18 accurately ripped (confidence 8) [B32B9CA5] (AR v2)
Track 19 accurately ripped (confidence 8) [DD5208EE] (AR v2)
Track 20 accurately ripped (confidence 8) [B1A7A0A9] (AR v2)
Track 21 accurately ripped (confidence 8) [357AA369] (AR v2)
Track 22 accurately ripped (confidence 8) [692E9A0D] (AR v2)
Track 23 accurately ripped (confidence 9) [6E8EBC5F] (AR v2)

All tracks accurately ripped

End of status report

–– CUETools DB Plugin V2.1.6

[CTDB TOCID: N35BoB8ZhVi_jKIofm3BsdtZ_zI-] found
Submit result: N35BoB8ZhVi_jKIofm3BsdtZ_zI- has been confirmed
Track | CTDB Status
1 | (22/22) Accurately ripped
2 | (22/22) Accurately ripped
3 | (22/22) Accurately ripped
4 | (22/22) Accurately ripped
5 | (22/22) Accurately ripped
6 | (22/22) Accurately ripped
7 | (22/22) Accurately ripped
8 | (22/22) Accurately ripped
9 | (22/22) Accurately ripped
10 | (22/22) Accurately ripped
11 | (22/22) Accurately ripped
12 | (22/22) Accurately ripped
13 | (22/22) Accurately ripped
14 | (22/22) Accurately ripped
15 | (22/22) Accurately ripped
16 | (22/22) Accurately ripped
17 | (22/22) Accurately ripped
18 | (22/22) Accurately ripped
19 | (22/22) Accurately ripped
20 | (22/22) Accurately ripped
21 | (22/22) Accurately ripped
22 | (22/22) Accurately ripped
23 | (22/22) Accurately ripped


==== Log checksum B31DBC93DF5E56AB2636E933DAE2622703CCCFC539356FB12B385D8DFA910705 ====


Tracklist CD6 - 1970 Fancy:

01 Fancy
02 Delta Man
03 Something In The Way He Moves
04 Find 'Em, Fool 'Em And Forget About 'Em
05 He Made A Woman Out Of Me
06 Raindrops Keep Falling On My Head
07 If You Gotta Make A Fool Of Somebody
08 Rainmaker
09 Wedding Bell Blues
Bonus Tracks
10 In The Ghetto
11 Fancy (Mono Radio Edit)
12 Apartment 21
13 Away In A Manger
14 Scarlett Ribbons
15 Circle 'Round The Sun
16 Raindrops Keep Falling On My Head (Alternate Take)
17 Wedding Bell Blues (Alternate Take)
18 Apartment 21 (Without Strings)
19 Scarlett Ribbons (Alternate Version)
20 If You Gotta Make A Fool Of Somebody (Live On Top Of The Pops 1970)

Exact Audio Copy V1.3 from 2. September 2016

EAC extraction logfile from 16. February 2019, 7:26

Bobbie Gentry / Fancy

Used drive : PLEXTOR BD-R PX-B950SA Adapter: 1 ID: 1

Read mode : Secure
Utilize accurate stream : Yes
Defeat audio cache : Yes
Make use of C2 pointers : No

Read offset correction : 6
Overread into Lead-In and Lead-Out : No
Fill up missing offset samples with silence : Yes
Delete leading and trailing silent blocks : No
Null samples used in CRC calculations : Yes
Used interface : Native Win32 interface for Win NT & 2000

Used output format : Internal WAV Routines
Sample format : 44.100 Hz; 16 Bit; Stereo


TOC of the extracted CD

Track | Start | Length | Start sector | End sector
––––––––––––––––––––––––––––-
1 | 0:00.00 | 4:14.37 | 0 | 19086
2 | 4:14.37 | 3:02.00 | 19087 | 32736
3 | 7:16.37 | 2:33.38 | 32737 | 44249
4 | 9:50.00 | 2:37.53 | 44250 | 56077
5 | 12:27.53 | 2:32.15 | 56078 | 67492
6 | 14:59.68 | 3:08.40 | 67493 | 81632
7 | 18:08.33 | 2:20.49 | 81633 | 92181
8 | 20:29.07 | 2:39.00 | 92182 | 104106
9 | 23:08.07 | 3:13.28 | 104107 | 118609
10 | 26:21.35 | 2:49.31 | 118610 | 131315
11 | 29:10.66 | 3:15.62 | 131316 | 146002
12 | 32:26.53 | 3:18.70 | 146003 | 160922
13 | 35:45.48 | 2:37.25 | 160923 | 172722
14 | 38:22.73 | 2:36.54 | 172723 | 184476
15 | 40:59.52 | 3:01.48 | 184477 | 198099
16 | 44:01.25 | 2:39.46 | 198100 | 210070
17 | 46:40.71 | 3:06.72 | 210071 | 224092
18 | 49:47.68 | 3:19.13 | 224093 | 239030
19 | 53:07.06 | 2:36.66 | 239031 | 250796
20 | 55:43.72 | 2:04.14 | 250797 | 260110


Range status and errors

Selected range

Filename C:\Users\Alex\Desktop\ALLexxess\Bobbie Gentry\2018 Girl From Chickasaw County (8CD Box Set Universal Music)\1970 Fancy\Bobbie Gentry - Fancy.wav

Peak level 95.4 %
Extraction speed 3.3 X
Range quality 100.0 %
Test CRC 0597AF8A
Copy CRC 0597AF8A
Copy OK

No errors occurred


AccurateRip summary

Track 1 accurately ripped (confidence 9) [1B551DB9] (AR v2)
Track 2 accurately ripped (confidence 9) [883ED734] (AR v2)
Track 3 accurately ripped (confidence 9) [E1C7EA14] (AR v2)
Track 4 accurately ripped (confidence 9) [F7F89645] (AR v2)
Track 5 accurately ripped (confidence 9) [FFCE4A9D] (AR v2)
Track 6 accurately ripped (confidence 9) [9E5ECC17] (AR v2)
Track 7 accurately ripped (confidence 9) [3079100B] (AR v2)
Track 8 accurately ripped (confidence 9) [E876D12F] (AR v2)
Track 9 accurately ripped (confidence 9) [49F5B458] (AR v2)
Track 10 accurately ripped (confidence 9) [96AF96AE] (AR v2)
Track 11 accurately ripped (confidence 9) [D0C82C68] (AR v2)
Track 12 accurately ripped (confidence 9) [95CB9E3A] (AR v2)
Track 13 accurately ripped (confidence 9) [5FD15BF9] (AR v2)
Track 14 accurately ripped (confidence 9) [E4C07184] (AR v2)
Track 15 accurately ripped (confidence 9) [BB9A56BB] (AR v2)
Track 16 accurately ripped (confidence 8) [B77C22ED] (AR v2)
Track 17 accurately ripped (confidence 9) [EAC21381] (AR v2)
Track 18 accurately ripped (confidence 8) [E018B582] (AR v2)
Track 19 accurately ripped (confidence 9) [D80CDB77] (AR v2)
Track 20 accurately ripped (confidence 9) [68FC2ED0] (AR v2)

All tracks accurately ripped

End of status report

–– CUETools DB Plugin V2.1.6

[CTDB TOCID: HZ6_aI77wjj.TnvogE7zTLXcClw-] found
Submit result: HZ6_aI77wjj.TnvogE7zTLXcClw- has been confirmed
Track | CTDB Status
1 | (19/19) Accurately ripped
2 | (19/19) Accurately ripped
3 | (19/19) Accurately ripped
4 | (19/19) Accurately ripped
5 | (19/19) Accurately ripped
6 | (19/19) Accurately ripped
7 | (19/19) Accurately ripped
8 | (19/19) Accurately ripped
9 | (19/19) Accurately ripped
10 | (19/19) Accurately ripped
11 | (19/19) Accurately ripped
12 | (19/19) Accurately ripped
13 | (19/19) Accurately ripped
14 | (19/19) Accurately ripped
15 | (19/19) Accurately ripped
16 | (19/19) Accurately ripped
17 | (19/19) Accurately ripped
18 | (19/19) Accurately ripped
19 | (19/19) Accurately ripped
20 | (19/19) Accurately ripped


==== Log checksum 5CDBB35F68D005ABE34C6BAF2B79237B25CCDFB3493C7305D346A54911DE31DB ====


Tracklist CD7 - 1971 Patchwork:

01 Benjamin
02 Interlude 1
03 Marigolds And Tangerines
04 Interlude 2
05 Billy The Kid
06 Interlude 3
07 Beverly
08 Interlude 4
09 Miss Clara / Azusa Sue
10 Interlude 5
11 But I Can't Get Back
12 Jeremiah
13 Interlude 6
14 Belinda
15 Mean Stepmama Blues
16 Your Number One Fan
17 Interlude 7
18 Somebody Like Me
19 Lookin' In
Bonus Tracks
20 Smoke
21 Joanne
22 Salome Smith And The Amazing Dancing Bear
23 Benjamin (Alternate Take)
24 Belinda (Alternate Version)
25 Smoke (Demo)
26 The Girl From Cincinnati
27 You And Me Together

Exact Audio Copy V1.3 from 2. September 2016

EAC extraction logfile from 15. February 2019, 20:29

Bobbie Gentry / Patchwork

Used drive : Optiarc DVD RW AD-7280S Adapter: 1 ID: 0

Read mode : Secure
Utilize accurate stream : Yes
Defeat audio cache : Yes
Make use of C2 pointers : No

Read offset correction : 48
Overread into Lead-In and Lead-Out : No
Fill up missing offset samples with silence : Yes
Delete leading and trailing silent blocks : No
Null samples used in CRC calculations : Yes
Used interface : Native Win32 interface for Win NT & 2000

Used output format : Internal WAV Routines
Sample format : 44.100 Hz; 16 Bit; Stereo


TOC of the extracted CD

Track | Start | Length | Start sector | End sector
––––––––––––––––––––––––––––-
1 | 0:00.00 | 3:41.35 | 0 | 16609
2 | 3:41.35 | 0:40.54 | 16610 | 19663
3 | 4:22.14 | 2:07.02 | 19664 | 29190
4 | 6:29.16 | 0:36.62 | 29191 | 31952
5 | 7:06.03 | 2:03.12 | 31953 | 41189
6 | 9:09.15 | 0:37.46 | 41190 | 44010
7 | 9:46.61 | 3:06.22 | 44011 | 57982
8 | 12:53.08 | 0:42.52 | 57983 | 61184
9 | 13:35.60 | 4:21.16 | 61185 | 80775
10 | 17:57.01 | 0:21.70 | 80776 | 82420
11 | 18:18.71 | 3:31.39 | 82421 | 98284
12 | 21:50.35 | 5:23.06 | 98285 | 122515
13 | 27:13.41 | 0:52.14 | 122516 | 126429
14 | 28:05.55 | 4:05.74 | 126430 | 144878
15 | 32:11.54 | 3:58.45 | 144879 | 162773
16 | 36:10.24 | 2:33.40 | 162774 | 174288
17 | 38:43.64 | 0:20.71 | 174289 | 175859
18 | 39:04.60 | 3:25.36 | 175860 | 191270
19 | 42:30.21 | 4:39.39 | 191271 | 212234
20 | 47:09.60 | 2:58.69 | 212235 | 225653
21 | 50:08.54 | 3:17.73 | 225654 | 240501
22 | 53:26.52 | 2:16.62 | 240502 | 250763
23 | 55:43.39 | 3:31.35 | 250764 | 266623
24 | 59:14.74 | 4:05.34 | 266624 | 285032
25 | 63:20.33 | 3:03.25 | 285033 | 298782
26 | 66:23.58 | 3:30.30 | 298783 | 314562
27 | 69:54.13 | 3:58.44 | 314563 | 332456


Range status and errors

Selected range

Filename C:\Users\Alex\Desktop\ALLexxess\Bobbie Gentry\2018 Girl From Chickasaw County (8CD Box Set Universal Music)\1971 Patchwork\Bobbie Gentry - Patchwork.wav

Peak level 100.0 %
Extraction speed 4.6 X
Range quality 100.0 %
Test CRC 29AA9458
Copy CRC 29AA9458
Copy OK

No errors occurred


AccurateRip summary

Track 1 accurately ripped (confidence 8) [49742A1D] (AR v2)
Track 2 accurately ripped (confidence 8) [0723CEEF] (AR v2)
Track 3 accurately ripped (confidence 8) [A27EB64A] (AR v2)
Track 4 accurately ripped (confidence 8) [F3CA5687] (AR v2)
Track 5 accurately ripped (confidence 8) [BBD7592C] (AR v2)
Track 6 accurately ripped (confidence 8) [CC62F0F1] (AR v2)
Track 7 accurately ripped (confidence 8) [DA26362C] (AR v2)
Track 8 accurately ripped (confidence 8) [81245924] (AR v2)
Track 9 accurately ripped (confidence 8) [BC1AA988] (AR v2)
Track 10 accurately ripped (confidence 8) [9DCDFBEE] (AR v2)
Track 11 accurately ripped (confidence 8) [96F942F2] (AR v2)
Track 12 accurately ripped (confidence 8) [B46BDE56] (AR v2)
Track 13 accurately ripped (confidence 8) [60BE2462] (AR v2)
Track 14 accurately ripped (confidence 8) [16740365] (AR v2)
Track 15 accurately ripped (confidence 8) [7D34562D] (AR v2)
Track 16 accurately ripped (confidence 8) [DBF2B117] (AR v2)
Track 17 accurately ripped (confidence 8) [65E68C4C] (AR v2)
Track 18 accurately ripped (confidence 8) [38294475] (AR v2)
Track 19 accurately ripped (confidence 8) [24C24F0F] (AR v2)
Track 20 accurately ripped (confidence 8) [BA399637] (AR v2)
Track 21 accurately ripped (confidence 8) [88A83904] (AR v2)
Track 22 accurately ripped (confidence 8) [337C3054] (AR v2)
Track 23 accurately ripped (confidence 8) [237899BF] (AR v2)
Track 24 accurately ripped (confidence 8) [2092AAEF] (AR v2)
Track 25 accurately ripped (confidence 8) [B5C855EF] (AR v2)
Track 26 accurately ripped (confidence 8) [59B3F9EA] (AR v2)
Track 27 accurately ripped (confidence 8) [B5B85B34] (AR v2)

All tracks accurately ripped

End of status report

–– CUETools DB Plugin V2.1.6

[CTDB TOCID: z8HtISxqguoSGQ5g9l_zNF2razA-] found
Submit result: z8HtISxqguoSGQ5g9l_zNF2razA- has been confirmed
Track | CTDB Status
1 | (21/21) Accurately ripped
2 | (21/21) Accurately ripped
3 | (21/21) Accurately ripped
4 | (21/21) Accurately ripped
5 | (21/21) Accurately ripped
6 | (21/21) Accurately ripped
7 | (21/21) Accurately ripped
8 | (21/21) Accurately ripped
9 | (21/21) Accurately ripped
10 | (21/21) Accurately ripped
11 | (21/21) Accurately ripped
12 | (21/21) Accurately ripped
13 | (21/21) Accurately ripped
14 | (21/21) Accurately ripped
15 | (21/21) Accurately ripped
16 | (21/21) Accurately ripped
17 | (21/21) Accurately ripped
18 | (21/21) Accurately ripped
19 | (21/21) Accurately ripped
20 | (21/21) Accurately ripped
21 | (21/21) Accurately ripped
22 | (21/21) Accurately ripped
23 | (21/21) Accurately ripped
24 | (21/21) Accurately ripped
25 | (21/21) Accurately ripped
26 | (20/21) Accurately ripped
27 | (21/21) Accurately ripped


==== Log checksum 8E6749D5699B0FE01465655C7AC368DFBA6EFED27C96D954B8B6391BE42EEBEF ====


Tracklist CD8 - 2018 Live At The BBC:

01 Mississippi Delta (Live At The BBC 1968)
02 Papa Won't You Let Me Go To Town With You (Live At The BBC 1968)
03 I Saw An Angel Die (Live At The BBC 1968)
04 My Dog Sargent (Live At The BBC 1968)
05 Ode To Billie Joe (Live At The BBC 1968)
06 Mornin Glory (Live At The BBC 1968)
07 Sunday Best (Live At The BBC 1968)
08 Hurry Tuesday Child (Live At The BBC 1968)
09 Nikki Hokey / Barefootin' (Live At The BBC 1968)
10 Penduli Pendulum (Live At The BBC 1968)
11 Ace Insurance Man (Live At The BBC 1968)
12 Chickasaw County Child (Live At The BBC 1968)
13 Recollection (Live At The BBC 1969)
14 Sweet Peony (Live At The BBC 1969)
15 Refractions (Live At The BBC 1969)
16 Greyhound Goin' Somewhere (Live At The BBC 1969)
17 Cotton Candy Sandman (Live At The BBC 1969)
18 Open Your Window (Live At The BBC 1971)
19 Mother Nature's Son (Live At The BBC 1971)
20 Mr Bojangles (Live At The BBC 1971)
21 Your Number One Fan (Live At The BBC 1971)
22 He Made A Woman Out Of Me (Live At The BBC 1971)
23 Billy The Kid (Live At The BBC 1971)
24 Wailing Of The Willow (Live At The BBC 1971)
25 Belinda (Live At The BBC 1971)
26 Circle 'Round The Sun (Live At The BBC 1971)

Exact Audio Copy V1.3 from 2. September 2016

EAC extraction logfile from 15. February 2019, 19:38

Bobbie Gentry / Live At The BBC

Used drive : Optiarc DVD RW AD-7280S Adapter: 1 ID: 0

Read mode : Secure
Utilize accurate stream : Yes
Defeat audio cache : Yes
Make use of C2 pointers : No

Read offset correction : 48
Overread into Lead-In and Lead-Out : No
Fill up missing offset samples with silence : Yes
Delete leading and trailing silent blocks : No
Null samples used in CRC calculations : Yes
Used interface : Native Win32 interface for Win NT & 2000

Used output format : Internal WAV Routines
Sample format : 44.100 Hz; 16 Bit; Stereo


TOC of the extracted CD

Track | Start | Length | Start sector | End sector
––––––––––––––––––––––––––––-
1 | 0:00.00 | 3:03.45 | 0 | 13769
2 | 3:03.45 | 2:52.00 | 13770 | 26669
3 | 5:55.45 | 3:30.27 | 26670 | 42446
4 | 9:25.72 | 1:12.52 | 42447 | 47898
5 | 10:38.49 | 4:45.53 | 47899 | 69326
6 | 15:24.27 | 3:15.45 | 69327 | 83996
7 | 18:39.72 | 3:04.24 | 83997 | 97820
8 | 21:44.21 | 3:18.37 | 97821 | 112707
9 | 25:02.58 | 3:41.65 | 112708 | 129347
10 | 28:44.48 | 2:06.02 | 129348 | 138799
11 | 30:50.50 | 3:44.10 | 138800 | 155609
12 | 34:34.60 | 1:44.58 | 155610 | 163467
13 | 36:19.43 | 2:14.37 | 163468 | 173554
14 | 38:34.05 | 1:58.56 | 173555 | 182460
15 | 40:32.61 | 2:29.74 | 182461 | 193709
16 | 43:02.60 | 2:31.06 | 193710 | 205040
17 | 45:33.66 | 2:30.68 | 205041 | 216358
18 | 48:04.59 | 1:57.41 | 216359 | 225174
19 | 50:02.25 | 3:29.24 | 225175 | 240873
20 | 53:31.49 | 3:28.20 | 240874 | 256493
21 | 56:59.69 | 5:14.13 | 256494 | 280056
22 | 62:14.07 | 2:39.59 | 280057 | 292040
23 | 64:53.66 | 2:37.24 | 292041 | 303839
24 | 67:31.15 | 2:18.37 | 303840 | 314226
25 | 69:49.52 | 3:55.24 | 314227 | 331875
26 | 73:45.01 | 3:38.04 | 331876 | 348229


Range status and errors

Selected range

Filename C:\Users\Alex\Desktop\ALLexxess\Bobbie Gentry\2018 Girl From Chickasaw County (8CD Box Set Universal Music)\2018 Live At The BBC\Bobbie Gentry - Live At The BBC.wav

Peak level 96.2 %
Extraction speed 4.7 X
Range quality 100.0 %
Test CRC 586FA907
Copy CRC 586FA907
Copy OK

No errors occurred


AccurateRip summary

Track 1 accurately ripped (confidence 8) [528F537A] (AR v2)
Track 2 accurately ripped (confidence 8) [97ECDEB2] (AR v2)
Track 3 accurately ripped (confidence 8) [C3CF2AEE] (AR v2)
Track 4 accurately ripped (confidence 8) [5C84255B] (AR v2)
Track 5 accurately ripped (confidence 8) [F2534635] (AR v2)
Track 6 accurately ripped (confidence 8) [E6F4B43A] (AR v2)
Track 7 accurately ripped (confidence 8) [B3885DCC] (AR v2)
Track 8 accurately ripped (confidence 8) [CD444239] (AR v2)
Track 9 accurately ripped (confidence 8) [D92FE9CD] (AR v2)
Track 10 accurately ripped (confidence 8) [393916C1] (AR v2)
Track 11 accurately ripped (confidence 8) [48915707] (AR v2)
Track 12 accurately ripped (confidence 8) [D8FF1A01] (AR v2)
Track 13 accurately ripped (confidence 8) [7408E3D2] (AR v2)
Track 14 accurately ripped (confidence 8) [7A4CCE86] (AR v2)
Track 15 accurately ripped (confidence 8) [A7525357] (AR v2)
Track 16 accurately ripped (confidence 8) [B4DBB05E] (AR v2)
Track 17 accurately ripped (confidence 8) [5D06809B] (AR v2)
Track 18 accurately ripped (confidence 8) [BE1F1EA5] (AR v2)
Track 19 accurately ripped (confidence 8) [C9619182] (AR v2)
Track 20 accurately ripped (confidence 8) [5B74E295] (AR v2)
Track 21 accurately ripped (confidence 9) [7513EA93] (AR v2)
Track 22 accurately ripped (confidence 8) [FD1D4C3C] (AR v2)
Track 23 accurately ripped (confidence 8) [67A64B0A] (AR v2)
Track 24 accurately ripped (confidence 8) [54E85F3A] (AR v2)
Track 25 accurately ripped (confidence 8) [8B93D468] (AR v2)
Track 26 accurately ripped (confidence 9) [3C80B94D] (AR v2)

All tracks accurately ripped

End of status report

–– CUETools DB Plugin V2.1.6

[CTDB TOCID: ioyJV391i.F6gKuOLdttGLlXCBI-] found
Submit result: already submitted
Track | CTDB Status
1 | (22/22) Accurately ripped
2 | (22/22) Accurately ripped
3 | (22/22) Accurately ripped
4 | (22/22) Accurately ripped
5 | (22/22) Accurately ripped
6 | (22/22) Accurately ripped
7 | (22/22) Accurately ripped
8 | (22/22) Accurately ripped
9 | (22/22) Accurately ripped
10 | (22/22) Accurately ripped
11 | (22/22) Accurately ripped
12 | (22/22) Accurately ripped
13 | (22/22) Accurately ripped
14 | (22/22) Accurately ripped
15 | (22/22) Accurately ripped
16 | (22/22) Accurately ripped
17 | (22/22) Accurately ripped
18 | (22/22) Accurately ripped
19 | (22/22) Accurately ripped
20 | (22/22) Accurately ripped
21 | (22/22) Accurately ripped
22 | (22/22) Accurately ripped
23 | (22/22) Accurately ripped
24 | (22/22) Accurately ripped
25 | (21/22) Accurately ripped
26 | (21/22) Accurately ripped


==== Log checksum 7F07298D88C1EA737F8684A537333FA5A72BBA1E572671277176063A1BFAB065 ====


Bobbie Gentry - Girl From Chickasaw County: The Complete Capitol Masters (2018)

All thanks go to the original releaser

Download Bobbie Gentry - Girl From Chickasaw County: The Complete Capitol Masters (2018):