Tags
Language
Tags

Cassiber - Cassiber 1982-1992 [2013, 6CD + DVD, 30th Anniversary Cassiber Box] Re-up

Posted By: v3122
Cassiber - Cassiber 1982-1992 [2013, 6CD + DVD, 30th Anniversary Cassiber Box] Re-up

Cassiber - Cassiber 1982-1992
EAC | Flac(Image) + Cue + Log & MP3 CBR 320Kbps
6CD | ReR CBOX | ~ 1678 or 682 Mb | Scans(jpg, 600dpi) -> 572 Mb | Box Art -> 256 Mb
DVD5: MPEG2, 720*576 (4:3), PAL, 25 fps, ~5842 kbps | Dolby AC3, 2 ch, 48 khz, 192 kbps
Progressive Rock / Avant-Prog / Jazz-Rock

Milestone reissue! In 1982 Cassiber (phonetically: ‘a message smuggled out of prison’) crashed like a locomotive into the Deutsche Neue Welle. Founded by Heiner Goebbels, Alfred Harth, Christoph Anders and Chris Cutler, Cassiber managed to fuse materials and attitudes drawn from experimental rock, fringe jazz, punk, pop, plunderphonics, improvisation, close structure and musique concrete with an energetic and complex form of studio (and then concert) composition that was unique in its combination of diverse experimental approaches to form with a risky, emotional and expressive mode of execution. Through a deep connection between instrumentation, form and topicality, their musical evolution tracked and anticipated the political and technological changes of their time. Thus, in the course of their 10 years of intermittent touring and 4 records they evolved significantly through the high stakes energy of the earlier releases into their later, more complex and composed, studio works (by which time they had become a trio: Goebbels, Anders, Cutler) when they also had early access to the first generation of polyphonic samplers. Highly radical, their music opened up song form by abandoning, extending or crashing sideways into it – building structure from a combination of noise, libido, high musicality and – unique for the time - a great deal of cultural debris. This box collects it all (the majority of it out-of-print for some time now) alongside a lot of unreleased material – and full concert DVD. The 4 historic releases have been carefully re-mastered by Bob Drake and there are, in addition two extra CDs, one that collects the Cassix, Duck and Cover and Ground Zero projects (also re-mastered) and one of unreleased studio and live material, and a DVD (about 2 hours) of live and studio footage - including a mini documentary made during the recording of A Face We All Know. It comes in the usual sturdy box with a fat booklet of documents, interviews, information, photographs, pictures, itineraries and miscellaneous memorabilia. Limited to an edition of 1000 copies

Cassiber were a groundbreaking, devastating band, making music which captured world reality at the end of this century. The group brought together the Frankfurt musicians Heiner Goebbels and Christophe Anders with UK drummer Chris Cutler, and they became the natural heirs to one of the great lines of European rock music. This started off in Canterbury with Soft Machine and Caravan, expanded to include Henry Cow and Faust, achieved mature modernism with This Heat, and culminated in the late 80's and early 90's with Cassiber's startlingly aggressive post modernism. Like This Heat, Cassiber was basically a trio, and this helped them develop an epic style which was also economical. The main principal was live improvisation, and their records have a bone crushing immediacy and spontaneity. Canterbury influences are put through a mangle with sampled mayhem, free jazz, industrial noise, declaimed vocals, newsreel clips, all reaching an extraordinary peak in the album "A Face We All Know", a portrayal of the collapse of East Germany.

~ soundohm

Cassiber - Cassiber 1982-1992 [2013, 6CD + DVD, 30th Anniversary Cassiber Box] Re-up

An experimental, jazz and electronic trio in the tradition of Henry COW, CASSIBER came to life in the early 80's when COW's own drummer Chris Cutler got together with two Frankfurt musicians, namely composer Heiner Goebbels on violin and piano, and sampler extraordinaire Christoph Anders on vocals and guitars. Alfred Harth later joined them on sax for a couple of albums and then (the late) Masami Shinoda took over sax duties during a memorable live performance in Tokyo in 1992.

CASSIBER's music is fractured, complex and very difficult to get into. Mostly improvised (except for a few lyrics they kept on hand for inspiration), their material consists of sampled mayhem, free jazz, industrial noise, declaimed vocals (Christoph Ander's vocals are truly an acquired taste), newsreel clips and the likes. The rare unity they attained with their third album in 1988, "A Face We All Know", makes it their most powerful release to date and is considered their masterpiece (its theme is about the collapse of the Berlin Wall). The double album "Cassiber - Live in Tokyo" is a true farewell documentary: disk one captures the band's only visit to Japan and their very last concert together, featuring guest saxophonist Masami Shinoda who died soon after. Disk two is a radical reworking/remixing of the same material by Otomo Yoshida & Ground Zero that make it sound like an entirely different album altogether.

Strange but well worth the effort if you can handle the weirdest, most bizarre RIO/avant-garde stuff you've ever dared slip into a cd player.

~ progarchives
Cassiber - Cassiber 1982-1992:

Cassiber - Cassiber 1982-1992 [2013, 6CD + DVD, 30th Anniversary Cassiber Box] Re-up

CD1: Cassiber - Man Or Monkey (1982) Remastered
EAC | Flac(Image) + Cue + Log & MP3 CBR 320Kbps
ReR CCD1 | ~ 336 or 129 Mb | Scans(jpg, 600dpi) -> 86 Mb
Progressive Rock / Avant-Prog / Jazz-Rock

Man or Monkey was Cassiber's first album. It was released in 1982 on the German label Riskant as a set of two 45 rpm LPs – a format that turned it into a pricy collector's item. For this first effort, Christoph Anders, Chris Cutler, Heiner Goebbels, and Alfred 23 Harth entered the studio with only a handful of the drummer's lyrics and a few melodic ideas. They improvised, letting structures and arrangements develop by themselves, so to speak, and singer Anders threw in a text when he felt it appropriate. Even on the ReR Megacorp CD reissue, the structure of the four-sided LP remains strongly detectable. Side A presents three short improvised songs. Lyrics are more declamated than sung and the musical flooring is loosely rhythmical but very intense ("Red Shadow" is a highlight). Side B focuses on more prepared songs and Anders' singing. The festive music of "Our Colourful Culture" creates a disgusting contrast with the somber lyrics ("I came from the country/Arriba! Arriba!/They were killing my family/Ha ha ha ha"). "O Cure Me" sets the lyrics from one of Bach's cantatas against a delicate keyboard motif and thunderous clashes of noise. Both of these pieces would remain in the group's live sets until the end ten years later. Side C contains the 16-minute free improvisation "Man or Monkey." It has interesting moments but never really lifts up – a failed attempt for the most part. Side D contains nice percussion work. Man or Monkey is miles away from the conciseness and strength of A Face We All Know, but it already shows all the ingredients for the maturation of this seminal avant rock group.

by François Couture, AMG
Tracklist:

01. Not Me [03:35.240]
02. Red Shadow [03:44.440]
03. Chor der Gefangenen [04:47.947]
04. Our Colourful Culture [03:00.973]
05. O Cure Me [05:48.973]
06. This Core [04:16.973]
07. Man Or Monkey [16:35.480]
08. Django Vergibt [03:06.200]
09. Die Verunreinigung des Flusses Ist Gerade noch Erträglich [06:29.133]
10. Sag Mir wo die Blumen Sind [02:43.493]

Exact Audio Copy V1.0 beta 3 from 29. August 2011

EAC extraction logfile from 6. December 2013, 12:40

CASSIBER / Man Or Monkey

Used drive : TSSTcorpCDDVDW SH-224DB Adapter: 4 ID: 1

Read mode : Secure
Utilize accurate stream : Yes
Defeat audio cache : Yes
Make use of C2 pointers : No

Read offset correction : 6
Overread into Lead-In and Lead-Out : No
Fill up missing offset samples with silence : Yes
Delete leading and trailing silent blocks : No
Null samples used in CRC calculations : Yes
Used interface : Native Win32 interface for Win NT & 2000

Used output format : Internal WAV Routines
Sample format : 44.100 Hz; 16 Bit; Stereo


TOC of the extracted CD

Track | Start | Length | Start sector | End sector
––––––––––––––––––––––––––––-
1 | 0:00.00 | 3:39.28 | 0 | 16452
2 | 3:39.28 | 3:49.32 | 16453 | 33659
3 | 7:28.60 | 4:51.11 | 33660 | 55495
4 | 12:19.71 | 3:04.59 | 55496 | 69354
5 | 15:24.55 | 5:53.66 | 69355 | 95895
6 | 21:18.46 | 4:20.45 | 95896 | 115440
7 | 25:39.16 | 16:38.66 | 115441 | 190356
8 | 42:18.07 | 3:09.49 | 190357 | 204580
9 | 45:27.56 | 6:37.65 | 204581 | 234420
10 | 52:05.46 | 2:43.37 | 234421 | 246682


Range status and errors

Selected range

Filename D:\TEMP\CASSIBER - 1982 - Man Or Monkey [2013 remaster][CD-1 of 30th Anniv. Cassiber box, ReR CCD1].wav

Peak level 96.6 %
Extraction speed 7.3 X
Range quality 99.9 %
Test CRC 7C3EA3DD
Copy CRC 7C3EA3DD
Copy OK

No errors occurred


AccurateRip summary

Track 1 not present in database
Track 2 not present in database
Track 3 not present in database
Track 4 not present in database
Track 5 not present in database
Track 6 not present in database
Track 7 not present in database
Track 8 not present in database
Track 9 not present in database
Track 10 not present in database

None of the tracks are present in the AccurateRip database

End of status report

foobar2000 1.2.9 / Dynamic Range Meter 1.1.1
log date: 2013-12-29 08:11:42

––––––––––––––––––––––––––––––––––––––––
Analyzed: CASSIBER / Man Or Monkey
––––––––––––––––––––––––––––––––––––––––

DR Peak RMS Duration Track
––––––––––––––––––––––––––––––––––––––––
DR12 -0.30 dB -15.15 dB 3:39 01-Not Me
DR13 -0.30 dB -16.02 dB 3:49 02-Red Shadow
DR17 -0.30 dB -22.09 dB 4:51 03-Chor der Gefangenen
DR13 -0.30 dB -15.50 dB 3:05 04-Our Colourful Culture
DR12 -4.11 dB -19.72 dB 5:54 05-O Cure Me
DR13 -0.30 dB -16.53 dB 4:21 06-This Core
DR16 -1.53 dB -22.33 dB 16:39 07-Man Or Monkey
DR16 -0.30 dB -21.90 dB 3:10 08-Django Vergibt
DR14 -2.04 dB -19.39 dB 6:38 09-Die Verunreinigung des Flusses Ist Gerade noch Erträglich
DR13 -0.30 dB -17.86 dB 2:43 10-Sag Mir wo die Blumen Sind
––––––––––––––––––––––––––––––––––––––––

Number of tracks: 10
Official DR value: DR14

Samplerate: 44100 Hz
Channels: 2
Bits per sample: 16
Bitrate: 833 kbps
Codec: FLAC

Musicians:

Christof Anders — electric guitar, voice, Korg synthesizer, violin, tenor saxophone, prepared cassettes, metal sheets
Chris Cutler — drums, noises, objects, whistle
Heiner Goebbels — electric/acoustic guitars, bass, piano, PPG synthesizer, organ, Chinese violin
Alfrd Harth — alto/tenor saxophones, trumpet, trombone, clarinet, bass clarinet, cello

With:

Peter Prochir — drums (4)

===================

Cassiber - Cassiber 1982-1992 [2013, 6CD + DVD, 30th Anniversary Cassiber Box] Re-up

CD2: Cassiber - Beauty. And The Beast (1984) Remastered
EAC | Flac(Image) + Cue + Log & MP3 CBR 320Kbps
ReR CCD2 | ~ 282 or 117 Mb | Scans(jpg, 600dpi) -> 78 Mb
Progressive Rock / Avant-Prog / Jazz-Rock

Cassiber's debut album was originally intended to be a one-off, but shortly after its release they were invited to play at the Frankfurt Jazz Festival and further live work followed. A couple of years after Man or Monkey they recorded Beauty and the Beast, which was created using the same methodology as before - improvised composition - but their experience as a performing band had made a difference to their music; on this occasion there was a greater sense of coherence both within the individual pieces and across the album as a whole.

As on their previous outing the album featured a mixture of instrumental and vocal tracks, although on this occasion Chris Cutler's texts were not used as extensively as before. The use of electronics was also more prominent this time around, with cassette recorded voices woven into the fabric of several tracks. Robert, the second track, features a brief snippet of Captain Beefheart reciting The Dust Blows Forward, while elsewhere the vocals seem to have been recorded from German news broadcasts, and for the most part this technique is very effective; on later albums Cassiber would use samplers and electronics even more prominently. Two cover versions are included: Und Ich Werde Nicht Mehr Sehen is a Hans Eisler piece, while At Last I Am Free is a song by Chic that was also covered by Robert Wyatt on Nothing Can Stop Us. At Last I Am Free is one of the album's highlights and manages to be faithful to the spirit of the original but also has the same uncompromising RIO sound as the rest of the album. The more 'free' improvisations veer into some decidedly abstract territory, but the album is sequenced so that they are contrasted with more accessible pieces and many of the tracks segue into each other, creating a constantly shifting mood. There are also moments of real beauty, particularly from Goebell's piano and Harth's saxophone, although any lyrical passages are brief and there is usually something loud, discordant or disturbing to provide contrast.

Beauty & the Beast is an uncompromising piece of work, but it has stood the test of time rather better than Man or Monkey. It's interesting to compare it with Skeleton Crew's debut album, which was released at around the same time and which also made extensive use of taped vocals. Both are very much products of their time, RIO meeting post punk experimentalism, and both see former members of Henry Cow engaging with new developments in music and remaining progressive in the truest sense of the word. If you like one, you'll probably like the other; Beauty & the Beast can be recommended to anybody who likes 80s avant rock and indeed to anybody inclined to try something adventurous for a change.

by Syzygy, progarchives
Tracklist:

01. Six Rays [04:06.587]
02. Robert [04:57.440]
03. Last Call [02:56.840]
04. Ach Heile Mich [06:31.773]
05. Haruspices [01:52.320]
06. Under New Management [05:26.813]
07. Vengeance Is Dancing [02:16.053]
08. In Eine Minute [04:32.493]
09. Und Ich Werde nicht Mehr Sehen [02:57.533]
10. Trendre la Lune avec les Dents [04:16.227]
11. At Last I Am Free [03:45.240]
12. At Last I Am Free [00:17.227]
13. Time Running Out [05:30.267]

Exact Audio Copy V1.0 beta 3 from 29. August 2011

EAC extraction logfile from 6. December 2013, 13:55

CASSIBER / Beauty. And The Beast

Used drive : TSSTcorpCDDVDW SH-224DB Adapter: 4 ID: 1

Read mode : Secure
Utilize accurate stream : Yes
Defeat audio cache : Yes
Make use of C2 pointers : No

Read offset correction : 6
Overread into Lead-In and Lead-Out : No
Fill up missing offset samples with silence : Yes
Delete leading and trailing silent blocks : No
Null samples used in CRC calculations : Yes
Used interface : Native Win32 interface for Win NT & 2000

Used output format : Internal WAV Routines
Sample format : 44.100 Hz; 16 Bit; Stereo


TOC of the extracted CD

Track | Start | Length | Start sector | End sector
––––––––––––––––––––––––––––-
1 | 0:00.00 | 4:09.53 | 0 | 18727
2 | 4:09.53 | 5:01.62 | 18728 | 41364
3 | 9:11.40 | 3:02.36 | 41365 | 55050
4 | 12:14.01 | 6:35.27 | 55051 | 84702
5 | 18:49.28 | 1:53.57 | 84703 | 93234
6 | 20:43.10 | 5:29.29 | 93235 | 117938
7 | 26:12.39 | 2:18.53 | 117939 | 128341
8 | 28:31.17 | 4:32.37 | 128342 | 148778
9 | 33:03.54 | 3:00.16 | 148779 | 162294
10 | 36:03.70 | 4:16.17 | 162295 | 181511
11 | 40:20.12 | 3:48.45 | 181512 | 198656
12 | 44:08.57 | 0:17.17 | 198657 | 199948
13 | 44:25.74 | 5:30.20 | 199949 | 224718


Range status and errors

Selected range

Filename D:\TEMP\CASSIBER - 1984 - Beauty. And The Beast [2013 remaster][CD-2 of 30th Anniv. Cassiber box, ReR CCD2].wav

Peak level 96.6 %
Extraction speed 2.9 X
Range quality 100.0 %
Test CRC 001496AB
Copy CRC 001496AB
Copy OK

No errors occurred


AccurateRip summary

Track 1 not present in database
Track 2 not present in database
Track 3 not present in database
Track 4 not present in database
Track 5 not present in database
Track 6 not present in database
Track 7 not present in database
Track 8 not present in database
Track 9 not present in database
Track 10 not present in database
Track 11 not present in database
Track 12 not present in database
Track 13 not present in database

None of the tracks are present in the AccurateRip database

End of status report

foobar2000 1.2.9 / Dynamic Range Meter 1.1.1
log date: 2013-12-29 08:12:05

––––––––––––––––––––––––––––––––––––––––
Analyzed: CASSIBER / Beauty. And The Beast
––––––––––––––––––––––––––––––––––––––––

DR Peak RMS Duration Track
––––––––––––––––––––––––––––––––––––––––
DR14 -0.30 dB -17.31 dB 4:10 01-Six Rays
DR15 -0.30 dB -21.36 dB 5:02 02-Robert
DR21 -3.10 dB -27.22 dB 3:02 03-Last Call
DR12 -0.30 dB -16.34 dB 6:35 04-Ach Heile Mich
DR15 -1.36 dB -20.82 dB 1:54 05-Haruspices
DR15 -0.54 dB -21.43 dB 5:29 06-Under New Management
DR12 -1.17 dB -14.62 dB 2:19 07-Vengeance Is Dancing
DR13 -0.30 dB -18.42 dB 4:32 08-In Eine Minute
DR13 -4.02 dB -23.82 dB 3:00 09-Und Ich Werde nicht Mehr Sehen
DR13 -0.46 dB -18.28 dB 4:16 10-Trendre la Lune avec les Dents
DR12 -0.30 dB -15.44 dB 3:49 11-At Last I Am Free
DR8 -90.31 dB -98.81 dB 0:17 12-At Last I Am Free
DR14 -0.30 dB -19.74 dB 5:30 13-Time Running Out
––––––––––––––––––––––––––––––––––––––––

Number of tracks: 13
Official DR value: DR14

Samplerate: 44100 Hz
Channels: 2
Bits per sample: 16
Bitrate: 769 kbps
Codec: FLAC

Musicians:

Christof Anders — electric guitar, voice, Korg synthesizer & sequencer, prepared cassettes, metal sheets
Chris Cutler — drums, electronics, noises, objects
Heiner Goebbels — electric guitar, bass, grand piano, PPG synthesizer, cassettes, vocals (11)
Alfrd Harth — alto/tenor/baritone saxophones, pocket trumpet, trombone, bass clarinet, jaw harp, vocals (2, 4, 6)

With:

Ernst Stoetzner — telephone call from Berlin (3)

===================

Cassiber - Cassiber 1982-1992 [2013, 6CD + DVD, 30th Anniversary Cassiber Box] Re-up

CD3: Cassiber - Perfect Worlds (1986) Remastered
EAC | Flac(Image) + Cue + Log & MP3 CBR 320Kbps
ReR CCD3 | ~ 185 or 78 Mb | Scans(jpg, 600dpi) -> 90 Mb
Progressive Rock / Avant-Prog / Jazz-Rock

Cassiber's second album moves one step ahead in the refinement of the group's music. From Man or Monkey, the trio (Christoph Anders, Chris Cutler, and Heiner Goebbels; Alfred 23 Harth had bid farewell) retained clashes of noise, a taste for cheap synthesizers, and Anders' declamatory style. But this time the music is much more organized and arranged. Songs are short and focus on atmospheres and the alienating settings of Cutler's words. More political than before, they take their cue from the previous album's "Our Colourful Culture," or so it seems. They have for subject war, the oppressed, and those who speculate on misery. "Crusoe's Landing" uses an excerpt from Daniel Defoe's novel, a well-chosen page which, put in the context of this album, says a lot about human nature. Although structured, the music only occasionally takes the form of song. The opener "Dust and Ashes" stands as a rare Rock in Opposition outburst ("Orphee's Mirror" provides another). Highlights include "Miracolo" ("Where meat is better/Treated than/The poor who/Can't afford to/Eat it"); Anders' cry, "I ache," in "Prometheus"; and the haunting, sampler-led "Orphee's Mirror." Perfect Worlds is short – only 33 minutes in duration – but it wastes not a second and offers new things to discover in its depths with each listen.

by François Couture, AMG
Tracklist:

01. Dust And Ashes [02:03.547]
02. Crusoe’s Landing [04:30.960]
03. Miracolo [04:53.653]
04. Prometheus [04:50.373]
05. Sleep Armed [02:12.653]
06. In A Room [04:51.667]
07. Todo Dia [02:32.533]
08. Orphee’s Mirror [05:00.920]
09. I Tried To Reach You [02:00.787]

Exact Audio Copy V1.0 beta 3 from 29. August 2011

EAC extraction logfile from 6. December 2013, 14:28

CASSIBER / Perfect Worlds

Used drive : TSSTcorpCDDVDW SH-224DB Adapter: 4 ID: 1

Read mode : Secure
Utilize accurate stream : Yes
Defeat audio cache : Yes
Make use of C2 pointers : No

Read offset correction : 6
Overread into Lead-In and Lead-Out : No
Fill up missing offset samples with silence : Yes
Delete leading and trailing silent blocks : No
Null samples used in CRC calculations : Yes
Used interface : Native Win32 interface for Win NT & 2000

Used output format : Internal WAV Routines
Sample format : 44.100 Hz; 16 Bit; Stereo


TOC of the extracted CD

Track | Start | Length | Start sector | End sector
––––––––––––––––––––––––––––-
1 | 0:00.00 | 2:03.41 | 0 | 9265
2 | 2:03.41 | 4:33.44 | 9266 | 29784
3 | 6:37.10 | 4:53.49 | 29785 | 51808
4 | 11:30.59 | 4:50.28 | 51809 | 73586
5 | 16:21.12 | 2:15.00 | 73587 | 83711
6 | 18:36.12 | 4:55.62 | 83712 | 105898
7 | 23:31.74 | 2:35.62 | 105899 | 117585
8 | 26:07.61 | 5:00.69 | 117586 | 140154
9 | 31:08.55 | 2:00.59 | 140155 | 149213


Range status and errors

Selected range

Filename D:\TEMP\CASSIBER - 1986 - Perfect Worlds [2013 remaster][CD-3 of 30th Anniv. Cassiber box, ReR CCD3].wav

Peak level 96.6 %
Extraction speed 2.6 X
Range quality 100.0 %
Test CRC 3DC5A998
Copy CRC 3DC5A998
Copy OK

No errors occurred


AccurateRip summary

Track 1 not present in database
Track 2 not present in database
Track 3 not present in database
Track 4 not present in database
Track 5 not present in database
Track 6 not present in database
Track 7 not present in database
Track 8 not present in database
Track 9 not present in database

None of the tracks are present in the AccurateRip database

End of status report

foobar2000 1.2.9 / Dynamic Range Meter 1.1.1
log date: 2013-12-29 08:12:19

––––––––––––––––––––––––––––––––––––––––
Analyzed: CASSIBER / Perfect Worlds
––––––––––––––––––––––––––––––––––––––––

DR Peak RMS Duration Track
––––––––––––––––––––––––––––––––––––––––
DR12 -0.30 dB -16.17 dB 2:04 01-Dust And Ashes
DR15 -0.30 dB -18.34 dB 4:34 02-Crusoe’s Landing
DR15 -4.86 dB -24.03 dB 4:54 03-Miracolo
DR16 -0.30 dB -22.20 dB 4:50 04-Prometheus
DR12 -0.30 dB -16.15 dB 2:15 05-Sleep Armed
DR22 -0.30 dB -28.95 dB 4:56 06-In A Room
DR13 -8.55 dB -25.86 dB 2:36 07-Todo Dia
DR12 -0.51 dB -16.56 dB 5:01 08-Orphee’s Mirror
DR14 -1.33 dB -19.72 dB 2:01 09-I Tried To Reach You
––––––––––––––––––––––––––––––––––––––––

Number of tracks: 9
Official DR value: DR15

Samplerate: 44100 Hz
Channels: 2
Bits per sample: 16
Bitrate: 757 kbps
Codec: FLAC

Musicians:

Christof Anders — electric guitar, tenor saxophone, Mirage keyboard, voice
Chris Cutler — drums, electric drums
Heiner Goebbels — electric guitar (1), piano, Mirage keyboard, Chinese violin, voice (5)

===================

Cassiber - Cassiber 1982-1992 [2013, 6CD + DVD, 30th Anniversary Cassiber Box] Re-up

CD4: Cassiber - A Face We All Know (1988)
EAC | Flac(Image) + Cue & MP3 CBR 320Kbps
ReR CCD4 | ~ 268 or 102 Mb | Scans(jpg, 600dpi) -> 80 Mb
Progressive Rock / Avant-Prog / Jazz-Rock

This album, the last studio album from this group, is their most complex. For their first two albums (Man or Monkey and Beauty and the Beast), they entered the studio with prepared texts and improvised the music. On their third album, Perfect Worlds, they preconceived the pieces ahead of time and did the final arrangements in the studio. Here, not just the pieces, but the album's "plot" and some of the texts were written by Chris Cutler in the summer of 1988, six months prior to recording and two years before the final mix was complete. The length of gestation and the attention to detail show in the finished product. There is a great deal more overdubbing and sampling than in any previous album, especially in the voices. Christoph Anders' voice is perhaps an acquired taste, as he passionately declaims texts by Cutler, American novelist Thomas Pynchon, and German playwright Rainald Goetz, but his delivery is unique, and ultimately gripping. Cutler also recites some of his own texts, and the voices are layered in many places to the point of unintelligibility. Goetz's texts in German are another difference from their previous work, where all texts have been in English. The tracks here are divided into three long pieces, two related suites sandwiching a third with texts taken from Thomas Pynchon's great novel Gravity's Rainbow. Themes and texts recur in the first and third parts, providing a unity that makes this the group's most powerful album.

by Caleb Deupree, AMG
Tracklist:

I
01. This Was The Way It Was [00:52.613]
02. Remember [02:52.080]
03. Old Gods [00:27.440]
04. 2 O’Clock In The Morning [02:36.200]
05. Philosophy (1) [00:06.867]
06. Gut [03:43.653]

II
07. Start The Show [03:00.347]
08. A Screaming Comes Across The Sky [03:12.693]
09. They Go In Under Archways [04:12.053]
10. They Have Begun To Move [03:28.400]

III
11. Time Gets Faster [00:27.120]
12. It’s Never Quiet [02:25.733]
13. Philosophy (2) [00:04.280]
14. A Screaming Holds [01:57.547]
15. Philosophy (3) [00:32.120]
16. I Was Old [03:49.387]
17. The Way It Was [05:06.147]
18. To Move [02:55.107]

Exact Audio Copy V1.0 beta 3 from 29. August 2011

EAC extraction logfile from 6. December 2013, 14:49

CASSIBER / A Face We All Know

Used drive : TSSTcorpCDDVDW SH-224DB Adapter: 4 ID: 1

Read mode : Secure
Utilize accurate stream : Yes
Defeat audio cache : Yes
Make use of C2 pointers : No

Read offset correction : 6
Overread into Lead-In and Lead-Out : No
Fill up missing offset samples with silence : Yes
Delete leading and trailing silent blocks : No
Null samples used in CRC calculations : Yes
Used interface : Native Win32 interface for Win NT & 2000

Used output format : Internal WAV Routines
Sample format : 44.100 Hz; 16 Bit; Stereo


TOC of the extracted CD

Track | Start | Length | Start sector | End sector
––––––––––––––––––––––––––––-
1 | 0:00.00 | 0:52.46 | 0 | 3945
2 | 0:52.46 | 2:52.06 | 3946 | 16851
3 | 3:44.52 | 0:27.33 | 16852 | 18909
4 | 4:12.10 | 2:36.15 | 18910 | 30624
5 | 6:48.25 | 0:06.65 | 30625 | 31139
6 | 6:55.15 | 3:46.49 | 31140 | 48138
7 | 10:41.64 | 3:02.38 | 48139 | 61826
8 | 13:44.27 | 3:12.52 | 61827 | 76278
9 | 16:57.04 | 4:12.04 | 76279 | 95182
10 | 21:09.08 | 3:32.15 | 95183 | 111097
11 | 24:41.23 | 0:27.09 | 111098 | 113131
12 | 25:08.32 | 2:25.55 | 113132 | 124061
13 | 27:34.12 | 0:04.21 | 124062 | 124382
14 | 27:38.33 | 1:57.41 | 124383 | 133198
15 | 29:35.74 | 0:32.09 | 133199 | 135607
16 | 30:08.08 | 3:53.69 | 135608 | 153151
17 | 34:02.02 | 5:06.11 | 153152 | 176112
18 | 39:08.13 | 2:55.08 | 176113 | 189245


Range status and errors

Selected range

Filename D:\TEMP\CASSIBER - 1988 - A Face We All Know [2013 remaster][CD-4 of 30th Anniv. Cassiber box, ReR CCD4].wav

Peak level 96.6 %
Extraction speed 6.9 X
Range quality 100.0 %
Test CRC 23FC1BE8
Copy CRC 23FC1BE8
Copy OK

No errors occurred


AccurateRip summary

Track 1 not present in database
Track 2 not present in database
Track 3 not present in database
Track 4 not present in database
Track 5 not present in database
Track 6 not present in database
Track 7 not present in database
Track 8 not present in database
Track 9 not present in database
Track 10 not present in database
Track 11 not present in database
Track 12 not present in database
Track 13 not present in database
Track 14 not present in database
Track 15 not present in database
Track 16 not present in database
Track 17 not present in database
Track 18 not present in database

None of the tracks are present in the AccurateRip database

End of status report

foobar2000 1.2.9 / Dynamic Range Meter 1.1.1
log date: 2013-12-29 08:12:37

––––––––––––––––––––––––––––––––––––––––
Analyzed: CASSIBER / A Face We All Know
––––––––––––––––––––––––––––––––––––––––

DR Peak RMS Duration Track
––––––––––––––––––––––––––––––––––––––––
DR15 -5.12 dB -26.35 dB 0:53 01-I: This Was The Way It Was
DR12 -0.50 dB -16.16 dB 2:52 02-I: Remember
DR14 -9.79 dB -28.05 dB 0:27 03-I: Old Gods
DR14 -0.50 dB -18.51 dB 2:36 04-I: 2 O’Clock In The Morning
DR14 -0.30 dB -20.82 dB 0:07 05-I: Philosophy (1)
DR12 -0.50 dB -15.92 dB 3:47 06-I: Gut
DR11 -0.50 dB -16.26 dB 3:03 07-II: Start The Show
DR12 -0.50 dB -14.84 dB 3:13 08-II: A Screaming Comes Across The Sky
DR14 -0.50 dB -17.00 dB 4:12 09-II: They Go In Under Archways
DR14 -0.50 dB -21.93 dB 3:32 10-II: They Have Begun To Move
DR17 -2.19 dB -23.26 dB 0:27 11-III: Time Gets Faster
DR14 -0.50 dB -17.69 dB 2:26 12-III: It’s Never Quiet
DR15 -5.07 dB -22.20 dB 0:04 13-III: Philosophy (2)
DR12 -0.84 dB -16.44 dB 1:58 14-III: A Screaming Holds
DR13 -0.50 dB -17.32 dB 0:32 15-III: Philosophy (3)
DR12 -2.41 dB -16.57 dB 3:54 16-III: I Was Old
DR12 -0.50 dB -15.90 dB 5:06 17-III: The Way It Was
DR15 -0.42 dB -26.80 dB 2:55 18-III: To Move
––––––––––––––––––––––––––––––––––––––––

Number of tracks: 18
Official DR value: DR13

Samplerate: 44100 Hz
Channels: 2
Bits per sample: 16
Bitrate: 866 kbps
Codec: FLAC

Musicians:

Christof Anders — guitar, sampling keyboard, voice
Chris Cutler — drums, electronics, voice
Heiner Goebbels — bass, keyboards, sampling, computer, guitar (16)

===================

Cassiber - Cassiber 1982-1992 [2013, 6CD + DVD, 30th Anniversary Cassiber Box] Re-up

CD5, 6 and DVD: Cassiber - Cassiber + (2013):

Cassiber - Cassiber 1982-1992 [2013, 6CD + DVD, 30th Anniversary Cassiber Box] Re-up

CD5: Cassiber - Collaborations (2013) Compilation
EAC | Flac(Image) + Cue + Log & MP3 CBR 320Kbps
ReR CCD6 | ~ 290 or 120 Mb | Scans(jpg, 600dpi) -> 150 Mb
Progressive Rock / Avant-Prog / Jazz-Rock

Tracklist:

DUCK and COVER
01. 3000 Explosions [03:04.280]
02. Dark Cloud [01:48.853]
03. Walls Are Loosening [00:39.880]
04. Rats And Monkeys [01:07.707]
05. Pause# [01:30.600]
06. Easter Day 1935 [03:55.200]
07. The Song Of Investment Capital Overseas [03:34.547]
08. The Address [02:13.067]
09. Fragments [01:39.387]
10. Dark Reprise [00:30.413]
11. On Suicide [01:48.667]
12. Und ich werde nicht mehr sehen [04:52.800]
13. Not With A Bang [00:55.800]

CASSIX
14. Coste [01:54.893]
15. Cripta [02:43.827]
16. Religion [02:32.027]
17. The Stanislavsky Method [01:07.880]
18. Tempo di Pace, Bari [03:52.920]
19. Copy Machine [01:46.253]
20. Finta di Nulla [01:56.307]

CASSIBER with Shinoda Masami
21. O Cure Me {remixed by Otomo Yoshihide} [00:27.120]

Exact Audio Copy V1.0 beta 3 from 29. August 2011

EAC extraction logfile from 6. December 2013, 16:38

CASSIBER / CASSIBER+ : Collaborations [compilation]

Used drive : TSSTcorpCDDVDW SH-224DB Adapter: 4 ID: 1

Read mode : Secure
Utilize accurate stream : Yes
Defeat audio cache : Yes
Make use of C2 pointers : No

Read offset correction : 6
Overread into Lead-In and Lead-Out : No
Fill up missing offset samples with silence : Yes
Delete leading and trailing silent blocks : No
Null samples used in CRC calculations : Yes
Used interface : Native Win32 interface for Win NT & 2000

Used output format : Internal WAV Routines
Sample format : 44.100 Hz; 16 Bit; Stereo


TOC of the extracted CD

Track | Start | Length | Start sector | End sector
––––––––––––––––––––––––––––-
1 | 0:00.00 | 3:04.21 | 0 | 13820
2 | 3:04.21 | 1:48.64 | 13821 | 21984
3 | 4:53.10 | 0:39.66 | 21985 | 24975
4 | 5:33.01 | 1:07.53 | 24976 | 30053
5 | 6:40.54 | 1:30.45 | 30054 | 36848
6 | 8:11.24 | 3:55.15 | 36849 | 54488
7 | 12:06.39 | 3:34.41 | 54489 | 70579
8 | 15:41.05 | 2:13.05 | 70580 | 80559
9 | 17:54.10 | 1:39.29 | 80560 | 88013
10 | 19:33.39 | 0:30.31 | 88014 | 90294
11 | 20:03.70 | 1:48.50 | 90295 | 98444
12 | 21:52.45 | 4:52.60 | 98445 | 120404
13 | 26:45.30 | 1:29.26 | 120405 | 127105
14 | 28:14.56 | 1:54.67 | 127106 | 135722
15 | 30:09.48 | 2:46.17 | 135723 | 148189
16 | 32:55.65 | 2:32.02 | 148190 | 159591
17 | 35:27.67 | 1:15.01 | 159592 | 165217
18 | 36:42.68 | 3:56.20 | 165218 | 182937
19 | 40:39.13 | 1:49.46 | 182938 | 191158
20 | 42:28.59 | 2:12.51 | 191159 | 201109
21 | 44:41.35 | 6:17.09 | 201110 | 229393


Range status and errors

Selected range

Filename D:\TEMP\CASSIBER - 2013 - CASSIBER+, Collaborations [CD-5 of 30th Anniv. Cassiber box, ReR CCD5].wav

Peak level 96.6 %
Extraction speed 7.3 X
Range quality 100.0 %
Test CRC 2A7DE8F4
Copy CRC 2A7DE8F4
Copy OK

No errors occurred


AccurateRip summary

Track 1 not present in database
Track 2 not present in database
Track 3 not present in database
Track 4 not present in database
Track 5 not present in database
Track 6 not present in database
Track 7 not present in database
Track 8 not present in database
Track 9 not present in database
Track 10 not present in database
Track 11 not present in database
Track 12 not present in database
Track 13 not present in database
Track 14 not present in database
Track 15 not present in database
Track 16 not present in database
Track 17 not present in database
Track 18 not present in database
Track 19 not present in database
Track 20 not present in database
Track 21 not present in database

None of the tracks are present in the AccurateRip database

End of status report

foobar2000 1.2.9 / Dynamic Range Meter 1.1.1
log date: 2013-12-29 08:12:53

––––––––––––––––––––––––––––––––––––––––
Analyzed: CASSIX / CASSIBER+ : Collaborations [compilation]
––––––––––––––––––––––––––––––––––––––––

DR Peak RMS Duration Track
––––––––––––––––––––––––––––––––––––––––
DR13 -0.31 dB -16.21 dB 1:55 14-Coste
DR13 -0.31 dB -16.94 dB 2:46 15-Cripta
DR13 -1.03 dB -17.25 dB 2:32 16-Religion
DR17 -0.54 dB -21.76 dB 1:15 17-The Stanislavsky Method
DR13 -2.16 dB -21.14 dB 3:56 18-Tempo di Pace, Bari
DR13 -2.15 dB -18.92 dB 1:50 19-Copy Machine
DR13 -2.82 dB -18.94 dB 2:13 20-Finta di Nulla
––––––––––––––––––––––––––––––––––––––––

Number of tracks: 7
Official DR value: DR14

Samplerate: 44100 Hz
Channels: 2
Bits per sample: 16
Bitrate: 775 kbps
Codec: FLAC
================================================================================

––––––––––––––––––––––––––––––––––––––––
Analyzed: DUCK and COVER / CASSIBER+ : Collaborations [compilation]
––––––––––––––––––––––––––––––––––––––––

DR Peak RMS Duration Track
––––––––––––––––––––––––––––––––––––––––
DR12 -0.92 dB -18.99 dB 3:04 01-3000 Explosions
DR12 -2.44 dB -20.28 dB 1:49 02-Dark Cloud
DR12 -3.10 dB -19.26 dB 0:40 03-Walls Are Loosening
DR10 -2.26 dB -15.03 dB 1:08 04-Rats And Monkeys
DR15 -3.52 dB -24.73 dB 1:31 05-Pause#
DR14 -0.45 dB -19.58 dB 3:55 06-Easter Day 1935
DR11 -0.56 dB -13.91 dB 3:35 07-The Song Of Investment Capital Overseas
DR12 -2.53 dB -19.16 dB 2:13 08-The Address
DR12 -3.31 dB -21.86 dB 1:39 09-Fragments
DR11 -3.40 dB -15.97 dB 0:30 10-Dark Reprise
DR13 -1.23 dB -19.11 dB 1:49 11-On Suicide
DR13 -0.30 dB -18.63 dB 4:53 12-Und ich werde nicht mehr sehen
DR16 -2.33 dB -24.26 dB 1:29 13-Not With A Bang
––––––––––––––––––––––––––––––––––––––––

Number of tracks: 13
Official DR value: DR13

Samplerate: 44100 Hz
Channels: 2
Bits per sample: 16
Bitrate: 775 kbps
Codec: FLAC

Musicians:

Duck and Cover line-up:
Tom Cora — bass, cello, cassettes, electronics
Chris Cutler — drums, electronics
Fred Frith — guitar, bass, cassettes
Heiner Goebbels — piano, synthesizer, guitar, cassettes
Alfred Harth — tenor saxophone, trumpet, bass clarinet
Dagmar Krause — singing
George Lewis — trombone, mouthpieces

Cassix line-up:
Chris Cutler — drums, percussion
Franco Fabbri — guitar
Umberto Fiori — singing
Heiner Goebbels — Yamaha piano, PPG synthesizer, accordion
Alfred Harth — tenor saxophone, clarinet, bass clarinet
Pino Martini — bass

Line-up on 21:
Christof Anders — voice, sampler
Chris Cutler — percussion, electronics
Heiner Goebbels — piano, sampler
Shinoda Masami — saxophone
Cassiber - Cassiber 1982-1992 [2013, 6CD + DVD, 30th Anniversary Cassiber Box] Re-up

CD6: Cassiber - The Way It Was, live recordings & studio sketches 1986-89 (2013) Compilation
EAC | Flac(Image) + Cue + Log & MP3 CBR 320Kbps
ReR CCD5 | ~ 317 or 136 Mb | Scans(jpg, 600dpi) -> 88 Mb
Progressive Rock / Avant-Prog / Jazz-Rock

Tracklist:

01. This Was The Way It Was [03:00.867]
02. Archways [02:23.747]
03. A Screaming [04:57.600]
04. They Have Begun To Move [01:56.933]
05. 2:00 In The Morning [00:53.947]
06. Tidi Dia [02:55.227]
07. It’s Never Quiet [03:11.480]
08. Six Rays [02:18.733]
09. Prisoner Chorus 1 [02:25.307]
10. Prisoner Chorus 2 [05:12.440]
11. Oh No [02:29.293]
12. I Was Old When I Was Young [02:02.853]
13. Disk Not Responding [02:03.227]
14. Gut [02:55.867]
15. Crusoe’s Landing [04:03.560]
16. Miracolo [04:50.587]
17. Out Colourful Culture [02:24.867]
18. In A Room [04:41.187]
19. Not Me [02:19.373]

Exact Audio Copy V1.0 beta 3 from 29. August 2011

EAC extraction logfile from 6. December 2013, 17:37

CASSIBER / CASSIBER+ : The Way It Was [live recordings & studio sketches 1986-89]

Used drive : TSSTcorpCDDVDW SH-224DB Adapter: 4 ID: 1

Read mode : Secure
Utilize accurate stream : Yes
Defeat audio cache : Yes
Make use of C2 pointers : No

Read offset correction : 6
Overread into Lead-In and Lead-Out : No
Fill up missing offset samples with silence : Yes
Delete leading and trailing silent blocks : No
Null samples used in CRC calculations : Yes
Used interface : Native Win32 interface for Win NT & 2000

Used output format : Internal WAV Routines
Sample format : 44.100 Hz; 16 Bit; Stereo


TOC of the extracted CD

Track | Start | Length | Start sector | End sector
––––––––––––––––––––––––––––-
1 | 0:00.00 | 3:03.13 | 0 | 13737
2 | 3:03.13 | 2:26.22 | 13738 | 24709
3 | 5:29.35 | 5:00.44 | 24710 | 47253
4 | 10:30.04 | 1:59.38 | 47254 | 56216
5 | 12:29.42 | 0:56.49 | 56217 | 60465
6 | 13:26.16 | 2:55.17 | 60466 | 73607
7 | 16:21.33 | 3:11.36 | 73608 | 87968
8 | 19:32.69 | 2:21.57 | 87969 | 98600
9 | 21:54.51 | 2:27.42 | 98601 | 109667
10 | 24:22.18 | 5:15.31 | 109668 | 133323
11 | 29:37.49 | 2:35.15 | 133324 | 144963
12 | 32:12.64 | 2:07.45 | 144964 | 154533
13 | 34:20.34 | 2:03.17 | 154534 | 163775
14 | 36:23.51 | 2:59.73 | 163776 | 177273
15 | 39:23.49 | 4:03.42 | 177274 | 195540
16 | 43:27.16 | 4:50.44 | 195541 | 217334
17 | 48:17.60 | 2:28.06 | 217335 | 228440
18 | 50:45.66 | 4:41.14 | 228441 | 249529
19 | 55:27.05 | 2:19.28 | 249530 | 259982


Range status and errors

Selected range

Filename D:\TEMP\CASSIBER - CASSIBER+, The Way It Was [CD-6 of 30th Anniv. Cassiber box, ReR CCD5].wav

Peak level 96.6 %
Extraction speed 2.9 X
Range quality 99.9 %
Test CRC EF19EBBB
Copy CRC EF19EBBB
Copy OK

No errors occurred


AccurateRip summary

Track 1 accurately ripped (confidence 1) [878704B6] (AR v2)
Track 2 accurately ripped (confidence 1) [BD2D1206] (AR v2)
Track 3 accurately ripped (confidence 1) [5B844C42] (AR v2)
Track 4 accurately ripped (confidence 1) [6E529BDA] (AR v2)
Track 5 accurately ripped (confidence 1) [FE550341] (AR v2)
Track 6 accurately ripped (confidence 1) [3E994EFD] (AR v2)
Track 7 accurately ripped (confidence 1) [366B8B22] (AR v2)
Track 8 accurately ripped (confidence 1) [53BF1685] (AR v2)
Track 9 accurately ripped (confidence 1) [8327A93B] (AR v2)
Track 10 accurately ripped (confidence 1) [E4F2E1C4] (AR v2)
Track 11 accurately ripped (confidence 1) [E12BF4C4] (AR v2)
Track 12 accurately ripped (confidence 1) [FBEEDEF6] (AR v2)
Track 13 accurately ripped (confidence 1) [55935D2B] (AR v2)
Track 14 accurately ripped (confidence 1) [D26CC303] (AR v2)
Track 15 accurately ripped (confidence 1) [0FBBFD34] (AR v2)
Track 16 accurately ripped (confidence 1) [E8130B10] (AR v2)
Track 17 accurately ripped (confidence 1) [9B730988] (AR v2)
Track 18 accurately ripped (confidence 1) [E6B50E41] (AR v2)
Track 19 accurately ripped (confidence 1) [3E0F8947] (AR v2)

All tracks accurately ripped

End of status report

foobar2000 1.2.9 / Dynamic Range Meter 1.1.1
log date: 2013-12-29 08:13:19

––––––––––––––––––––––––––––––––––––––––
Analyzed: CASSIBER / CASSIBER+ : The Way It Was [live recordings & studio sketches 1986-89]
––––––––––––––––––––––––––––––––––––––––

DR Peak RMS Duration Track
––––––––––––––––––––––––––––––––––––––––
DR12 -1.34 dB -19.11 dB 3:03 01-This Was The Way It Was
DR13 -1.02 dB -17.36 dB 2:26 02-Archways
DR11 -3.51 dB -17.90 dB 5:01 03-A Screaming
DR12 -7.90 dB -23.68 dB 2:00 04-They Have Begun To Move
DR13 -2.99 dB -19.88 dB 0:57 05-2:00 In The Morning
DR15 -4.97 dB -26.61 dB 2:55 06-Tidi Dia
DR15 -0.30 dB -18.36 dB 3:11 07-It’s Never Quiet
DR10 -3.64 dB -14.83 dB 2:22 08-Six Rays
DR13 -1.87 dB -21.02 dB 2:28 09-Prisoner Chorus 1
DR15 -0.90 dB -22.39 dB 5:15 10-Prisoner Chorus 2
DR13 -0.82 dB -18.50 dB 2:35 11-Oh No
DR10 -2.86 dB -17.31 dB 2:08 12-I Was Old When I Was Young
DR17 -2.80 dB -26.76 dB 2:03 13-Disk Not Responding
DR12 -0.30 dB -15.57 dB 3:00 14-Gut
DR13 -1.07 dB -16.42 dB 4:04 15-Crusoe’s Landing
DR12 -6.35 dB -21.93 dB 4:51 16-Miracolo
DR12 -1.73 dB -16.30 dB 2:28 17-Out Colourful Culture
DR15 -2.16 dB -20.89 dB 4:41 18-In A Room
DR12 -1.29 dB -15.43 dB 2:19 19-Not Me
––––––––––––––––––––––––––––––––––––––––

Number of tracks: 19
Official DR value: DR13

Samplerate: 44100 Hz
Channels: 2
Bits per sample: 16
Bitrate: 746 kbps
Codec: FLAC

Musicians:

Christof Anders — voice, guitar, sampler, keyboards, tenor saxophone
Chris Cutler — drums, objects, electronics
Heiner Goebbels — piano, sampling keyboard, Chinese violin, guitar, voice

With:

Dietmar Diesner — saxophone & electronics (3)
Rene Lussier — guitar (19)
Cassiber - Cassiber 1982-1992 [2013, 6CD + DVD, 30th Anniversary Cassiber Box] Re-up

DVD: Cassiber - Elvis Has Left The Building (2013)
DVD5: MPEG2, 720*576 (4:3), PAL, 25 fps, ~5842 kbps | Dolby AC3, 2 ch, 48 khz, 192 kbps
Progressive Rock / Avant-Prog / Jazz-Rock | ~ 4.56 Gb

Tracklist:

18 Deutscher Jazz Festival, Alte Oper, Frankfurt an Main, October 1982
01. Our Colourful Culture
02. Man Or Monkey
03. O Cure Me
04. Not Me

Sao Paulo, July 1984
01. A Floor In The Grand Design
02. Prisoner Chorus
03. Robert
04. Survivor Kit Fragments
05. Red Shadow
06. Ach Heile Mich
07. On We Go
08. At Last I Am Free

Akademie der Kuenste der DDR 1989
01. Cassiber’s Landing
02. This Was The Way It Was
03. Heiner Goebbels
04. Old Gods
05. Chris Cutler
06. Gut
07. Christof Anders
08. They Have Begun To Move

Title: CASSIBER_DVD
Size: 4.32 Gb ( 4 532 902,00 KBytes ) - DVD-5
Enabled regions: 1, 2, 3, 4, 5, 6, 7, 8

VTS_01 :
Play Length: 00:28:18
Video: PAL 4:3 (720x576) VBR
Audio:
English (Dolby AC3, 2 ch)

VTS_02 :
Play Length: 00:20:12
Video: PAL 4:3 (720x576) VBR
Audio:
English (Dolby AC3, 2 ch)

VTS_03 :
Play Length: 00:52:26
Video: PAL 4:3 (720x576) VBR
Audio:
English (Dolby AC3, 2 ch)


Cassiber - Cassiber 1982-1992 [2013, 6CD + DVD, 30th Anniversary Cassiber Box] Re-up

Cassiber - Cassiber 1982-1992 [2013, 6CD + DVD, 30th Anniversary Cassiber Box] Re-up

Cassiber - Cassiber 1982-1992 [2013, 6CD + DVD, 30th Anniversary Cassiber Box] Re-up

Cassiber - Cassiber 1982-1992 [2013, 6CD + DVD, 30th Anniversary Cassiber Box] Re-up

Cassiber - Cassiber 1982-1992 [2013, 6CD + DVD, 30th Anniversary Cassiber Box] Re-up

Musicians:

Christoph Anders,
Chris Cutler,
Heiner Goebbels,
Alfred Harth

–––––

All thanks go to spAceLover

Download Cassiber - Cassiber 1982-1992: