Subcategories

Clarence 'Gatemouth' Brown - Bogalusa Boogie Man (1975) Expanded Remastered Reissue 2007

Posted By: Designol
Clarence 'Gatemouth' Brown - Bogalusa Boogie Man (1975) Expanded Remastered Reissue 2007

Clarence 'Gatemouth' Brown - Bogalusa Boogie Man (1975) Expanded Reissue 2007
EAC | FLAC | Image (Cue&Log) ~ 323 Mb | Mp3 (CBR320) ~ 166 Mb | Scans included | Time: 00:50:18
Electric Texas Blues, Swamp Blues, Country Soul, Southern Rock | Maison De Blues | # SSC 3060

A sort of a sequel to Gatemouth's 1974 Cajun country & western cowboy album Down South in the Bayou Country, the originally issued Bogalusa Boogie Man consists of 12 tracks performed in more or less that same vein. "Bogalusa Boogie Man" was recorded in Bogalusa, LA, during March of 1975, almost exactly one year after Bayou Country. Material for this project was composed by Danny Morrison, Red Lane, Hoyt Garrick, David Craig, Jerry Hubbard, Pat Rush, Fred Martin, and Little Feat founder Lowell George, whose "Dixie Chicken" features "vocals by everyone around in the studio, including friends and neighbors and the one and only Woody Lee Lewis." George is said to have singled out this version as his all-time favorite. [Maison de Blues has done the world a favor by including five brief solo guitar performances that Gatemouth recorded "during the same period." These include a one-minute version of Duke Ellington's "Don't Get Around Much Anymore," a smokin' two and a half minutes of Lionel Hampton and Benny Goodman's "Flyin' Home," two minutes' worth of Fleecie Moore's "Caldonia" (a tune that virtually put Louis Jordan on the map), and a quick trot through the old "Okie Dokie Stomp." Although Gatemouth is credited as composer, "Someday" is actually a remake of "Worried Life Blues," recorded in September 1941 by pianist Big Maceo Merriweather and guitarist Tampa Red. Gate's treatment is every bit as powerful if slightly more astringent than the original.]

Review by arwulf arwulf, Allmusic.com

Clarence 'Gatemouth' Brown - Bogalusa Boogie Man (1975) Expanded Remastered Reissue 2007



Tracklist:

01. Bogalusa Boogie Man (04:44)
02. Mama Mambo (02:20)
03. Monroe, Louisiana (03:16)
04. Aztec Flower (02:44)
05. Hurricane (03:56)
06. Bayou Stomp (02:29)
07. Dixie Chicken (03:43)
08. On My Way Back Home (02:53)
09. Amos Moses (03:52)
10. Fiddlin' Around (03:29)
11. Birmingham (02:40)
12. After The Band Is Gone (01:58)

Bonus Tracks:
13. Don't Get Around Much Anymore (01:14)
14. Flyin' Home (02:20)
15. Caldonia (02:03)
16. Someday (04:09)
17. Okie Dokie Stomp (02:20)


Exact Audio Copy V1.0 beta 3 from 29. August 2011

Отчёт EAC об извлечении, выполненном 4. ноября 2014, 13:20

Clarence 'Gatemouth' Brown / Bogalusa Boogie Man

Дисковод: SONY CD-RW CRX230ED Adapter: 0 ID: 1

Режим чтения : Достоверность
Использование точного потока : Да
Отключение кэша аудио : Да
Использование указателей C2 : Нет

Коррекция смещения при чтении : 6
Способность читать области Lead-in и Lead-out : Нет
Заполнение пропущенных сэмплов тишиной : Да
Удаление блоков с тишиной в начале и конце : Нет
При вычислениях CRC использовались нулевые сэмплы : Да
Интерфейс : Встроенный Win32-интерфейс для Win NT/2000

Выходной формат : Внутренние WAV-операции
Формат сэмплов : 44.100 Гц; 16 бит; стерео


TOC извлечённого CD

Трек | Старт | Длительность | Начальный сектор | Конечный сектор
––––––––––––––––––––––––––––––––––-
1 | 0:00.00 | 4:44.43 | 0 | 21342
2 | 4:44.43 | 2:20.27 | 21343 | 31869
3 | 7:04.70 | 3:16.32 | 31870 | 46601
4 | 10:21.27 | 2:44.55 | 46602 | 58956
5 | 13:06.07 | 3:56.48 | 58957 | 76704
6 | 17:02.55 | 2:29.50 | 76705 | 87929
7 | 19:32.30 | 3:43.13 | 87930 | 104667
8 | 23:15.43 | 2:53.70 | 104668 | 117712
9 | 26:09.38 | 3:52.70 | 117713 | 135182
10 | 30:02.33 | 3:29.06 | 135183 | 150863
11 | 33:31.39 | 2:40.23 | 150864 | 162886
12 | 36:11.62 | 1:58.60 | 162887 | 171796
13 | 38:10.47 | 1:14.15 | 171797 | 177361
14 | 39:24.62 | 2:20.10 | 177362 | 187871
15 | 41:44.72 | 2:03.42 | 187872 | 197138
16 | 43:48.39 | 4:09.35 | 197139 | 215848
17 | 47:57.74 | 2:20.28 | 215849 | 226376
18 | 52:50.27 | 0:37.61 | 237777 | 240612


Характеристики диапазона извлечения и сообщения об ошибках

Выбранный диапазон

Имя файла F:\MusicCD\Torrent\Clarence 'Gatemouth' Brown - Bogalusa Boogie Man\Clarence 'Gatemouth' Brown - Bogalusa Boogie Man.wav

Пиковый уровень 98.5 %
Скорость извлечения 7.5 X
Качество диапазона 100.0 %
CRC теста 31C95045
CRC копии 31C95045
Копирование… OK

Ошибок не произошло


AccurateRip: сводка

Трек 1 отсутствует в базе данных
Трек 2 отсутствует в базе данных
Трек 3 отсутствует в базе данных
Трек 4 отсутствует в базе данных
Трек 5 отсутствует в базе данных
Трек 6 отсутствует в базе данных
Трек 7 отсутствует в базе данных
Трек 8 отсутствует в базе данных
Трек 9 отсутствует в базе данных
Трек 10 отсутствует в базе данных
Трек 11 отсутствует в базе данных
Трек 12 отсутствует в базе данных
Трек 13 отсутствует в базе данных
Трек 14 отсутствует в базе данных
Трек 15 отсутствует в базе данных
Трек 16 отсутствует в базе данных
Трек 17 отсутствует в базе данных

Ни одного трека нет в базе AccurateRip

Конец отчёта

==== Контрольная сумма отчёта D8F8C9204B9A8C665C605F3DC8D4729D6D2E8D360020EE0934FC46A10A769407 ====

[CUETools log; Date: 03.03.2017 1:43:55; Version: 2.1.4]
CD-Extra data track length 00:37:61.
[CTDB TOCID: ZDkdEScpXHWPftfRQzIBCngVWWc-] found.
Track | CTDB Status
1 | (3/4) Accurately ripped
2 | (3/4) Accurately ripped
3 | (3/4) Accurately ripped
4 | (4/4) Accurately ripped
5 | (4/4) Accurately ripped
6 | (3/4) Accurately ripped
7 | (4/4) Accurately ripped
8 | (3/4) Accurately ripped
9 | (3/4) Accurately ripped
10 | (3/4) Accurately ripped
11 | (3/4) Accurately ripped
12 | (3/4) Accurately ripped
13 | (3/4) Accurately ripped
14 | (3/4) Accurately ripped
15 | (3/4) Accurately ripped
16 | (4/4) Accurately ripped
17 | (4/4) Accurately ripped
[AccurateRip ID: 0021588a-019fc241-f50c8812] found.
Track [ CRC | V2 ] Status
01 [67dfbf5f|91516b00] (0+1/1) Accurately ripped
02 [f5078c66|a9d984d2] (0+1/1) Accurately ripped
03 [232b8b5f|fbc2ee80] (0+1/1) Accurately ripped
04 [bc86beda|0e8a67a8] (0+1/1) Accurately ripped
05 [23db60d4|e98a7fa0] (0+1/1) Accurately ripped
06 [ec5a353b|c10055f1] (0+1/1) Accurately ripped
07 [745a6440|ab0692f0] (0+1/1) Accurately ripped
08 [13744b6f|1e678565] (0+1/1) Accurately ripped
09 [0af6810a|14e9ede8] (0+1/1) Accurately ripped
10 [870a41e8|9a5841a3] (0+1/1) Accurately ripped
11 [38f540be|5e138da0] (0+1/1) Accurately ripped
12 [b8249249|10d2a9c9] (0+1/1) Accurately ripped
13 [a1f14e74|e94f5de6] (0+1/1) Accurately ripped
14 [08656910|7f80db55] (0+1/1) Accurately ripped
15 [b66d1cea|492eb5c5] (0+1/1) Accurately ripped
16 [c6e90c1e|b820f881] (0+1/1) Accurately ripped
17 [e2530011|5ea04b6c] (0+1/1) Accurately ripped

Track Peak [ CRC32 ] [W/O NULL] [ LOG ]
– 98,5 [31C95045] [DD311A6A] CRC32
01 98,5 [49643308] [F2848940]
02 98,4 [79E82FF7] [3F233C3F]
03 91,0 [1F4B5B72] [3F5E8707]
04 98,3 [4DB77BAC] [9F82CBC5]
05 98,4 [7CE94700] [A1F6433C]
06 98,4 [0823DEA1] [FA9F8488]
07 98,4 [C33C6532] [E56B489E]
08 77,4 [AF6584EB] [07DBDD2B]
09 98,4 [5955DCF1] [F447CAA7]
10 95,4 [0B37E87A] [5E498145]
11 98,4 [219ED6ED] [28C1FE80]
12 96,9 [16530B23] [D7640654]
13 47,9 [2D17AFD4] [3EA28AFA]
14 46,4 [0291759E] [0294EDA5]
15 65,3 [C06EC1D6] [DC8377C1]
16 51,8 [A99A1EEE] [B5B61577]
17 61,7 [5FEF5A86] [55B099FD]

foobar2000 1.2 / Dynamic Range Meter 1.1.1
log date: 2017-03-03 01:36:29

––––––––––––––––––––––––––––––––––––––––
Analyzed: Clarence 'Gatemouth' Brown / Bogalusa Boogie Man
––––––––––––––––––––––––––––––––––––––––

DR Peak RMS Duration Track
––––––––––––––––––––––––––––––––––––––––
DR12 -0.13 dB -15.10 dB 4:45 01-Bogalusa Boogie Man
DR14 -0.14 dB -16.16 dB 2:20 02-Mama Mambo
DR13 -0.82 dB -16.35 dB 3:16 03-Monroe, Louisiana
DR13 -0.14 dB -14.81 dB 2:45 04-Aztec Flower
DR12 -0.14 dB -14.23 dB 3:57 05-Hurricane
DR13 -0.14 dB -14.84 dB 2:30 06-Bayou Stomp
DR13 -0.14 dB -15.84 dB 3:43 07-Dixie Chicken
DR13 -2.22 dB -16.41 dB 2:54 08-On My Way Back Home
DR14 -0.14 dB -16.48 dB 3:53 09-Amos Moses
DR13 -0.41 dB -15.91 dB 3:29 10-Fiddlin' Around
DR13 -0.14 dB -16.24 dB 2:40 11-Birmingham
DR15 -0.27 dB -18.84 dB 1:59 12-After The Band Is Gone
DR14 -6.38 dB -23.28 dB 1:14 13-Don't Get Around Much Anymore
DR13 -6.67 dB -21.96 dB 2:20 14-Flyin' Home
DR12 -3.69 dB -20.48 dB 2:04 15-Caldonia
DR13 -5.70 dB -21.98 dB 4:09 16-Someday
DR13 -4.18 dB -20.68 dB 2:20 17-Okie Dokie Stomp
––––––––––––––––––––––––––––––––––––––––

Number of tracks: 17
Official DR value: DR13

Samplerate: 44100 Hz
Channels: 2
Bits per sample: 16
Bitrate: 756 kbps
Codec: FLAC
================================================================================

Clarence 'Gatemouth' Brown - Bogalusa Boogie Man (1975) Expanded Remastered Reissue 2007

Clarence 'Gatemouth' Brown - Bogalusa Boogie Man (1975) Expanded Remastered Reissue 2007

All thanks to original releaser - squirr

More interesting music in My Blog