Tags
Language
Tags

Deep Forest & Projects: Singles & Remixes Part 04 (1995)

Posted By: v3122
Deep Forest & Projects: Singles & Remixes Part 04 (1995)

Deep Forest & Projects: Singles & Remixes Part 04 (1995)
EAC | Flac(Image) + Cue + Log & MP3 CBR 320Kbps
4CD | Label: Various | ~ 463 or 166 Mb | Scans(png) -> 287 Mb
World Music / New Age / Electronica / House / Tribal / Downtempo / Ambient

~ Deep Forest & Deep Forest feat. Cesaria Evora, Sally Oldfield & Peter Gabriel. ~

Innovatively fusing traditional ethnic musics with state-of-the-art rhythms, the work of Deep Forest was best typified by their 1993 smash "Sweet Lullaby," which brought together the contemporary sounds of ambient techno with a haunting traditional lullaby from the Solomon Islands. The project was primarily the work of the French keyboardists and programmers Eric Mouquet and Michael Sanchez; after the latter returned from Africa with boxes of records he'd picked up across the continent, he and Mouquet began sampling the native sounds for use with their atmospheric dance tracks, and with the aid of producer Dan Lacksman, their eponymous debut LP appeared in 1993. Propelled by the international hit "Sweet Lullaby," Deep Forest was a surprise success; Mouquet and Sanchez soon began work on a follow-up, this time exploring such areas as Mongolia, India, and Hungary, recording several tracks with singer Marta Sebestyen. The resulting album, Boheme, appeared in 1995; the third Deep Forest record, Comparsa, followed in 1998, with Live in Japan appearing a year later. In 2000 the duo recorded a soundtrack, Pacifique, to the French film Le Prince du Pacifique. Deep Forest returned in 2002 with its next proper studio album, Music.Detected_. A number of best of compilations were released in subsequent years, and the duo put out a soundtrack album for the Japanese motion picture, Kusa No Ran in 2004. This was followed by silence for the rest of the Noughties. Deep Forest returned in 2016 with its sixth full-length effort – Evo Devo, an album conceptually based on the process of evolution.

by Jason Ankeny, allmusic
Deep Forest & Projects: Singles & Remixes Part 04 (1995):

Deep Forest & Projects: Singles & Remixes Part 04 (1995)

Tracklist CD01 - Deep Forest feat. Cesaria Evora - Cancera 1995:
Nonesuch, PRCD 6513

01. Cancera (Single Version) (4:04)
02. Cancera (Tribal Mix) (6:11)

Exact Audio Copy V1.0 beta 1 from 15. November 2010

EAC extraction logfile from 4. December 2011, 18:36

Deep Forest feat. Cesaria Evora / Cancera

Used drive : SONY DVD RW AD-7260S Adapter: 3 ID: 0

Read mode : Secure
Utilize accurate stream : Yes
Defeat audio cache : Yes
Make use of C2 pointers : No

Read offset correction : 48
Overread into Lead-In and Lead-Out : No
Fill up missing offset samples with silence : Yes
Delete leading and trailing silent blocks : No
Null samples used in CRC calculations : Yes
Used interface : Native Win32 interface for Win NT & 2000

Used output format : Internal WAV Routines
Sample format : 44.100 Hz; 16 Bit; Stereo


TOC of the extracted CD

Track | Start | Length | Start sector | End sector
––––––––––––––––––––––––––––-
1 | 0:00.32 | 4:07.40 | 32 | 18596
2 | 4:07.72 | 6:11.65 | 18597 | 46486


Range status and errors

Selected range

Filename U:\Deep Forest\Deep Forest - Singles\Deep Forest feat. Cesaria Evora 1995 - Cancera (Single)\Deep Forest feat. Cesaria Evora - Cancera.wav

Peak level 97.8 %
Extraction speed 1.6 X
Range quality 100.0 %
Test CRC 5371219A
Copy CRC 5371219A
Copy OK

No errors occurred


AccurateRip summary

Track 1 not present in database
Track 2 not present in database

None of the tracks are present in the AccurateRip database

End of status report


Deep Forest & Projects: Singles & Remixes Part 04 (1995)

Tracklist CD02 - Deep Forest - Out Of Reach (The Sahotas Featuring Deep Forest Remixes) 1995:
I.R.S. Records, 7243 8 58402 2 7

01 - Out Of Reach (Album Version) (3:19)
02 - Out Of Reach (Super Secret Remix) [Remixed by Deep Forest] (6:47)
03 - Out Of Reach (Deep Forest Remix) [Remixed by Deep Forest] (6:47)
04 - Out Of Reach (Bhangra Edit) (3:31)

Exact Audio Copy V1.0 beta 3 from 29. August 2011

EAC extraction logfile from 25. August 2013, 21:16

The Sahotas / Out Of Reach (Featuring Deep Forest Remixes) [CDM]

Used drive : SONY DVD RW AD-7260S Adapter: 0 ID: 0

Read mode : Secure
Utilize accurate stream : Yes
Defeat audio cache : Yes
Make use of C2 pointers : No

Read offset correction : 48
Overread into Lead-In and Lead-Out : No
Fill up missing offset samples with silence : Yes
Delete leading and trailing silent blocks : No
Null samples used in CRC calculations : Yes
Used interface : Installed external ASPI interface

Used output format : Internal WAV Routines
Sample format : 44.100 Hz; 16 Bit; Stereo


TOC of the extracted CD

Track | Start | Length | Start sector | End sector
––––––––––––––––––––––––––––-
1 | 0:00.00 | 3:20.15 | 0 | 15014
2 | 3:20.15 | 6:48.22 | 15015 | 45636
3 | 10:08.37 | 6:47.53 | 45637 | 76214
4 | 16:56.15 | 3:31.42 | 76215 | 92081


Range status and errors

Selected range

Filename Z:\Volumes\Temp Elements\Torrent Uploads\Deep Forest & Projects\Deep Forest (Albums & Singles)\Singles\Deep Forest 1995 - Out Of Reach (The Sahotas Featuring Deep Forest Remixes) [CDM]\The Sahotas - Out Of Reach (Featuring Deep Forest Remixes) [CDM].wav

Peak level 100.0 %
Extraction speed 3.0 X
Range quality 99.9 %
Test CRC 5EEE7A50
Copy CRC 5EEE7A50
Copy OK

No errors occurred


AccurateRip summary

Track 1 not present in database
Track 2 not present in database
Track 3 not present in database
Track 4 not present in database

None of the tracks are present in the AccurateRip database

End of status report

==== Log checksum 91B849323D1788CF6CDB9C0540870D87E0C95C7511F5BF2CA2B8270E95CC2B07 ====


Deep Forest & Projects: Singles & Remixes Part 04 (1995)

Tracklist CD03 - Deep Forest feat. Sally Oldfield - Three Rings (The Deep Forest Mixes) 1995:
MSM Music, 74321 26518 2

01 - Three Rings (Special 7" Radio Mix) (3:59)
02 - Three Rings (Club Mix) (6:21)
03 - Three Rings (Ambient Mix) (6:54)
04 - Three Rings (Album Version) (6:18)

Exact Audio Copy V0.99 prebeta 5 from 4. May 2009

Отчёт EAC об извлечении, выполненном 14. марта 2011, 19:25

Sally Oldfield feat. Deep Forest / Three Rings - The Deep Forest Mixes (CDM)

Дисковод: SONY DVD RW AD-7260S Adapter: 2 ID: 0

Режим чтения : Достоверность
Использование точного потока : Да
Отключение кэша аудио : Да
Использование указателей C2 : Нет

Коррекция смещения при чтении : 48
Способность читать области Lead-in и Lead-out : Нет
Заполнение пропущенных сэмплов тишиной : Да
Удаление блоков с тишиной в начале и конце : Нет
При вычислениях CRC использовались нулевые сэмплы : Да
Интерфейс : Установленный внешний ASPI-интерфейс

Выходной формат : Внутренние WAV-операции
Формат сэмплов : 44.100 Гц; 16 бит; стерео


TOC извлечённого CD

Трек | Старт | Длительность | Начальный сектор | Конечный сектор
––––––––––––––––––––––––––––––––––-
1 | 0:00.32 | 4:01.70 | 32 | 18176
2 | 4:02.27 | 6:23.05 | 18177 | 46906
3 | 10:25.32 | 6:56.73 | 46907 | 78179
4 | 17:22.30 | 6:19.02 | 78180 | 106606


Характеристики диапазона извлечения и сообщения об ошибках

Выбранный диапазон

Имя файла K:\LOSSLESS\Upload\Deep Forest (Singles)\Deep Forest 1995 - Three Rings (Sally Oldfield - The Deep Forest Mixes CDM)\Sally Oldfield feat. Deep Forest - Three Rings - The Deep Forest Mixes (CDM).wav

Пиковый уровень 99.0 %
Качество диапазона 100.0 %
CRC теста 28557B67
CRC копии 28557B67
Копирование… OK

Ошибок не произошло


AccurateRip: сводка

Трек 1 нет в базе данных
Трек 2 нет в базе данных
Трек 3 нет в базе данных
Трек 4 нет в базе данных

Ни одного трека нет в базе AccurateRip

Конец отчёта


Deep Forest & Projects: Singles & Remixes Part 04 (1995)

Tracklist CD04 - Deep Forest and Peter Gabriel - While The Earth Sleeps 1995:
Epic Soundtrax, ESCA 6321

01. While The Earth Sleeps (Album Version) (3:53)
02. While The Earth Sleeps (Long Version) (6:25)
03. Rid Of Me (4:15)

Exact Audio Copy V0.99 prebeta 5 from 4. May 2009

Отчёт EAC об извлечении, выполненном 10. августа 2010, 18:52

Peter Gabriel and Deep Forest / While The Earth Sleeps (Japanese Press)

Дисковод: TSSTcorpCDDVDW SH-S223F Adapter: 0 ID: 1

Режим чтения : Достоверность
Использование точного потока : Да
Отключение кэша аудио : Да
Использование указателей C2 : Нет

Коррекция смещения при чтении : 6
Способность читать области Lead-in и Lead-out : Нет
Заполнение пропущенных сэмплов тишиной : Да
Удаление блоков с тишиной в начале и конце : Нет
При вычислениях CRC использовались нулевые сэмплы : Да
Интерфейс : Установленный внешний ASPI-интерфейс

Выходной формат : Внутренние WAV-операции
Формат сэмплов : 44.100 Гц; 16 бит; стерео


TOC извлечённого CD

Трек | Старт | Длительность | Начальный сектор | Конечный сектор
––––––––––––––––––––––––––––––––––-
1 | 0:00.00 | 3:52.45 | 0 | 17444
2 | 3:52.45 | 6:24.45 | 17445 | 46289
3 | 10:17.15 | 4:15.32 | 46290 | 65446


Характеристики диапазона извлечения и сообщения об ошибках

Выбранный диапазон

Имя файла K:\LOSSLESS\Upload\Deep Forest (Japanese Press)\Deep Forest 1995 - While The Earth Sleeps [CDM] (Japanese Press)\Peter Gabriel and Deep Forest - While The Earth Sleeps (Japanese Press).wav

Пиковый уровень 98.8 %
Качество диапазона 100.0 %
CRC теста 5091805D
CRC копии 5091805D
Копирование… OK

Ошибок не произошло


AccurateRip: сводка

Трек 1 нет в базе данных
Трек 2 нет в базе данных
Трек 3 нет в базе данных

Ни одного трека нет в базе AccurateRip

Конец отчёта


All thanks go to aylaayla

Deep Forest in my Blog

Download Deep Forest & Projects: Singles & Remixes Part 04 (1995):