Subcategories
Tags
Language
Tags

Deep Purple - Collectors Edition: The Bootleg Series 1984-2000 (2000) [12CD Box Set] Repost

Posted By: v3122
Deep Purple - Collectors Edition: The Bootleg Series 1984-2000 (2000) [12CD Box Set] Repost

Deep Purple - Collectors Edition: The Bootleg Series 1984-2000 (2000
XLD | Flac(Image) + Cue + Log & MP3 CBR 320Kbps
12CD | Thames/Thompson, 6 97593 00074 8 | ~ 6.93 or 1.61 Gb | Covers(pdf) Included
Classic Rock, Hard Rock

Legendary hard rockers Deep Purple have an enduring reputation as one of the most rounded bands currently playing. The 12 CD set Deep Purple Collectors Edition: The Bootleg Series 1984-2000 suffers from poor sound quality in places (in particular the first concert); however, it covers six concerts and two line-ups, mostly with reasonable quality and several from tours not otherwise documented (in particular the 1984 Mark II Reformed line-up), making it a must-have for truly dedicated fans of the reformed Purple. Taken from six different bootlegs, the album features virtually all the band's biggest hits numerous times.
Deep Purple - Collectors Edition: The Bootleg Series 1984-2000 (2000:

Deep Purple - Collectors Edition: The Bootleg Series 1984-2000 (2000) [12CD Box Set] Repost

Tracklist CD01-02. HIGHWAY STARS - Live In Adelaide, Australia 1984:

01. Highway Star (06:24)
02. Nobodys Home (04:19)
03. Strange Kind Of Woman (08:53)
04. A Gypsy's Kiss (05:58)
05. Perfect Strangers (06:55)
06. Under The Gun (05:35)
07. Knocking At Your Back Door (08:30)
08. Lazy (07:03)

X Lossless Decoder version 20160920 (149.2)

XLD extraction logfile from 2017-01-18 20:05:04 +0300

Deep Purple / The Bootleg Series 1984-2000 - Highway Stars [[Disc 1]]

Used drive : OPTIARC DVD RW AD-5630A (revision 2CH9)
Media type : Pressed CD

Ripper mode : XLD Secure Ripper
Disable audio cache : OK for the drive with a cache less than 1375KiB
Make use of C2 pointers : NO
Read offset correction : 48
Max retry count : 20
Gap status : Analyzed, Appended

TOC of the extracted CD
Track | Start | Length | Start sector | End sector
––––––––––––––––––––––––––––-
1 | 00:00:00 | 06:23:52 | 0 | 28776
2 | 06:23:52 | 04:18:58 | 28777 | 48184
3 | 10:42:35 | 08:52:66 | 48185 | 88150
4 | 19:35:26 | 05:57:55 | 88151 | 114980
5 | 25:33:06 | 06:55:04 | 114981 | 146109
6 | 32:28:10 | 05:34:50 | 146110 | 171209
7 | 38:02:60 | 08:30:19 | 171210 | 209478
8 | 46:33:04 | 07:03:12 | 209479 | 241215

AccurateRip Summary (DiscID: 000ffe2d-006b9905-740c9008)
Track 01 : OK (v1+v2, confidence 10/10)
Track 02 : OK (v1+v2, confidence 10/10)
Track 03 : OK (v1+v2, confidence 10/10)
Track 04 : OK (v1+v2, confidence 10/10)
Track 05 : OK (v1+v2, confidence 10/10)
Track 06 : OK (v1+v2, confidence 10/10)
Track 07 : OK (v1+v2, confidence 10/10)
Track 08 : OK (v1+v2, confidence 10/10)
->All tracks accurately ripped.

All Tracks
Filename : /Users/dima/Documents/torrents/The Bootleg Series 1984-2000 - Highway Stars [[Disc 1]].flac
CRC32 hash : C1DC50CD
CRC32 hash (skip zero) : 1A1B0A2D
Statistics
Read error : 0
Jitter error (maybe fixed) : 3
Retry sector count : 300
Damaged sector count : 0

Track 01
Pre-gap length : 00:02:00

CRC32 hash : AB9E2329
CRC32 hash (skip zero) : 9AC178E2
AccurateRip v1 signature : 30090CB5
AccurateRip v2 signature : 4196CFA0
->Accurately ripped (v1+v2, confidence 4+6/10)
Statistics
Read error : 0
Jitter error (maybe fixed) : 0
Retry sector count : 0
Damaged sector count : 0

Track 02

CRC32 hash : 61E267D5
CRC32 hash (skip zero) : FB60BE2D
AccurateRip v1 signature : 1DC45650
AccurateRip v2 signature : DBDBC978
->Accurately ripped (v1+v2, confidence 4+6/10)
Statistics
Read error : 0
Jitter error (maybe fixed) : 0
Retry sector count : 0
Damaged sector count : 0

Track 03

CRC32 hash : BBC91D94
CRC32 hash (skip zero) : BAA55606
AccurateRip v1 signature : 7A97E267
AccurateRip v2 signature : 9A629890
->Accurately ripped (v1+v2, confidence 4+6/10)
Statistics
Read error : 0
Jitter error (maybe fixed) : 0
Retry sector count : 0
Damaged sector count : 0

Track 04

CRC32 hash : C5A40EC6
CRC32 hash (skip zero) : 3B9DA6A3
AccurateRip v1 signature : BA7D247B
AccurateRip v2 signature : CDE98247
->Accurately ripped (v1+v2, confidence 4+6/10)
Statistics
Read error : 0
Jitter error (maybe fixed) : 0
Retry sector count : 0
Damaged sector count : 0

Track 05

CRC32 hash : 9914B9B4
CRC32 hash (skip zero) : 682F48E9
AccurateRip v1 signature : 50196611
AccurateRip v2 signature : B441894F
->Accurately ripped (v1+v2, confidence 4+6/10)
Statistics
Read error : 0
Jitter error (maybe fixed) : 0
Retry sector count : 0
Damaged sector count : 0

Track 06

CRC32 hash : B2959295
CRC32 hash (skip zero) : 4629F981
AccurateRip v1 signature : 25521673
AccurateRip v2 signature : F1323524
->Accurately ripped (v1+v2, confidence 4+6/10)
Statistics
Read error : 0
Jitter error (maybe fixed) : 0
Retry sector count : 0
Damaged sector count : 0

Track 07

CRC32 hash : 8C309FC1
CRC32 hash (skip zero) : 52FA7FBB
AccurateRip v1 signature : A4D94572
AccurateRip v2 signature : 6571CB9E
->Accurately ripped (v1+v2, confidence 4+6/10)
Statistics
Read error : 0
Jitter error (maybe fixed) : 0
Retry sector count : 0
Damaged sector count : 0

Track 08

CRC32 hash : 7E07EFEC
CRC32 hash (skip zero) : F0872A8D
AccurateRip v1 signature : 74740A41
AccurateRip v2 signature : 1BF82427
->Accurately ripped (v1+v2, confidence 4+6/10)
Statistics
Read error : 0
Jitter error (maybe fixed) : 3
Retry sector count : 300
Damaged sector count : 0

No errors occurred

End of status report


01. Child In Time (12:47)
02. Difficult To Cure (03:59)
03. Organ Solo (05:49)
04. Space Truckin' (03:54)
05. Organ Solo (03:25)
06. Guitar Solo (02:46)
07. Space Truckin' Continue (02:11)
08. Black Night (04:54)
09. Speed King (07:50)
10. Smoke On The Water (07:02)

X Lossless Decoder version 20160920 (149.2)

XLD extraction logfile from 2017-01-18 20:26:11 +0300

Deep Purple / The Bootleg Series 1984-2000 - Highway Stars [[Disc 2]]

Used drive : OPTIARC DVD RW AD-5630A (revision 2CH9)
Media type : Pressed CD

Ripper mode : XLD Secure Ripper
Disable audio cache : OK for the drive with a cache less than 1375KiB
Make use of C2 pointers : NO
Read offset correction : 48
Max retry count : 20
Gap status : Analyzed, Appended

TOC of the extracted CD
Track | Start | Length | Start sector | End sector
––––––––––––––––––––––––––––-
1 | 00:00:00 | 12:46:52 | 0 | 57501
2 | 12:46:52 | 03:58:45 | 57502 | 75396
3 | 16:45:22 | 05:48:66 | 75397 | 101562
4 | 22:34:13 | 03:54:22 | 101563 | 119134
5 | 26:28:35 | 03:24:33 | 119135 | 134467
6 | 29:52:68 | 02:46:30 | 134468 | 146947
7 | 32:39:23 | 02:11:30 | 146948 | 156802
8 | 34:50:53 | 04:53:43 | 156803 | 178820
9 | 39:44:21 | 07:49:47 | 178821 | 214042
10 | 47:33:68 | 07:01:63 | 214043 | 245680

AccurateRip Summary (DiscID: 0015d359-00a618b5-970ccb0a)
Track 01 : OK (v1+v2, confidence 10/10)
Track 02 : OK (v1+v2, confidence 10/10)
Track 03 : OK (v1+v2, confidence 10/10)
Track 04 : OK (v1+v2, confidence 10/10)
Track 05 : OK (v1+v2, confidence 10/10)
Track 06 : OK (v1+v2, confidence 10/10)
Track 07 : OK (v1+v2, confidence 10/10)
Track 08 : OK (v1+v2, confidence 10/10)
Track 09 : OK (v1+v2, confidence 10/10)
Track 10 : OK (v1+v2, confidence 10/10)
->All tracks accurately ripped.

All Tracks
Filename : /Users/dima/Documents/torrents/The Bootleg Series 1984-2000 - Highway Stars [[Disc 2]].flac
CRC32 hash : 87E2F5D4
CRC32 hash (skip zero) : A38942ED
Statistics
Read error : 0
Jitter error (maybe fixed) : 0
Retry sector count : 0
Damaged sector count : 0

Track 01
Pre-gap length : 00:02:00

CRC32 hash : 0F9BC50F
CRC32 hash (skip zero) : 6F787167
AccurateRip v1 signature : 132557DE
AccurateRip v2 signature : 2E22DC58
->Accurately ripped (v1+v2, confidence 4+6/10)
Statistics
Read error : 0
Jitter error (maybe fixed) : 0
Retry sector count : 0
Damaged sector count : 0

Track 02

CRC32 hash : 4F208F77
CRC32 hash (skip zero) : 042B6485
AccurateRip v1 signature : BBD37B71
AccurateRip v2 signature : FA3A584F
->Accurately ripped (v1+v2, confidence 4+6/10)
Statistics
Read error : 0
Jitter error (maybe fixed) : 0
Retry sector count : 0
Damaged sector count : 0

Track 03

CRC32 hash : AD37C59E
CRC32 hash (skip zero) : DA12FA15
AccurateRip v1 signature : 0EFC9F89
AccurateRip v2 signature : AD81AA9A
->Accurately ripped (v1+v2, confidence 4+6/10)
Statistics
Read error : 0
Jitter error (maybe fixed) : 0
Retry sector count : 0
Damaged sector count : 0

Track 04

CRC32 hash : 220BCD89
CRC32 hash (skip zero) : AE795751
AccurateRip v1 signature : BFFBB2E4
AccurateRip v2 signature : 2DA10A63
->Accurately ripped (v1+v2, confidence 4+6/10)
Statistics
Read error : 0
Jitter error (maybe fixed) : 0
Retry sector count : 0
Damaged sector count : 0

Track 05

CRC32 hash : 88FFB48D
CRC32 hash (skip zero) : BA2E3037
AccurateRip v1 signature : C5C2DA3E
AccurateRip v2 signature : 68BA21AB
->Accurately ripped (v1+v2, confidence 4+6/10)
Statistics
Read error : 0
Jitter error (maybe fixed) : 0
Retry sector count : 0
Damaged sector count : 0

Track 06

CRC32 hash : 04DEDFBF
CRC32 hash (skip zero) : E0C8AFAC
AccurateRip v1 signature : E21013B1
AccurateRip v2 signature : B5DA9E2D
->Accurately ripped (v1+v2, confidence 4+6/10)
Statistics
Read error : 0
Jitter error (maybe fixed) : 0
Retry sector count : 0
Damaged sector count : 0

Track 07

CRC32 hash : 8A3A29EA
CRC32 hash (skip zero) : 1F9697A5
AccurateRip v1 signature : 2D1B266C
AccurateRip v2 signature : B836C998
->Accurately ripped (v1+v2, confidence 4+6/10)
Statistics
Read error : 0
Jitter error (maybe fixed) : 0
Retry sector count : 0
Damaged sector count : 0

Track 08

CRC32 hash : AB2D2862
CRC32 hash (skip zero) : D73F63D7
AccurateRip v1 signature : 70514EC6
AccurateRip v2 signature : 4CD9DE09
->Accurately ripped (v1+v2, confidence 4+6/10)
Statistics
Read error : 0
Jitter error (maybe fixed) : 0
Retry sector count : 0
Damaged sector count : 0

Track 09

CRC32 hash : D0A94852
CRC32 hash (skip zero) : 6766193E
AccurateRip v1 signature : 8BB99DA8
AccurateRip v2 signature : 3AF671D9
->Accurately ripped (v1+v2, confidence 4+6/10)
Statistics
Read error : 0
Jitter error (maybe fixed) : 0
Retry sector count : 0
Damaged sector count : 0

Track 10

CRC32 hash : EF8A7987
CRC32 hash (skip zero) : 52EA6812
AccurateRip v1 signature : 75A181E3
AccurateRip v2 signature : 6B9943B8
->Accurately ripped (v1+v2, confidence 4+6/10)
Statistics
Read error : 0
Jitter error (maybe fixed) : 0
Retry sector count : 0
Damaged sector count : 0

No errors occurred

End of status report


Deep Purple - Collectors Edition: The Bootleg Series 1984-2000 (2000) [12CD Box Set] Repost

Tracklist CD03-04. THIRD NIGHT - Live In Sweden 1985:

01. Introduction (01:26)
02. Highway Star (05:33)
03. Nobody's Home (04:41)
04. Strange Kind Of Woman (08:27)
05. A Gypsy's Kiss (07:08)
06. Perfect Strangers (06:15)
07. Under The Gun (05:47)
08. Lazy (03:48)
09. Drum Solo (02:20)
10. Child In Time (13:10)

X Lossless Decoder version 20160920 (149.2)

XLD extraction logfile from 2017-01-18 22:07:50 +0300

Deep Purple / Third Night (Disc 1) Live in Sweden 16 June 1985

Used drive : OPTIARC DVD RW AD-5630A (revision 2CH9)
Media type : Pressed CD

Ripper mode : XLD Secure Ripper
Disable audio cache : OK for the drive with a cache less than 1375KiB
Make use of C2 pointers : NO
Read offset correction : 48
Max retry count : 20
Gap status : Analyzed, Appended

TOC of the extracted CD
Track | Start | Length | Start sector | End sector
––––––––––––––––––––––––––––-
1 | 00:00:00 | 01:25:43 | 0 | 6417
2 | 01:25:43 | 05:33:19 | 6418 | 31411
3 | 06:58:62 | 04:40:41 | 31412 | 52452
4 | 11:39:28 | 08:26:36 | 52453 | 90438
5 | 20:05:64 | 07:08:27 | 90439 | 122565
6 | 27:14:16 | 06:14:61 | 122566 | 150676
7 | 33:29:02 | 05:46:45 | 150677 | 176671
8 | 39:15:47 | 03:48:32 | 176672 | 193803
9 | 43:04:04 | 02:20:15 | 193804 | 204318
10 | 45:24:19 | 13:09:72 | 204319 | 263565

AccurateRip Summary (DiscID: 0013b826-00a2a5ab-740dba0a)
Track 01 : OK (v1+v2, confidence 11/11)
Track 02 : OK (v1+v2, confidence 11/11)
Track 03 : OK (v1+v2, confidence 11/11)
Track 04 : OK (v1+v2, confidence 11/11)
Track 05 : OK (v1+v2, confidence 11/11)
Track 06 : OK (v1+v2, confidence 11/11)
Track 07 : OK (v1+v2, confidence 12/12)
Track 08 : OK (v1+v2, confidence 12/12)
Track 09 : OK (v1+v2, confidence 11/11)
Track 10 : OK (v1+v2, confidence 11/11)
->All tracks accurately ripped.

All Tracks
Filename : /Users/dima/Documents/torrents/Third Night (Disc 1) Live in Sweden 16 June 1985.flac
CRC32 hash : F145D432
CRC32 hash (skip zero) : 5EE0C202
Statistics
Read error : 0
Jitter error (maybe fixed) : 0
Retry sector count : 0
Damaged sector count : 0

Track 01
Pre-gap length : 00:02:00

CRC32 hash : CAC465D8
CRC32 hash (skip zero) : 308300D6
AccurateRip v1 signature : 2795EF74
AccurateRip v2 signature : 0E96121C
->Accurately ripped (v1+v2, confidence 4+7/11)
Statistics
Read error : 0
Jitter error (maybe fixed) : 0
Retry sector count : 0
Damaged sector count : 0

Track 02

CRC32 hash : CDA0AC1F
CRC32 hash (skip zero) : 294E0D58
AccurateRip v1 signature : B0E0A9BC
AccurateRip v2 signature : 933D50D0
->Accurately ripped (v1+v2, confidence 4+7/11)
Statistics
Read error : 0
Jitter error (maybe fixed) : 0
Retry sector count : 0
Damaged sector count : 0

Track 03

CRC32 hash : 3255E81D
CRC32 hash (skip zero) : DDFA6584
AccurateRip v1 signature : F9D325FB
AccurateRip v2 signature : 8623B147
->Accurately ripped (v1+v2, confidence 4+7/11)
Statistics
Read error : 0
Jitter error (maybe fixed) : 0
Retry sector count : 0
Damaged sector count : 0

Track 04

CRC32 hash : 6730F3F5
CRC32 hash (skip zero) : 0FF2E62F
AccurateRip v1 signature : 5C6C1D25
AccurateRip v2 signature : 511BF460
->Accurately ripped (v1+v2, confidence 4+7/11)
Statistics
Read error : 0
Jitter error (maybe fixed) : 0
Retry sector count : 0
Damaged sector count : 0

Track 05

CRC32 hash : A0FFF1DC
CRC32 hash (skip zero) : 263A08B4
AccurateRip v1 signature : D734EDF4
AccurateRip v2 signature : 412B58E1
->Accurately ripped (v1+v2, confidence 4+7/11)
Statistics
Read error : 0
Jitter error (maybe fixed) : 0
Retry sector count : 0
Damaged sector count : 0

Track 06

CRC32 hash : 087EFD8F
CRC32 hash (skip zero) : 00F88722
AccurateRip v1 signature : 789FDC29
AccurateRip v2 signature : D40064CC
->Accurately ripped (v1+v2, confidence 4+7/11)
Statistics
Read error : 0
Jitter error (maybe fixed) : 0
Retry sector count : 0
Damaged sector count : 0

Track 07

CRC32 hash : 9BCCDC4D
CRC32 hash (skip zero) : 48985950
AccurateRip v1 signature : C48FECDD
AccurateRip v2 signature : 255F0F4B
->Accurately ripped (v1+v2, confidence 4+8/12)
Statistics
Read error : 0
Jitter error (maybe fixed) : 0
Retry sector count : 0
Damaged sector count : 0

Track 08

CRC32 hash : 6592B729
CRC32 hash (skip zero) : DF1F7A9A
AccurateRip v1 signature : F4EE9546
AccurateRip v2 signature : 840C21BF
->Accurately ripped (v1+v2, confidence 4+8/12)
Statistics
Read error : 0
Jitter error (maybe fixed) : 0
Retry sector count : 0
Damaged sector count : 0

Track 09

CRC32 hash : B0D749AD
CRC32 hash (skip zero) : 348FCD77
AccurateRip v1 signature : 112BE372
AccurateRip v2 signature : 7F37EA5C
->Accurately ripped (v1+v2, confidence 4+7/11)
Statistics
Read error : 0
Jitter error (maybe fixed) : 0
Retry sector count : 0
Damaged sector count : 0

Track 10

CRC32 hash : 5B4AAD5C
CRC32 hash (skip zero) : 50D33FFA
AccurateRip v1 signature : F97F5875
AccurateRip v2 signature : 1FB98213
->Accurately ripped (v1+v2, confidence 4+7/11)
Statistics
Read error : 0
Jitter error (maybe fixed) : 0
Retry sector count : 0
Damaged sector count : 0

No errors occurred

End of status report


01. Knocking At Your Back Door (09:49)
02. Difficult To Cure (Beethoven’s Ninth) (04:52)
03. Organ Solo (05:36)
04. Space Truckin' (13:29)
05. Woman From Tokio (02:27)
06. Black Night (08:52)
07. Smoke On The Water (08:47)

X Lossless Decoder version 20160920 (149.2)

XLD extraction logfile from 2017-01-18 22:23:24 +0300

Deep Purple / Third Night

Used drive : OPTIARC DVD RW AD-5630A (revision 2CH9)
Media type : Pressed CD

Ripper mode : XLD Secure Ripper
Disable audio cache : OK for the drive with a cache less than 1375KiB
Make use of C2 pointers : NO
Read offset correction : 48
Max retry count : 20
Gap status : Analyzed, Appended

TOC of the extracted CD
Track | Start | Length | Start sector | End sector
––––––––––––––––––––––––––––-
1 | 00:00:00 | 09:48:39 | 0 | 44138
2 | 09:48:39 | 04:51:44 | 44139 | 66007
3 | 14:40:08 | 05:35:41 | 66008 | 91173
4 | 20:15:49 | 13:28:65 | 91174 | 151838
5 | 33:44:39 | 02:27:05 | 151839 | 162868
6 | 36:11:44 | 08:52:30 | 162869 | 202798
7 | 45:03:74 | 08:47:26 | 202799 | 242349

AccurateRip Summary (DiscID: 000eaa9a-0057ac89-520c9f07)
Track 01 : OK (v1+v2, confidence 11/11)
Track 02 : OK (v1+v2, confidence 11/11)
Track 03 : OK (v1+v2, confidence 12/12)
Track 04 : OK (v1+v2, confidence 12/12)
Track 05 : OK (v1+v2, confidence 12/12)
Track 06 : OK (v1+v2, confidence 12/12)
Track 07 : OK (v1+v2, confidence 12/12)
->All tracks accurately ripped.

All Tracks
Filename : /Users/dima/Documents/torrents/Third Night.flac
CRC32 hash : 8A843E1A
CRC32 hash (skip zero) : B9D5E998
Statistics
Read error : 0
Jitter error (maybe fixed) : 0
Retry sector count : 0
Damaged sector count : 0

Track 01
Pre-gap length : 00:02:00

CRC32 hash : 0239F6BB
CRC32 hash (skip zero) : 38096741
AccurateRip v1 signature : E4CA4E5C
AccurateRip v2 signature : 8584A176
->Accurately ripped (v1+v2, confidence 4+7/11)
Statistics
Read error : 0
Jitter error (maybe fixed) : 0
Retry sector count : 0
Damaged sector count : 0

Track 02

CRC32 hash : 7D2CBDDA
CRC32 hash (skip zero) : 5EA5430B
AccurateRip v1 signature : D2E88EB3
AccurateRip v2 signature : B70D4A23
->Accurately ripped (v1+v2, confidence 4+7/11)
Statistics
Read error : 0
Jitter error (maybe fixed) : 0
Retry sector count : 0
Damaged sector count : 0

Track 03

CRC32 hash : D6915163
CRC32 hash (skip zero) : B8B63BCB
AccurateRip v1 signature : 288826E6
AccurateRip v2 signature : 23AC6941
->Accurately ripped (v1+v2, confidence 4+8/12)
Statistics
Read error : 0
Jitter error (maybe fixed) : 0
Retry sector count : 0
Damaged sector count : 0

Track 04

CRC32 hash : 44309059
CRC32 hash (skip zero) : 05F419A1
AccurateRip v1 signature : CCAFEDF9
AccurateRip v2 signature : DA7811E7
->Accurately ripped (v1+v2, confidence 4+8/12)
Statistics
Read error : 0
Jitter error (maybe fixed) : 0
Retry sector count : 0
Damaged sector count : 0

Track 05

CRC32 hash : F1945420
CRC32 hash (skip zero) : CE9BFF73
AccurateRip v1 signature : 53ADDBF8
AccurateRip v2 signature : F84F9BEA
->Accurately ripped (v1+v2, confidence 4+8/12)
Statistics
Read error : 0
Jitter error (maybe fixed) : 0
Retry sector count : 0
Damaged sector count : 0

Track 06

CRC32 hash : EDB4B6CF
CRC32 hash (skip zero) : 39CAA921
AccurateRip v1 signature : F61B356D
AccurateRip v2 signature : E3B421DB
->Accurately ripped (v1+v2, confidence 4+8/12)
Statistics
Read error : 0
Jitter error (maybe fixed) : 0
Retry sector count : 0
Damaged sector count : 0

Track 07

CRC32 hash : 2575EC1D
CRC32 hash (skip zero) : 60F72DF1
AccurateRip v1 signature : 176B7BBA
AccurateRip v2 signature : D5B5D33E
->Accurately ripped (v1+v2, confidence 4+8/12)
Statistics
Read error : 0
Jitter error (maybe fixed) : 0
Retry sector count : 0
Damaged sector count : 0

No errors occurred

End of status report


Deep Purple - Collectors Edition: The Bootleg Series 1984-2000 (2000) [12CD Box Set] Repost

Tracklist CD05-06. HUNGARY DAYS - Live In Budapest, January 1987:

01. Introduction (03:59)
02. Highway Star (06:00)
03. Strange Kind Of Woman (09:03)
04. The Unwritten Law (06:30)
05. Short Blues (01:09)
06. Dead Or Alive (05:51)
07. Perfect Strangers (07:05)
08. Hard Lovin' Woman (04:11)
09. Bad Attitude (05:18)
10. Child In Time (12:13)
11. Difficult To Cure (04:30)
12. Jon Lord Keyboard Solo (06:06)

X Lossless Decoder version 20160920 (149.2)

XLD extraction logfile from 2017-01-18 19:46:36 +0300

Deep Purple / The Bootleg Series 1984-2000 - Hungary Days [[Disc 1]]

Used drive : OPTIARC DVD RW AD-5630A (revision 2CH9)
Media type : Pressed CD

Ripper mode : XLD Secure Ripper
Disable audio cache : OK for the drive with a cache less than 1375KiB
Make use of C2 pointers : NO
Read offset correction : 48
Max retry count : 20
Gap status : Analyzed, Appended

TOC of the extracted CD
Track | Start | Length | Start sector | End sector
––––––––––––––––––––––––––––-
1 | 00:00:00 | 03:58:35 | 0 | 17884
2 | 03:58:35 | 06:00:17 | 17885 | 44901
3 | 09:58:52 | 09:03:20 | 44902 | 85646
4 | 19:01:72 | 06:29:42 | 85647 | 114863
5 | 25:31:39 | 01:08:35 | 114864 | 119998
6 | 26:39:74 | 05:50:35 | 119999 | 146283
7 | 32:30:34 | 07:05:01 | 146284 | 178159
8 | 39:35:35 | 04:11:16 | 178160 | 197000
9 | 43:46:51 | 05:17:69 | 197001 | 220844
10 | 49:04:45 | 12:12:65 | 220845 | 275809
11 | 61:17:35 | 04:29:72 | 275810 | 296056
12 | 65:47:32 | 06:06:23 | 296057 | 323529

AccurateRip Summary (DiscID: 001ed678-0122623e-a810d90c)
Track 01 : OK (v1+v2, confidence 11/11)
Track 02 : OK (v1+v2, confidence 11/11)
Track 03 : OK (v1+v2, confidence 11/11)
Track 04 : OK (v1+v2, confidence 11/11)
Track 05 : OK (v1+v2, confidence 11/11)
Track 06 : OK (v1+v2, confidence 11/11)
Track 07 : OK (v1+v2, confidence 11/11)
Track 08 : OK (v1+v2, confidence 11/11)
Track 09 : OK (v1+v2, confidence 11/11)
Track 10 : OK (v1+v2, confidence 11/11)
Track 11 : OK (v1+v2, confidence 11/11)
Track 12 : OK (v1+v2, confidence 11/11)
->All tracks accurately ripped.

All Tracks
Filename : /Users/dima/Documents/torrents/The Bootleg Series 1984-2000 - Hungary Days [[Disc 1]].flac
CRC32 hash : FF5784F8
CRC32 hash (skip zero) : B3DA3D20
Statistics
Read error : 0
Jitter error (maybe fixed) : 0
Retry sector count : 0
Damaged sector count : 0

Track 01
Pre-gap length : 00:02:00

CRC32 hash : A03CA7B7
CRC32 hash (skip zero) : C9D259C3
AccurateRip v1 signature : F3304C86
AccurateRip v2 signature : EBB6259B
->Accurately ripped (v1+v2, confidence 4+7/11)
Statistics
Read error : 0
Jitter error (maybe fixed) : 0
Retry sector count : 0
Damaged sector count : 0

Track 02

CRC32 hash : D02DF2BE
CRC32 hash (skip zero) : 624D4113
AccurateRip v1 signature : 86ADCE3C
AccurateRip v2 signature : 49E7DC34
->Accurately ripped (v1+v2, confidence 4+7/11)
Statistics
Read error : 0
Jitter error (maybe fixed) : 0
Retry sector count : 0
Damaged sector count : 0

Track 03

CRC32 hash : 46DDD975
CRC32 hash (skip zero) : 303D89D0
AccurateRip v1 signature : B41ED2C8
AccurateRip v2 signature : E203887F
->Accurately ripped (v1+v2, confidence 4+7/11)
Statistics
Read error : 0
Jitter error (maybe fixed) : 0
Retry sector count : 0
Damaged sector count : 0

Track 04

CRC32 hash : 23AC31CC
CRC32 hash (skip zero) : 3FCA1022
AccurateRip v1 signature : 817D7C59
AccurateRip v2 signature : A79B30A5
->Accurately ripped (v1+v2, confidence 4+7/11)
Statistics
Read error : 0
Jitter error (maybe fixed) : 0
Retry sector count : 0
Damaged sector count : 0

Track 05

CRC32 hash : 3B1F7B4F
CRC32 hash (skip zero) : 9156D3EC
AccurateRip v1 signature : 2081C0D4
AccurateRip v2 signature : D7DA1296
->Accurately ripped (v1+v2, confidence 4+7/11)
Statistics
Read error : 0
Jitter error (maybe fixed) : 0
Retry sector count : 0
Damaged sector count : 0

Track 06

CRC32 hash : A743A4D5
CRC32 hash (skip zero) : 0935D357
AccurateRip v1 signature : 4872195B
AccurateRip v2 signature : 02181BE3
->Accurately ripped (v1+v2, confidence 4+7/11)
Statistics
Read error : 0
Jitter error (maybe fixed) : 0
Retry sector count : 0
Damaged sector count : 0

Track 07

CRC32 hash : D1EAC6FB
CRC32 hash (skip zero) : 9DA7C802
AccurateRip v1 signature : 5E8236D7
AccurateRip v2 signature : 9EB52D4C
->Accurately ripped (v1+v2, confidence 4+7/11)
Statistics
Read error : 0
Jitter error (maybe fixed) : 0
Retry sector count : 0
Damaged sector count : 0

Track 08

CRC32 hash : 669F7FB4
CRC32 hash (skip zero) : 3F75049E
AccurateRip v1 signature : A84CD867
AccurateRip v2 signature : 78B1026A
->Accurately ripped (v1+v2, confidence 4+7/11)
Statistics
Read error : 0
Jitter error (maybe fixed) : 0
Retry sector count : 0
Damaged sector count : 0

Track 09

CRC32 hash : 0FC4E256
CRC32 hash (skip zero) : 84623886
AccurateRip v1 signature : B693E062
AccurateRip v2 signature : A69F9011
->Accurately ripped (v1+v2, confidence 4+7/11)
Statistics
Read error : 0
Jitter error (maybe fixed) : 0
Retry sector count : 0
Damaged sector count : 0

Track 10

CRC32 hash : 2CA6DA42
CRC32 hash (skip zero) : 9725DDE2
AccurateRip v1 signature : A2B20DE8
AccurateRip v2 signature : A88D8FD7
->Accurately ripped (v1+v2, confidence 4+7/11)
Statistics
Read error : 0
Jitter error (maybe fixed) : 0
Retry sector count : 0
Damaged sector count : 0

Track 11

CRC32 hash : E6FA0683
CRC32 hash (skip zero) : DD902433
AccurateRip v1 signature : 5E145057
AccurateRip v2 signature : 041176AD
->Accurately ripped (v1+v2, confidence 4+7/11)
Statistics
Read error : 0
Jitter error (maybe fixed) : 0
Retry sector count : 0
Damaged sector count : 0

Track 12

CRC32 hash : AD835DFD
CRC32 hash (skip zero) : B1FB3BE2
AccurateRip v1 signature : 450CC442
AccurateRip v2 signature : 6FAE565D
->Accurately ripped (v1+v2, confidence 4+7/11)
Statistics
Read error : 0
Jitter error (maybe fixed) : 0
Retry sector count : 0
Damaged sector count : 0

No errors occurred

End of status report


01. Knocking At Your Back Door (09:32)
02. Hungarian Instr. Dance (02:19)
03. Lazy (04:09)
04. Space Truckin' (14:52)
05. Black Night (08:28)
06. Smoke On The Water (10:15)
07. Speed King (05:22)
08. Call Of The Wild (05:00)
09. Woman From Tokyo (02:25)
10. Instrumental World Tour Outro (04:47)

X Lossless Decoder version 20160920 (149.2)

XLD extraction logfile from 2017-01-18 19:29:20 +0300

DEEP PURPLE / Hungary Days-Live In Budapest cd2

Used drive : OPTIARC DVD RW AD-5630A (revision 2CH9)
Media type : Pressed CD

Ripper mode : XLD Secure Ripper
Disable audio cache : OK for the drive with a cache less than 1375KiB
Make use of C2 pointers : NO
Read offset correction : 48
Max retry count : 20
Gap status : Analyzed, Appended

TOC of the extracted CD
Track | Start | Length | Start sector | End sector
––––––––––––––––––––––––––––-
1 | 00:00:00 | 09:32:15 | 0 | 42914
2 | 09:32:15 | 02:18:51 | 42915 | 53315
3 | 11:50:66 | 04:08:72 | 53316 | 71987
4 | 15:59:63 | 14:52:18 | 71988 | 138905
5 | 30:52:06 | 08:28:05 | 138906 | 177010
6 | 39:20:11 | 10:14:38 | 177011 | 223098
7 | 49:34:49 | 05:22:25 | 223099 | 247273
8 | 54:56:74 | 04:59:66 | 247274 | 269764
9 | 59:56:65 | 02:25:03 | 269765 | 280642
10 | 62:21:68 | 04:46:34 | 280643 | 302126

AccurateRip Summary (DiscID: 001b92c4-00db8ad4-a30fbc0a)
Track 01 : OK (v1+v2, confidence 11/11)
Track 02 : OK (v1+v2, confidence 11/11)
Track 03 : OK (v1+v2, confidence 11/11)
Track 04 : OK (v1+v2, confidence 11/11)
Track 05 : OK (v1+v2, confidence 11/11)
Track 06 : OK (v1+v2, confidence 11/11)
Track 07 : OK (v1+v2, confidence 11/11)
Track 08 : OK (v1+v2, confidence 11/11)
Track 09 : OK (v1+v2, confidence 11/11)
Track 10 : OK (v1+v2, confidence 11/11)
->All tracks accurately ripped.

All Tracks
Filename : /Users/dima/Documents/torrents/Hungary Days-Live In Budapest cd2.flac
CRC32 hash : A704DE93
CRC32 hash (skip zero) : DA7BA9A5
Statistics
Read error : 0
Jitter error (maybe fixed) : 0
Retry sector count : 0
Damaged sector count : 0

Track 01
Pre-gap length : 00:02:00

CRC32 hash : 65451548
CRC32 hash (skip zero) : 5180CAC4
AccurateRip v1 signature : C65C15CB
AccurateRip v2 signature : C2DEC2FC
->Accurately ripped (v1+v2, confidence 4+7/11)
Statistics
Read error : 0
Jitter error (maybe fixed) : 0
Retry sector count : 0
Damaged sector count : 0

Track 02

CRC32 hash : C56F9720
CRC32 hash (skip zero) : 92F32E1B
AccurateRip v1 signature : CC018DDE
AccurateRip v2 signature : 9D92892A
->Accurately ripped (v1+v2, confidence 4+7/11)
Statistics
Read error : 0
Jitter error (maybe fixed) : 0
Retry sector count : 0
Damaged sector count : 0

Track 03

CRC32 hash : DDB5616D
CRC32 hash (skip zero) : 0DC7F653
AccurateRip v1 signature : 42547B91
AccurateRip v2 signature : F01400A6
->Accurately ripped (v1+v2, confidence 4+7/11)
Statistics
Read error : 0
Jitter error (maybe fixed) : 0
Retry sector count : 0
Damaged sector count : 0

Track 04

CRC32 hash : 6A4032BF
CRC32 hash (skip zero) : 065AD308
AccurateRip v1 signature : 8BBACED3
AccurateRip v2 signature : 81DD3731
->Accurately ripped (v1+v2, confidence 4+7/11)
Statistics
Read error : 0
Jitter error (maybe fixed) : 0
Retry sector count : 0
Damaged sector count : 0

Track 05

CRC32 hash : F68FCF47
CRC32 hash (skip zero) : A970D698
AccurateRip v1 signature : 0952B2D7
AccurateRip v2 signature : FFFF0119
->Accurately ripped (v1+v2, confidence 4+7/11)
Statistics
Read error : 0
Jitter error (maybe fixed) : 0
Retry sector count : 0
Damaged sector count : 0

Track 06

CRC32 hash : DFF8EED2
CRC32 hash (skip zero) : 23CE9DCC
AccurateRip v1 signature : 8C8A7287
AccurateRip v2 signature : 3F873121
->Accurately ripped (v1+v2, confidence 4+7/11)
Statistics
Read error : 0
Jitter error (maybe fixed) : 0
Retry sector count : 0
Damaged sector count : 0

Track 07

CRC32 hash : 549A126B
CRC32 hash (skip zero) : F7FF44F6
AccurateRip v1 signature : 37BE97DA
AccurateRip v2 signature : FE3BD482
->Accurately ripped (v1+v2, confidence 4+7/11)
Statistics
Read error : 0
Jitter error (maybe fixed) : 0
Retry sector count : 0
Damaged sector count : 0

Track 08

CRC32 hash : AB071147
CRC32 hash (skip zero) : BC58C415
AccurateRip v1 signature : 44442AA6
AccurateRip v2 signature : 95C7F011
->Accurately ripped (v1+v2, confidence 4+7/11)
Statistics
Read error : 0
Jitter error (maybe fixed) : 0
Retry sector count : 0
Damaged sector count : 0

Track 09

CRC32 hash : 860E1A85
CRC32 hash (skip zero) : 0E0C763C
AccurateRip v1 signature : 193FC079
AccurateRip v2 signature : 23940F2A
->Accurately ripped (v1+v2, confidence 4+7/11)
Statistics
Read error : 0
Jitter error (maybe fixed) : 0
Retry sector count : 0
Damaged sector count : 0

Track 10

CRC32 hash : 73D6A834
CRC32 hash (skip zero) : 527D9F83
AccurateRip v1 signature : 5E999F83
AccurateRip v2 signature : 27509093
->Accurately ripped (v1+v2, confidence 4+7/11)
Statistics
Read error : 0
Jitter error (maybe fixed) : 0
Retry sector count : 0
Damaged sector count : 0

No errors occurred

End of status report


Deep Purple - Collectors Edition: The Bootleg Series 1984-2000 (2000) [12CD Box Set] Repost

Tracklist CD07-08. IN YOUR TROUSERS - Live In Stockholm 1993:

01. Intro (01:08)
02. Highway Star (06:00)
03. Black Night (06:46)
04. Talk About Love (04:25)
05. A Twist In The Tale (04:36)
06. Perfect Strangers (06:58)
07. Difficult To Cure (02:57)
08. Organ Improv. (07:18)
09. Knocking At Your Back Door (08:45)
10. Anyone's Daughter (04:39)
11. Child In Time (10:34)

X Lossless Decoder version 20160920 (149.2)

XLD extraction logfile from 2017-01-18 21:31:00 +0300

DEEP PURPLE / In Your Trousers-Live In Stockholm cd1

Used drive : OPTIARC DVD RW AD-5630A (revision 2CH9)
Media type : Pressed CD

Ripper mode : XLD Secure Ripper
Disable audio cache : OK for the drive with a cache less than 1375KiB
Make use of C2 pointers : NO
Read offset correction : 48
Max retry count : 20
Gap status : Analyzed, Appended

TOC of the extracted CD
Track | Start | Length | Start sector | End sector
––––––––––––––––––––––––––––-
1 | 00:00:00 | 01:08:01 | 0 | 5100
2 | 01:08:01 | 05:59:68 | 5101 | 32093
3 | 07:07:69 | 06:46:23 | 32094 | 62566
4 | 13:54:17 | 04:24:66 | 62567 | 82432
5 | 18:19:08 | 04:35:45 | 82433 | 103102
6 | 22:54:53 | 06:58:22 | 103103 | 134474
7 | 29:53:00 | 02:56:73 | 134475 | 147747
8 | 32:49:73 | 07:17:51 | 147748 | 180573
9 | 40:07:49 | 08:44:74 | 180574 | 219947
10 | 48:52:48 | 04:38:62 | 219948 | 240859
11 | 53:31:35 | 10:34:30 | 240860 | 288439

AccurateRip Summary (DiscID: 0016d8ff-00cd2c57-8f0f050b)
Track 01 : OK (v1+v2, confidence 10/10)
Track 02 : OK (v1+v2, confidence 10/10)
Track 03 : OK (v1+v2, confidence 10/10)
Track 04 : OK (v1+v2, confidence 10/10)
Track 05 : OK (v1+v2, confidence 10/10)
Track 06 : OK (v1+v2, confidence 10/10)
Track 07 : OK (v1+v2, confidence 10/10)
Track 08 : OK (v1+v2, confidence 10/10)
Track 09 : OK (v1+v2, confidence 10/10)
Track 10 : OK (v1+v2, confidence 10/10)
Track 11 : OK (v1+v2, confidence 10/10)
->All tracks accurately ripped.

All Tracks
Filename : /Users/dima/Documents/torrents/In Your Trousers-Live In Stockholm cd1.flac
CRC32 hash : 38A44F0E
CRC32 hash (skip zero) : BBF1D031
Statistics
Read error : 0
Jitter error (maybe fixed) : 1
Retry sector count : 0
Damaged sector count : 0

Track 01
Pre-gap length : 00:02:00

CRC32 hash : 95855B1A
CRC32 hash (skip zero) : B8AC4114
AccurateRip v1 signature : 8D8228E5
AccurateRip v2 signature : CB647D83
->Accurately ripped (v1+v2, confidence 4+6/10)
Statistics
Read error : 0
Jitter error (maybe fixed) : 0
Retry sector count : 0
Damaged sector count : 0

Track 02

CRC32 hash : 1A2D6E36
CRC32 hash (skip zero) : FB139ADB
AccurateRip v1 signature : 348EA8B9
AccurateRip v2 signature : B9E2D54B
->Accurately ripped (v1+v2, confidence 4+6/10)
Statistics
Read error : 0
Jitter error (maybe fixed) : 0
Retry sector count : 0
Damaged sector count : 0

Track 03

CRC32 hash : D37C899E
CRC32 hash (skip zero) : CD771784
AccurateRip v1 signature : D683453D
AccurateRip v2 signature : F4E69D0E
->Accurately ripped (v1+v2, confidence 4+6/10)
Statistics
Read error : 0
Jitter error (maybe fixed) : 0
Retry sector count : 0
Damaged sector count : 0

Track 04

CRC32 hash : 8C806AF5
CRC32 hash (skip zero) : 4DFC031B
AccurateRip v1 signature : 45DC0B16
AccurateRip v2 signature : 93F402C0
->Accurately ripped (v1+v2, confidence 4+6/10)
Statistics
Read error : 0
Jitter error (maybe fixed) : 1
Retry sector count : 0
Damaged sector count : 0

Track 05

CRC32 hash : C1542E1B
CRC32 hash (skip zero) : A24E547F
AccurateRip v1 signature : BD79D795
AccurateRip v2 signature : E0D0E8B5
->Accurately ripped (v1+v2, confidence 4+6/10)
Statistics
Read error : 0
Jitter error (maybe fixed) : 0
Retry sector count : 0
Damaged sector count : 0

Track 06

CRC32 hash : BBAA35CE
CRC32 hash (skip zero) : 4E74F0F6
AccurateRip v1 signature : 8C636EA5
AccurateRip v2 signature : BC719D64
->Accurately ripped (v1+v2, confidence 4+6/10)
Statistics
Read error : 0
Jitter error (maybe fixed) : 0
Retry sector count : 0
Damaged sector count : 0

Track 07

CRC32 hash : C3C2B432
CRC32 hash (skip zero) : 411DB235
AccurateRip v1 signature : E63CF9AB
AccurateRip v2 signature : B0A21C4C
->Accurately ripped (v1+v2, confidence 4+6/10)
Statistics
Read error : 0
Jitter error (maybe fixed) : 0
Retry sector count : 0
Damaged sector count : 0

Track 08

CRC32 hash : 9545F1DA
CRC32 hash (skip zero) : 80C6A7B4
AccurateRip v1 signature : 6668DF76
AccurateRip v2 signature : 55960E79
->Accurately ripped (v1+v2, confidence 4+6/10)
Statistics
Read error : 0
Jitter error (maybe fixed) : 0
Retry sector count : 0
Damaged sector count : 0

Track 09

CRC32 hash : E15B4221
CRC32 hash (skip zero) : 80F13A49
AccurateRip v1 signature : 13E7D62A
AccurateRip v2 signature : 93493B81
->Accurately ripped (v1+v2, confidence 4+6/10)
Statistics
Read error : 0
Jitter error (maybe fixed) : 0
Retry sector count : 0
Damaged sector count : 0

Track 10

CRC32 hash : 35E15257
CRC32 hash (skip zero) : 58444F0C
AccurateRip v1 signature : ED844980
AccurateRip v2 signature : E7734CC9
->Accurately ripped (v1+v2, confidence 4+6/10)
Statistics
Read error : 0
Jitter error (maybe fixed) : 0
Retry sector count : 0
Damaged sector count : 0

Track 11

CRC32 hash : 112B0330
CRC32 hash (skip zero) : F5BC94A5
AccurateRip v1 signature : E0B9D69C
AccurateRip v2 signature : C0FFA715
->Accurately ripped (v1+v2, confidence 4+6/10)
Statistics
Read error : 0
Jitter error (maybe fixed) : 0
Retry sector count : 0
Damaged sector count : 0

No errors occurred

End of status report


01. Guitar Improv. (02:01)
02. Anya (10:04)
03. The Battle Rages On (06:34)
04. Lazy (03:19)
05. Drums Improv. (04:17)
06. Space Truckin' (02:29)
07. Woman From Tokyo (02:09)
08. Paint It Black (05:50)
09. Hush (03:45)
10. Smoke On The Water (10:25)

X Lossless Decoder version 20160920 (149.2)

XLD extraction logfile from 2017-01-18 21:48:38 +0300

Deep Purple / In Your Trousers

Used drive : OPTIARC DVD RW AD-5630A (revision 2CH9)
Media type : Pressed CD

Ripper mode : XLD Secure Ripper
Disable audio cache : OK for the drive with a cache less than 1375KiB
Make use of C2 pointers : NO
Read offset correction : 48
Max retry count : 20
Gap status : Analyzed, Appended

TOC of the extracted CD
Track | Start | Length | Start sector | End sector
––––––––––––––––––––––––––––-
1 | 00:00:00 | 02:00:63 | 0 | 9062
2 | 02:00:63 | 10:03:62 | 9063 | 54349
3 | 12:04:50 | 06:33:52 | 54350 | 83876
4 | 18:38:27 | 03:19:18 | 83877 | 98819
5 | 21:57:45 | 04:16:43 | 98820 | 118062
6 | 26:14:13 | 02:29:16 | 118063 | 129253
7 | 28:43:29 | 02:09:20 | 129254 | 138948
8 | 30:52:49 | 05:49:67 | 138949 | 165190
9 | 36:42:41 | 03:44:42 | 165191 | 182032
10 | 40:27:08 | 10:24:35 | 182033 | 228867

AccurateRip Summary (DiscID: 00127094-0091e042-750beb0a)
Track 01 : OK (v1+v2, confidence 10/10)
Track 02 : OK (v1+v2, confidence 10/10)
Track 03 : OK (v1+v2, confidence 10/10)
Track 04 : OK (v1+v2, confidence 10/10)
Track 05 : OK (v1+v2, confidence 10/10)
Track 06 : OK (v1+v2, confidence 10/10)
Track 07 : OK (v1+v2, confidence 10/10)
Track 08 : OK (v1+v2, confidence 10/10)
Track 09 : OK (v1+v2, confidence 10/10)
Track 10 : OK (v1+v2, confidence 10/10)
->All tracks accurately ripped.

All Tracks
Filename : /Users/dima/Documents/torrents/In Your Trousers.flac
CRC32 hash : 224C7CEB
CRC32 hash (skip zero) : 376BE4F3
Statistics
Read error : 0
Jitter error (maybe fixed) : 0
Retry sector count : 0
Damaged sector count : 0

Track 01
Pre-gap length : 00:02:00

CRC32 hash : 75B5DB0F
CRC32 hash (skip zero) : F33D7B8E
AccurateRip v1 signature : 4A91F0D7
AccurateRip v2 signature : 06334AD9
->Accurately ripped (v1+v2, confidence 4+6/10)
Statistics
Read error : 0
Jitter error (maybe fixed) : 0
Retry sector count : 0
Damaged sector count : 0

Track 02

CRC32 hash : 7C0CED26
CRC32 hash (skip zero) : 65D2F96B
AccurateRip v1 signature : A72B7962
AccurateRip v2 signature : 6ABCEC27
->Accurately ripped (v1+v2, confidence 4+6/10)
Statistics
Read error : 0
Jitter error (maybe fixed) : 0
Retry sector count : 0
Damaged sector count : 0

Track 03

CRC32 hash : 00CD3CF7
CRC32 hash (skip zero) : 68E3609E
AccurateRip v1 signature : A9F29165
AccurateRip v2 signature : 6CDB140D
->Accurately ripped (v1+v2, confidence 4+6/10)
Statistics
Read error : 0
Jitter error (maybe fixed) : 0
Retry sector count : 0
Damaged sector count : 0

Track 04

CRC32 hash : 9E8E56BB
CRC32 hash (skip zero) : EBF134CA
AccurateRip v1 signature : A7FBACCB
AccurateRip v2 signature : 698B6382
->Accurately ripped (v1+v2, confidence 4+6/10)
Statistics
Read error : 0
Jitter error (maybe fixed) : 0
Retry sector count : 0
Damaged sector count : 0

Track 05

CRC32 hash : 7F12168B
CRC32 hash (skip zero) : 4D4DF1FE
AccurateRip v1 signature : 3E43C85C
AccurateRip v2 signature : 4241DD0A
->Accurately ripped (v1+v2, confidence 4+6/10)
Statistics
Read error : 0
Jitter error (maybe fixed) : 0
Retry sector count : 0
Damaged sector count : 0

Track 06

CRC32 hash : 9345FA14
CRC32 hash (skip zero) : B42C2CFB
AccurateRip v1 signature : 4B8F0DD5
AccurateRip v2 signature : A7D7BA53
->Accurately ripped (v1+v2, confidence 4+6/10)
Statistics
Read error : 0
Jitter error (maybe fixed) : 0
Retry sector count : 0
Damaged sector count : 0

Track 07

CRC32 hash : 96E826D2
CRC32 hash (skip zero) : E9061151
AccurateRip v1 signature : 5F36C033
AccurateRip v2 signature : 15BF1DBE
->Accurately ripped (v1+v2, confidence 4+6/10)
Statistics
Read error : 0
Jitter error (maybe fixed) : 0
Retry sector count : 0
Damaged sector count : 0

Track 08

CRC32 hash : 44B695F8
CRC32 hash (skip zero) : DACD46C9
AccurateRip v1 signature : CFA757C0
AccurateRip v2 signature : A1C1E604
->Accurately ripped (v1+v2, confidence 4+6/10)
Statistics
Read error : 0
Jitter error (maybe fixed) : 0
Retry sector count : 0
Damaged sector count : 0

Track 09

CRC32 hash : F672FB05
CRC32 hash (skip zero) : CBC4406F
AccurateRip v1 signature : 860A6D43
AccurateRip v2 signature : BD93A00F
->Accurately ripped (v1+v2, confidence 4+6/10)
Statistics
Read error : 0
Jitter error (maybe fixed) : 0
Retry sector count : 0
Damaged sector count : 0

Track 10

CRC32 hash : F70BE76F
CRC32 hash (skip zero) : 7D51CEF9
AccurateRip v1 signature : 97896787
AccurateRip v2 signature : FC432434
->Accurately ripped (v1+v2, confidence 4+6/10)
Statistics
Read error : 0
Jitter error (maybe fixed) : 0
Retry sector count : 0
Damaged sector count : 0

No errors occurred

End of status report


Deep Purple - Collectors Edition: The Bootleg Series 1984-2000 (2000) [12CD Box Set] Repost

Tracklist CD09-10. PURPLE SUNSHINE - Live In Ft. Lauderdale 1995:

01. Fireball (04:34)
02. Black Night (07:21)
03. The Battle Rages On (06:57)
04. Ted The Mechanic (04:30)
05. Woman From Tokyo (06:11)
06. The Purpendicular Waltz (05:44)
07. When A Blind Man Cries (06:46)
08. Perfect Strangers (06:54)
09. Pictures Of Home / Jon Lord Solo (07:47)
10. Knocking At Your Back Door (07:36)
11. Anyone's Daughter (03:43)

X Lossless Decoder version 20160920 (149.2)

XLD extraction logfile from 2017-01-18 20:47:37 +0300

Deep Purple / Purple Sunshine

Used drive : OPTIARC DVD RW AD-5630A (revision 2CH9)
Media type : Pressed CD

Ripper mode : XLD Secure Ripper
Disable audio cache : OK for the drive with a cache less than 1375KiB
Make use of C2 pointers : NO
Read offset correction : 48
Max retry count : 20
Gap status : Analyzed, Appended

TOC of the extracted CD
Track | Start | Length | Start sector | End sector
––––––––––––––––––––––––––––-
1 | 00:00:00 | 04:34:01 | 0 | 20550
2 | 04:34:01 | 07:20:53 | 20551 | 53603
3 | 11:54:54 | 06:56:36 | 53604 | 84839
4 | 18:51:15 | 04:29:42 | 84840 | 105056
5 | 23:20:57 | 06:11:28 | 105057 | 132909
6 | 29:32:10 | 05:44:18 | 132910 | 158727
7 | 35:16:28 | 06:45:57 | 158728 | 189159
8 | 42:02:10 | 06:54:13 | 189160 | 220222
9 | 48:56:23 | 07:47:01 | 220223 | 255248
10 | 56:43:24 | 07:36:31 | 255249 | 289479
11 | 64:19:55 | 03:42:39 | 289480 | 306168

AccurateRip Summary (DiscID: 001bb5a3-00f253f1-8e0ff20b)
Track 01 : OK (v1+v2, confidence 11/11)
Track 02 : OK (v1+v2, confidence 11/11)
Track 03 : OK (v1+v2, confidence 11/11)
Track 04 : OK (v1+v2, confidence 11/11)
Track 05 : OK (v1+v2, confidence 11/11)
Track 06 : OK (v1+v2, confidence 11/11)
Track 07 : OK (v1+v2, confidence 11/11)
Track 08 : OK (v1+v2, confidence 11/11)
Track 09 : OK (v1+v2, confidence 11/11)
Track 10 : OK (v1+v2, confidence 11/11)
Track 11 : OK (v1+v2, confidence 11/11)
->All tracks accurately ripped.

All Tracks
Filename : /Users/dima/Documents/torrents/Purple Sunshine.flac
CRC32 hash : EC565F18
CRC32 hash (skip zero) : E3CDE5B7
Statistics
Read error : 0
Jitter error (maybe fixed) : 0
Retry sector count : 0
Damaged sector count : 0

Track 01
Pre-gap length : 00:02:00

CRC32 hash : 845044B8
CRC32 hash (skip zero) : 2059D7DD
AccurateRip v1 signature : 739CDD55
AccurateRip v2 signature : B75C6DB1
->Accurately ripped (v1+v2, confidence 4+7/11)
Statistics
Read error : 0
Jitter error (maybe fixed) : 0
Retry sector count : 0
Damaged sector count : 0

Track 02

CRC32 hash : 54046E98
CRC32 hash (skip zero) : 3ABBB586
AccurateRip v1 signature : BE49D716
AccurateRip v2 signature : 26DDD6EF
->Accurately ripped (v1+v2, confidence 4+7/11)
Statistics
Read error : 0
Jitter error (maybe fixed) : 0
Retry sector count : 0
Damaged sector count : 0

Track 03

CRC32 hash : 75028B8C
CRC32 hash (skip zero) : 574A0E06
AccurateRip v1 signature : 387ADB24
AccurateRip v2 signature : 44D2AEA6
->Accurately ripped (v1+v2, confidence 4+7/11)
Statistics
Read error : 0
Jitter error (maybe fixed) : 0
Retry sector count : 0
Damaged sector count : 0

Track 04

CRC32 hash : 42E4D984
CRC32 hash (skip zero) : 88D7726F
AccurateRip v1 signature : 3E8D83B1
AccurateRip v2 signature : EB142F4D
->Accurately ripped (v1+v2, confidence 4+7/11)
Statistics
Read error : 0
Jitter error (maybe fixed) : 0
Retry sector count : 0
Damaged sector count : 0

Track 05

CRC32 hash : 950DE016
CRC32 hash (skip zero) : 85350FEF
AccurateRip v1 signature : FEEF541E
AccurateRip v2 signature : 46505765
->Accurately ripped (v1+v2, confidence 4+7/11)
Statistics
Read error : 0
Jitter error (maybe fixed) : 0
Retry sector count : 0
Damaged sector count : 0

Track 06

CRC32 hash : 9E3E1297
CRC32 hash (skip zero) : B9AD7840
AccurateRip v1 signature : 029A23BF
AccurateRip v2 signature : D7577378
->Accurately ripped (v1+v2, confidence 4+7/11)
Statistics
Read error : 0
Jitter error (maybe fixed) : 0
Retry sector count : 0
Damaged sector count : 0

Track 07

CRC32 hash : 6AC0DC2B
CRC32 hash (skip zero) : 3CFD574C
AccurateRip v1 signature : 1D8A48A4
AccurateRip v2 signature : 44D757AB
->Accurately ripped (v1+v2, confidence 4+7/11)
Statistics
Read error : 0
Jitter error (maybe fixed) : 0
Retry sector count : 0
Damaged sector count : 0

Track 08

CRC32 hash : C9201410
CRC32 hash (skip zero) : 50A28252
AccurateRip v1 signature : AF1ADA04
AccurateRip v2 signature : 3D0BAA52
->Accurately ripped (v1+v2, confidence 4+7/11)
Statistics
Read error : 0
Jitter error (maybe fixed) : 0
Retry sector count : 0
Damaged sector count : 0

Track 09

CRC32 hash : 89C39A5B
CRC32 hash (skip zero) : CD0D2C34
AccurateRip v1 signature : FFB12C9A
AccurateRip v2 signature : 76AB34B5
->Accurately ripped (v1+v2, confidence 4+7/11)
Statistics
Read error : 0
Jitter error (maybe fixed) : 0
Retry sector count : 0
Damaged sector count : 0

Track 10

CRC32 hash : DD4D9536
CRC32 hash (skip zero) : D75A99AE
AccurateRip v1 signature : A833C848
AccurateRip v2 signature : D6B54D70
->Accurately ripped (v1+v2, confidence 4+7/11)
Statistics
Read error : 0
Jitter error (maybe fixed) : 0
Retry sector count : 0
Damaged sector count : 0

Track 11

CRC32 hash : 323DF283
CRC32 hash (skip zero) : C911768E
AccurateRip v1 signature : BAEBA85E
AccurateRip v2 signature : 00ABA410
->Accurately ripped (v1+v2, confidence 4+7/11)
Statistics
Read error : 0
Jitter error (maybe fixed) : 0
Retry sector count : 0
Damaged sector count : 0

No errors occurred

End of status report


01. Child In Time (09:33)
02. Anya (10:00)
03. Lazy / Ian Paice Solo (04:29)
04. Speed King (07:49)
05. Highway Star (06:11)
06. Smoke On The Water (07:57)

X Lossless Decoder version 20160920 (149.2)

XLD extraction logfile from 2017-01-18 21:17:27 +0300

Deep Purple / Purple Sunshine

Used drive : OPTIARC DVD RW AD-5630A (revision 2CH9)
Media type : Pressed CD

Ripper mode : XLD Secure Ripper
Disable audio cache : OK for the drive with a cache less than 1375KiB
Make use of C2 pointers : NO
Read offset correction : 48
Max retry count : 20
Gap status : Analyzed, Appended

TOC of the extracted CD
Track | Start | Length | Start sector | End sector
––––––––––––––––––––––––––––-
1 | 00:00:00 | 09:32:56 | 0 | 42955
2 | 09:32:56 | 09:59:69 | 42956 | 87949
3 | 19:32:50 | 04:28:67 | 87950 | 108116
4 | 24:01:42 | 07:49:27 | 108117 | 143318
5 | 31:50:69 | 06:11:20 | 143319 | 171163
6 | 38:02:14 | 07:56:69 | 171164 | 206932

AccurateRip Summary (DiscID: 000b9a77-003ca4c5-480ac706)
Track 01 : OK (v1+v2, confidence 11/11)
Track 02 : OK (v1+v2, confidence 11/11)
Track 03 : OK (v1+v2, confidence 11/11)
Track 04 : OK (v1+v2, confidence 11/11)
Track 05 : OK (v1+v2, confidence 11/11)
Track 06 : OK (v1+v2, confidence 11/11)
->All tracks accurately ripped.

All Tracks
Filename : /Users/dima/Documents/torrents/Purple Sunshine(1).flac
CRC32 hash : 227F2561
CRC32 hash (skip zero) : 9B8D5D00
Statistics
Read error : 0
Jitter error (maybe fixed) : 0
Retry sector count : 0
Damaged sector count : 0

Track 01
Pre-gap length : 00:02:00

CRC32 hash : E6B0AEB7
CRC32 hash (skip zero) : 38C68E85
AccurateRip v1 signature : F46EA638
AccurateRip v2 signature : C5C17456
->Accurately ripped (v1+v2, confidence 4+7/11)
Statistics
Read error : 0
Jitter error (maybe fixed) : 0
Retry sector count : 0
Damaged sector count : 0

Track 02

CRC32 hash : E4E4CFAB
CRC32 hash (skip zero) : FCAC79F7
AccurateRip v1 signature : 893BEA48
AccurateRip v2 signature : BC3E26D7
->Accurately ripped (v1+v2, confidence 4+7/11)
Statistics
Read error : 0
Jitter error (maybe fixed) : 0
Retry sector count : 0
Damaged sector count : 0

Track 03

CRC32 hash : 28B6C4CE
CRC32 hash (skip zero) : 6E826F26
AccurateRip v1 signature : 9901FB0E
AccurateRip v2 signature : D59F99B9
->Accurately ripped (v1+v2, confidence 4+7/11)
Statistics
Read error : 0
Jitter error (maybe fixed) : 0
Retry sector count : 0
Damaged sector count : 0

Track 04

CRC32 hash : 363E703B
CRC32 hash (skip zero) : CD7BE60F
AccurateRip v1 signature : 48CBCF01
AccurateRip v2 signature : 726B2B6F
->Accurately ripped (v1+v2, confidence 4+7/11)
Statistics
Read error : 0
Jitter error (maybe fixed) : 0
Retry sector count : 0
Damaged sector count : 0

Track 05

CRC32 hash : 4374E67F
CRC32 hash (skip zero) : 70A4BF97
AccurateRip v1 signature : C5A5678F
AccurateRip v2 signature : EFD47815
->Accurately ripped (v1+v2, confidence 4+7/11)
Statistics
Read error : 0
Jitter error (maybe fixed) : 0
Retry sector count : 0
Damaged sector count : 0

Track 06

CRC32 hash : 844DE0EB
CRC32 hash (skip zero) : 00F184F6
AccurateRip v1 signature : 1168E315
AccurateRip v2 signature : A3435F8D
->Accurately ripped (v1+v2, confidence 4+7/11)
Statistics
Read error : 0
Jitter error (maybe fixed) : 0
Retry sector count : 0
Damaged sector count : 0

No errors occurred

End of status report


Deep Purple - Collectors Edition: The Bootleg Series 1984-2000 (2000) [12CD Box Set] Repost

Tracklist CD11-12. MADE IN JAPAN 2000 - Live In Osaka 2000:

01. Woman From Tokyo (06:34)
02. Fireball (03:21)
03. Into The Fire (03:58)
04. Sometimes I Feel Like Screaming (07:19)
05. '69 (08:35)
06. Smoke On The Water (08:56)
07. Fools (10:42)
08. Black Night (07:28)
09. Watching The Sky (05:11)

X Lossless Decoder version 20160920 (149.2)

XLD extraction logfile from 2017-01-18 19:00:01 +0300

Deep Purple / The Bootleg Series 1984-2000 - Made In Japan 2000 [[Disc 1]]

Used drive : OPTIARC DVD RW AD-5630A (revision 2CH9)
Media type : Pressed CD

Ripper mode : XLD Secure Ripper
Disable audio cache : OK for the drive with a cache less than 1375KiB
Make use of C2 pointers : NO
Read offset correction : 48
Max retry count : 20
Gap status : Analyzed, Appended

TOC of the extracted CD
Track | Start | Length | Start sector | End sector
––––––––––––––––––––––––––––-
1 | 00:00:00 | 06:33:52 | 0 | 29526
2 | 06:33:52 | 03:20:56 | 29527 | 44582
3 | 09:54:33 | 03:57:57 | 44583 | 62414
4 | 13:52:15 | 07:19:26 | 62415 | 95365
5 | 21:11:41 | 08:34:69 | 95366 | 133984
6 | 29:46:35 | 08:55:41 | 133985 | 174150
7 | 38:42:01 | 10:41:40 | 174151 | 222265
8 | 49:23:41 | 07:27:67 | 222266 | 255857
9 | 56:51:33 | 05:11:03 | 255858 | 279185

AccurateRip Summary (DiscID: 0013cbb9-0095c3bb-870e8a09)
Track 01 : OK (v1+v2, confidence 11/11)
Track 02 : OK (v1+v2, confidence 11/11)
Track 03 : OK (v1+v2, confidence 11/11)
Track 04 : OK (v1+v2, confidence 11/11)
Track 05 : OK (v1+v2, confidence 11/11)
Track 06 : OK (v1+v2, confidence 11/11)
Track 07 : OK (v1+v2, confidence 11/11)
Track 08 : OK (v1+v2, confidence 11/11)
Track 09 : OK (v1+v2, confidence 11/11)
->All tracks accurately ripped.

All Tracks
Filename : /Users/dima/Documents/torrents/The Bootleg Series 1984-2000 - Made In Japan 2000 [[Disc 1]].flac
CRC32 hash : 83E18327
CRC32 hash (skip zero) : DE351C26
Statistics
Read error : 0
Jitter error (maybe fixed) : 2
Retry sector count : 0
Damaged sector count : 0

Track 01
Pre-gap length : 00:02:00

CRC32 hash : 7211F2F6
CRC32 hash (skip zero) : 3643E649
AccurateRip v1 signature : 90204AF4
AccurateRip v2 signature : 25D62835
->Accurately ripped (v1+v2, confidence 4+7/11)
Statistics
Read error : 0
Jitter error (maybe fixed) : 0
Retry sector count : 0
Damaged sector count : 0

Track 02

CRC32 hash : 54202CA4
CRC32 hash (skip zero) : 3EF21985
AccurateRip v1 signature : 0C7D8729
AccurateRip v2 signature : D62746BB
->Accurately ripped (v1+v2, confidence 4+7/11)
Statistics
Read error : 0
Jitter error (maybe fixed) : 1
Retry sector count : 0
Damaged sector count : 0

Track 03

CRC32 hash : 837D7D00
CRC32 hash (skip zero) : BD0B6BEE
AccurateRip v1 signature : AE8E148E
AccurateRip v2 signature : A74B06A5
->Accurately ripped (v1+v2, confidence 4+7/11)
Statistics
Read error : 0
Jitter error (maybe fixed) : 0
Retry sector count : 0
Damaged sector count : 0

Track 04

CRC32 hash : 9F525D27
CRC32 hash (skip zero) : D80B170C
AccurateRip v1 signature : 6793FA58
AccurateRip v2 signature : 7B8BBA64
->Accurately ripped (v1+v2, confidence 4+7/11)
Statistics
Read error : 0
Jitter error (maybe fixed) : 0
Retry sector count : 0
Damaged sector count : 0

Track 05

CRC32 hash : 0804CF8F
CRC32 hash (skip zero) : 5FD338BA
AccurateRip v1 signature : 9312877F
AccurateRip v2 signature : 8DE32BF5
->Accurately ripped (v1+v2, confidence 4+7/11)
Statistics
Read error : 0
Jitter error (maybe fixed) : 1
Retry sector count : 0
Damaged sector count : 0

Track 06

CRC32 hash : 5804E69E
CRC32 hash (skip zero) : 4EE58EC6
AccurateRip v1 signature : 1AD5B9FF
AccurateRip v2 signature : FA4F0997
->Accurately ripped (v1+v2, confidence 4+7/11)
Statistics
Read error : 0
Jitter error (maybe fixed) : 0
Retry sector count : 0
Damaged sector count : 0

Track 07

CRC32 hash : 4B079723
CRC32 hash (skip zero) : 0197651D
AccurateRip v1 signature : 4CBB76C0
AccurateRip v2 signature : 49EB12ED
->Accurately ripped (v1+v2, confidence 4+7/11)
Statistics
Read error : 0
Jitter error (maybe fixed) : 0
Retry sector count : 0
Damaged sector count : 0

Track 08

CRC32 hash : B8199D4D
CRC32 hash (skip zero) : A6573BF9
AccurateRip v1 signature : E3BFDBC5
AccurateRip v2 signature : E12DC04E
->Accurately ripped (v1+v2, confidence 4+7/11)
Statistics
Read error : 0
Jitter error (maybe fixed) : 0
Retry sector count : 0
Damaged sector count : 0

Track 09

CRC32 hash : 2E62FBB2
CRC32 hash (skip zero) : 96FFD069
AccurateRip v1 signature : E901D0D4
AccurateRip v2 signature : 367D7085
->Accurately ripped (v1+v2, confidence 4+7/11)
Statistics
Read error : 0
Jitter error (maybe fixed) : 0
Retry sector count : 0
Damaged sector count : 0

No errors occurred

End of status report


01. Steve Morse Guitar Solo (07:17)
02. Any Fule Kno That (05:07)
03. Jon Lord Organ Solo (02:33)
04. Perfect Strangers (06:52)
05. When A Blind Man Cries (06:48)
06. Speed King / Ian's Solo (15:55)
07. Lazy (05:30)
08. Hush (03:25)
09. Highway Star (07:41)

X Lossless Decoder version 20160920 (149.2)

XLD extraction logfile from 2017-01-18 19:16:30 +0300

Deep Purple / Made in Japan 2000

Used drive : OPTIARC DVD RW AD-5630A (revision 2CH9)
Media type : Pressed CD

Ripper mode : XLD Secure Ripper
Disable audio cache : OK for the drive with a cache less than 1375KiB
Make use of C2 pointers : NO
Read offset correction : 48
Max retry count : 20
Gap status : Analyzed, Appended

TOC of the extracted CD
Track | Start | Length | Start sector | End sector
––––––––––––––––––––––––––––-
1 | 00:00:00 | 07:16:43 | 0 | 32742
2 | 07:16:43 | 05:06:73 | 32743 | 55765
3 | 12:23:41 | 02:33:26 | 55766 | 67266
4 | 14:56:67 | 06:52:03 | 67267 | 98169
5 | 21:48:70 | 06:47:61 | 98170 | 128755
6 | 28:36:56 | 15:55:04 | 128756 | 200384
7 | 44:31:60 | 05:29:51 | 200385 | 225110
8 | 50:01:36 | 03:25:15 | 225111 | 240500
9 | 53:26:51 | 07:40:65 | 240501 | 275065

AccurateRip Summary (DiscID: 001432f5-0096d157-750e5309)
Track 01 : OK (v1+v2, confidence 11/11)
Track 02 : OK (v1+v2, confidence 11/11)
Track 03 : OK (v1+v2, confidence 11/11)
Track 04 : OK (v1+v2, confidence 11/11)
Track 05 : OK (v1+v2, confidence 11/11)
Track 06 : OK (v1+v2, confidence 11/11)
Track 07 : OK (v1+v2, confidence 11/11)
Track 08 : OK (v1+v2, confidence 11/11)
Track 09 : OK (v1+v2, confidence 11/11)
->All tracks accurately ripped.

All Tracks
Filename : /Users/dima/Documents/torrents/Made in Japan 2000.flac
CRC32 hash : C9493A79
CRC32 hash (skip zero) : 264EFD86
Statistics
Read error : 0
Jitter error (maybe fixed) : 0
Retry sector count : 3
Damaged sector count : 0

Track 01
Pre-gap length : 00:02:00

CRC32 hash : 4C22F483
CRC32 hash (skip zero) : 17A9B5A9
AccurateRip v1 signature : 53C5CE96
AccurateRip v2 signature : 425E223E
->Accurately ripped (v1+v2, confidence 4+7/11)
Statistics
Read error : 0
Jitter error (maybe fixed) : 0
Retry sector count : 0
Damaged sector count : 0

Track 02

CRC32 hash : 2209F546
CRC32 hash (skip zero) : 17667C8C
AccurateRip v1 signature : 240CB7A9
AccurateRip v2 signature : 1DA02C48
->Accurately ripped (v1+v2, confidence 4+7/11)
Statistics
Read error : 0
Jitter error (maybe fixed) : 0
Retry sector count : 0
Damaged sector count : 0

Track 03

CRC32 hash : 1BD12F2F
CRC32 hash (skip zero) : 1104E186
AccurateRip v1 signature : C7151AAC
AccurateRip v2 signature : 74A4438F
->Accurately ripped (v1+v2, confidence 4+7/11)
Statistics
Read error : 0
Jitter error (maybe fixed) : 0
Retry sector count : 0
Damaged sector count : 0

Track 04

CRC32 hash : 978C46EC
CRC32 hash (skip zero) : C888EF98
AccurateRip v1 signature : F293A0C9
AccurateRip v2 signature : 8951D967
->Accurately ripped (v1+v2, confidence 4+7/11)
Statistics
Read error : 0
Jitter error (maybe fixed) : 0
Retry sector count : 0
Damaged sector count : 0

Track 05

CRC32 hash : C10FC7E7
CRC32 hash (skip zero) : C404F941
AccurateRip v1 signature : AD88CF57
AccurateRip v2 signature : 574A4BB7
->Accurately ripped (v1+v2, confidence 4+7/11)
Statistics
Read error : 0
Jitter error (maybe fixed) : 0
Retry sector count : 0
Damaged sector count : 0

Track 06

CRC32 hash : 810C926C
CRC32 hash (skip zero) : 6567AFB4
AccurateRip v1 signature : 7E163BEA
AccurateRip v2 signature : 6CE8DE54
->Accurately ripped (v1+v2, confidence 4+7/11)
Statistics
Read error : 0
Jitter error (maybe fixed) : 0
Retry sector count : 0
Damaged sector count : 0

Track 07

CRC32 hash : 4B22AECD
CRC32 hash (skip zero) : 0D6CF69A
AccurateRip v1 signature : 2DFB4285
AccurateRip v2 signature : 47DB149D
->Accurately ripped (v1+v2, confidence 4+7/11)
Statistics
Read error : 0
Jitter error (maybe fixed) : 0
Retry sector count : 0
Damaged sector count : 0

Track 08

CRC32 hash : 5FBCCDFC
CRC32 hash (skip zero) : 32C6DC2B
AccurateRip v1 signature : 84A54B7A
AccurateRip v2 signature : C7215941
->Accurately ripped (v1+v2, confidence 4+7/11)
Statistics
Read error : 0
Jitter error (maybe fixed) : 0
Retry sector count : 0
Damaged sector count : 0

Track 09

CRC32 hash : E54A2BE9
CRC32 hash (skip zero) : ABAECFED
AccurateRip v1 signature : CCDE8DE0
AccurateRip v2 signature : 7BE80211
->Accurately ripped (v1+v2, confidence 4+7/11)
Statistics
Read error : 0
Jitter error (maybe fixed) : 0
Retry sector count : 3
Damaged sector count : 0

No errors occurred

End of status report


Deep Purple - Collectors Edition: The Bootleg Series 1984-2000 (2000) [12CD Box Set] Repost

All thanks go to the original releaser

Deep Purple in my Blog

Download Deep Purple - Collectors Edition: The Bootleg Series 1984-2000 (2000: