Tags
Language
Tags

Delaney & Bonnie & Friends - On Tour With Eric Clapton (1970) 4CD Box Set, Expanded Deluxe Edition, Remastered 2010

Posted By: Designol
Delaney & Bonnie & Friends - On Tour With Eric Clapton (1970) 4CD Box Set, Expanded Deluxe Edition, Remastered 2010

Delaney & Bonnie & Friends - On Tour With Eric Clapton (1970)
40th Anniversary 4CD Box Set, Expanded Deluxe Edition, Remastered 2010

EAC | FLAC | Tracks (Cue&Log) ~ 1.62 Gb | Mp3 (CBR320) ~ 600 Mb | Scans ~ 526 Mb
Label: Rhino Handmade | # RHM2 524797 | Time: 04:10:31
Blues Rock, Blue-Eyed Soul, Rock & Roll, Classic Rock

Delaney and Bonnie Bramlett assembled an all-star group of "friends" in 1969 for a weeklong tour of England, a legendary excursion that would produce On Tour With Eric Clapton, one of rock's most powerful and enduring live albums. Clocking in at a mere 40 minutes, the original left fans wanting more for decades. THE WAIT IS OVER - Rhino Handmade delivers with a four-disc deluxe reissue expanded with more than three hours of unreleased roof-raising, hickory-smoked rock 'n' soul.

The set, which comes packaged in a mock road case, contains Delaney & Bonnie & Friends' complete performance at London's Royal Albert Hall, plus a composite of the next night's performances at Colston Hall in Bristol, and both the early and late shows from the tour's final stop at Fairfield Halls in Croydon. Along with the Bramletts, the touring band showcased on these discs includes guitarists Eric Clapton and Dave Mason, bassist Carl Radle, drummer Jim Gordon, organist Bobby Whitlock, Jim Price and Bobby Keys on horns, percussionist Tex Johnson, and singer Rita Coolidge.

Along with unreleased versions of all the songs from the original, this reissue also contains several songs not featured on the 1970 album, including "I Don't Know Why" a track the Bramletts penned with Clapton; "My Baby Specializes" and "Everybody Loves A Winner" from the Bramlett's debut Home; "Get Ourselves Together" from the couple's 1969 follow-up Accept No Substitute; the traditional "Will The Circle Be Unbroken"; a cover of Spencer Davis Group's "Gimme Some Lovin'"; and the instrumental "Pigmy".

This 42-minute, eight-song live album, cut at Croydon late in 1969, is not only the peak of Delaney & Bonnie's output, but also the nexus in the recording and performing careers of Eric Clapton and George Harrison. On Tour features Clapton performing the same blend of country, blues, and gospel that would characterize his own early solo ventures in 1970. He rises to the occasion with dazzling displays of virtuosity throughout, highlighted by a dizzying solo on "I Don't Want to Discuss," a long, languid part on "Only You Know and I Know," and searing, soulful lead on the beautifully harmonized "Coming Home." Vocally, Delaney & Bonnie were never better than they come off on this live set, and the 11-piece band sounds tighter musically than a lot of quartets that were working at the time, whether they're playing extended blues or ripping through a medley of Little Richard songs. It's no accident that the band featured here would become Clapton's own studio outfit for his debut solo LP, or that the core of this group – Bobby Whitlock, Carl Radle, and Jim Gordon – would transform itself into Derek & the Dominoes as well; or that most of the full band here would also comprise the group that played with George Harrison on All Things Must Pass and at the Concert for Bangladesh, except that the playing here (not to mention the recording) is better. Half the musicians on this record achieved near-superstar status less than a year later, and although the reasons behind their fame didn't last, listening to their work decades later, it all seems justified.

Review by Bruce Eder, Allmusic.com

Delaney & Bonnie & Friends - On Tour With Eric Clapton (1970) 4CD Box Set, Expanded Deluxe Edition, Remastered 2010



Tracklist:

CD1 - Complete Performance At London’s Royal Albert Hall (Monday 12/1/69 Green CD Cover):

01. Intro/Tuning (00:41)
02. Opening Jam (05:00)
03. Gimme Some Lovin' (03:49)
04. Band Introductions (01:36)
05. Only You Know and I Know (04:35)
06. Medley: Poor Elijah/Tribute to Johnson (05:18)
07. Get Ourselves Together (03:01)
08. I Don't Know Why (05:08)
09. Where There's a Will, There's a Way (04:29)
10. That's What My Man Is For (03:43)
11. Medley: Pour Your Love on Me/Just Plain Beautiful (09:20)
12. Everybody Loves a Winner (04:48)
13. Things Get Better (04:09)
14. Coming Home (04:48)
15. I Don't Want to Discuss It (05:19)
16. Little Richard Medley: Tutti Frutti/The Girl Can't Help It/Long Tall Sally/Jenny Jenny (08:51)
17. My Baby Specializes (04:18)


CD2 - Composite Of Performances At Colston Hall In Bristol (Tuesday 12/2/69 Red CD Cover):

01. Intro/Tuning (00:38)
02. Opening Jam (04:39)
03. Gimme Some Lovin' (04:10)
04. Things Get Better (03:48)
05. Medley: Poor Elijah/Tribute to Johnson (05:36)
06. I Don't Know Why (05:22)
07. Medley: Pour Your Love on Me/Just Plain Beautiful (08:41)
08. Where There's a Will, There's a Way (04:12)
09. Coming Home (04:49)
10. Little Richard Medley: Tutti Frutti/The Girl Can't Help It/Long Tall Sally/Jenny Jenny (07:13)
11. I Don't Want to Discuss It (05:52)
12. Crowd/Announcement (02:55)


CD3 - Early Show At Fairfield Halls In Croydon (Sunday 12/7/69 Yellow CD Cover):

01. Intro/Tuning (00:50)
02. Gimme Some Lovin' (04:01)
03. Introductions (00:44)
04. Things Get Better (04:59)
05. Medley: Poor Elijah/Tribute to Johnson (07:17)
06. I Don't Know Why (05:35)
07. Where There's a Will, There's a Way (05:27)
08. That's What My Man Is For (05:03)
09. I Don't Want to Discuss It (05:32)
10. Coming Home (07:51)


CD4 - Late Show At Fairfield Halls In Croydon (Sunday 12/7/69 Blue CD Cover):

01. Intro/Tuning (01:24)
02. Gimme Some Lovin' (04:24)
03. Pigmy (Instrumental) (08:50)
04. Introductions (01:30)
05. Things Get Better (04:50)
06. Medley: Poor Elijah/Tribute to Johnson (05:30)
07. Only You Know and I Know (05:28)
08. Will the Circle Be Unbroken (03:53)
09. Where There's a Will, There's a Way (05:22)
10. I Don't Know Why (05:57)
11. That's What My Man Is For (04:55)
12. Coming Home (07:41)
13. Little Richard Medley: Tutti Frutti/The Girl Can't Help It/Long Tall Sally/Jenny Jenny (06:17)


Exact Audio Copy V0.99 prebeta 4 from 23. January 2008

EAC extraction logfile from 27. November 2010, 12:49

Delaney & Bonnie & Friends with Eric Clapton / Royal Albert Hall 12/1/69

Used drive : TSSTcorpCD/DVDW TS-H652M Adapter: 1 ID: 0

Read mode : Secure
Utilize accurate stream : Yes
Defeat audio cache : Yes
Make use of C2 pointers : No

Read offset correction : 6
Overread into Lead-In and Lead-Out : No
Fill up missing offset samples with silence : Yes
Delete leading and trailing silent blocks : No
Null samples used in CRC calculations : Yes
Used interface : Native Win32 interface for Win NT & 2000
Gap handling : Appended to previous track

Used output format : User Defined Encoder
Selected bitrate : 320 kBit/s
Quality : High
Add ID3 tag : No
Command line compressor : C:\Program Files\Exact Audio Copy\Flac\flac.exe
Additional command line options : -8 -V -T "ARTIST=%a" -T "TITLE=%t" -T "ALBUM=%g" -T "DATE=%y" -T "TRACKNUMBER=%n" -T "TOTALTRACKS=%x" -T "GENRE=%m" -T "ALBUM ARTIST=%v" -T "ALBUMARTIST=%v" -T "COMMENT=EAC V0.99 prebeta 4, Secure Mode, Test & Copy, Accura


TOC of the extracted CD

Track | Start | Length | Start sector | End sector
––––––––––––––––––––––––––––-
1 | 0:00.00 | 0:41.20 | 0 | 3094
2 | 0:41.20 | 5:00.05 | 3095 | 25599
3 | 5:41.25 | 3:49.46 | 25600 | 42820
4 | 9:30.71 | 1:36.13 | 42821 | 50033
5 | 11:07.09 | 4:35.14 | 50034 | 70672
6 | 15:42.23 | 5:18.73 | 70673 | 94595
7 | 21:01.21 | 3:01.06 | 94596 | 108176
8 | 24:02.27 | 5:08.45 | 108177 | 131321
9 | 29:10.72 | 4:29.49 | 131322 | 151545
10 | 33:40.46 | 3:43.71 | 151546 | 168341
11 | 37:24.42 | 9:20.38 | 168342 | 210379
12 | 46:45.05 | 4:48.11 | 210380 | 231990
13 | 51:33.16 | 4:09.12 | 231991 | 250677
14 | 55:42.28 | 4:48.39 | 250678 | 272316
15 | 60:30.67 | 5:19.05 | 272317 | 296246
16 | 65:49.72 | 8:51.52 | 296247 | 336123
17 | 74:41.49 | 4:18.50 | 336124 | 355523


Track 1

Filename C:\CDs\Delaney & Bonnie & Friends - On Tour with Eric Clapton (1969) [FLAC] {2010 Deluxe Edition}\Disc 1\01 - Intro,Tuning.wav

Pre-gap length 0:00:02.00

Peak level 71.1 %
Track quality 100.0 %
Test CRC 9398E34E
Copy CRC 9398E34E
Accurately ripped (confidence 2) [4981DDA4]
Copy OK

Track 2

Filename C:\CDs\Delaney & Bonnie & Friends - On Tour with Eric Clapton (1969) [FLAC] {2010 Deluxe Edition}\Disc 1\02 - Opening Jam.wav

Peak level 98.8 %
Track quality 100.0 %
Test CRC BCDB8E18
Copy CRC BCDB8E18
Accurately ripped (confidence 2) [A380E878]
Copy OK

Track 3

Filename C:\CDs\Delaney & Bonnie & Friends - On Tour with Eric Clapton (1969) [FLAC] {2010 Deluxe Edition}\Disc 1\03 - Gimme Some Lovin'.wav

Pre-gap length 0:00:12.00

Peak level 98.8 %
Track quality 100.0 %
Test CRC B559ABA8
Copy CRC B559ABA8
Accurately ripped (confidence 2) [D505DA92]
Copy OK

Track 4

Filename C:\CDs\Delaney & Bonnie & Friends - On Tour with Eric Clapton (1969) [FLAC] {2010 Deluxe Edition}\Disc 1\04 - Band Introductions.wav

Peak level 98.8 %
Track quality 100.0 %
Test CRC 0027EC10
Copy CRC 0027EC10
Accurately ripped (confidence 2) [16FCC516]
Copy OK

Track 5

Filename C:\CDs\Delaney & Bonnie & Friends - On Tour with Eric Clapton (1969) [FLAC] {2010 Deluxe Edition}\Disc 1\05 - Only You Know And I Know.wav

Peak level 98.8 %
Track quality 100.0 %
Test CRC AF49EA52
Copy CRC AF49EA52
Accurately ripped (confidence 2) [9061B7DA]
Copy OK

Track 6

Filename C:\CDs\Delaney & Bonnie & Friends - On Tour with Eric Clapton (1969) [FLAC] {2010 Deluxe Edition}\Disc 1\06 - Medley- Poor Elijah,Tribute To Johnson.wav

Peak level 98.8 %
Track quality 100.0 %
Test CRC CFA61A39
Copy CRC CFA61A39
Accurately ripped (confidence 2) [ED28D961]
Copy OK

Track 7

Filename C:\CDs\Delaney & Bonnie & Friends - On Tour with Eric Clapton (1969) [FLAC] {2010 Deluxe Edition}\Disc 1\07 - Get Ourselves Together.wav

Peak level 98.8 %
Track quality 100.0 %
Test CRC 1D938E28
Copy CRC 1D938E28
Accurately ripped (confidence 2) [67FB00A5]
Copy OK

Track 8

Filename C:\CDs\Delaney & Bonnie & Friends - On Tour with Eric Clapton (1969) [FLAC] {2010 Deluxe Edition}\Disc 1\08 - I Don't Know Why.wav

Peak level 98.8 %
Track quality 100.0 %
Test CRC 9D3BB37A
Copy CRC 9D3BB37A
Accurately ripped (confidence 2) [6450920A]
Copy OK

Track 9

Filename C:\CDs\Delaney & Bonnie & Friends - On Tour with Eric Clapton (1969) [FLAC] {2010 Deluxe Edition}\Disc 1\09 - Where There's A Will, There's A Way.wav

Pre-gap length 0:00:17.33

Peak level 98.8 %
Track quality 99.9 %
Test CRC B62D088B
Copy CRC B62D088B
Accurately ripped (confidence 2) [8EAAA019]
Copy OK

Track 10

Filename C:\CDs\Delaney & Bonnie & Friends - On Tour with Eric Clapton (1969) [FLAC] {2010 Deluxe Edition}\Disc 1\10 - That's What My Man Is For.wav

Peak level 98.8 %
Track quality 100.0 %
Test CRC E24459B1
Copy CRC E24459B1
Accurately ripped (confidence 2) [C1752CAE]
Copy OK

Track 11

Filename C:\CDs\Delaney & Bonnie & Friends - On Tour with Eric Clapton (1969) [FLAC] {2010 Deluxe Edition}\Disc 1\11 - Medley- Pour Your Love On Me,Just Plain Beautiful.wav

Peak level 98.8 %
Track quality 99.9 %
Test CRC 2D6C33FF
Copy CRC 2D6C33FF
Accurately ripped (confidence 2) [71FED6F8]
Copy OK

Track 12

Filename C:\CDs\Delaney & Bonnie & Friends - On Tour with Eric Clapton (1969) [FLAC] {2010 Deluxe Edition}\Disc 1\12 - Everybody Loves A Winner.wav

Pre-gap length 0:00:04.28

Peak level 98.8 %
Track quality 100.0 %
Test CRC 4A172EAC
Copy CRC 4A172EAC
Accurately ripped (confidence 2) [B3D8FEC5]
Copy OK

Track 13

Filename C:\CDs\Delaney & Bonnie & Friends - On Tour with Eric Clapton (1969) [FLAC] {2010 Deluxe Edition}\Disc 1\13 - Things Get Better.wav

Peak level 98.8 %
Track quality 100.0 %
Test CRC 01E1CF37
Copy CRC 01E1CF37
Accurately ripped (confidence 2) [E94795AB]
Copy OK

Track 14

Filename C:\CDs\Delaney & Bonnie & Friends - On Tour with Eric Clapton (1969) [FLAC] {2010 Deluxe Edition}\Disc 1\14 - Coming Home.wav

Pre-gap length 0:00:06.56

Peak level 98.8 %
Track quality 100.0 %
Test CRC ECBF9C28
Copy CRC ECBF9C28
Accurately ripped (confidence 2) [85077906]
Copy OK

Track 15

Filename C:\CDs\Delaney & Bonnie & Friends - On Tour with Eric Clapton (1969) [FLAC] {2010 Deluxe Edition}\Disc 1\15 - I Don't Want To Discuss It.wav

Peak level 98.8 %
Track quality 100.0 %
Test CRC C7CAAEA0
Copy CRC C7CAAEA0
Accurately ripped (confidence 2) [10FE1ECA]
Copy OK

Track 16

Filename C:\CDs\Delaney & Bonnie & Friends - On Tour with Eric Clapton (1969) [FLAC] {2010 Deluxe Edition}\Disc 1\16 - Little Richard Medley- Tutti Frutti,The Girl Can't Help It,Long Tall Sally,Jenny Jenny.wav

Peak level 98.8 %
Track quality 100.0 %
Test CRC EC745CC8
Copy CRC EC745CC8
Accurately ripped (confidence 2) [8F9A9687]
Copy OK

Track 17

Filename C:\CDs\Delaney & Bonnie & Friends - On Tour with Eric Clapton (1969) [FLAC] {2010 Deluxe Edition}\Disc 1\17 - My Baby Specializes.wav

Pre-gap length 0:01:20.61

Peak level 98.8 %
Track quality 99.9 %
Test CRC DB52F798
Copy CRC DB52F798
Accurately ripped (confidence 2) [089FCB96]
Copy OK


All tracks accurately ripped

No errors occurred

End of status report

foobar2000 1.2 / Dynamic Range Meter 1.1.1
log date: 2017-01-10 15:53:09

––––––––––––––––––––––––––––––––––––––––
Analyzed: Delaney & Bonnie & Friends with Eric Clapton / Royal Albert Hall 12/1/69
––––––––––––––––––––––––––––––––––––––––

DR Peak RMS Duration Track
––––––––––––––––––––––––––––––––––––––––
DR14 -2.96 dB -19.00 dB 0:41 01-Intro/Tuning
DR8 -0.10 dB -9.76 dB 5:00 02-Opening Jam
DR6 -0.10 dB -8.10 dB 3:50 03-Gimme Some Lovin'
DR15 -0.10 dB -18.61 dB 1:36 04-Band Introductions
DR7 -0.10 dB -8.91 dB 4:35 05-Only You Know and I Know
DR9 -0.10 dB -10.60 dB 5:19 06-Medley: Poor Elijah/Tribute to Johnson
DR7 -0.10 dB -8.62 dB 3:01 07-Get Ourselves Together
DR7 -0.10 dB -10.10 dB 5:09 08-I Don't Know Why
DR6 -0.10 dB -7.99 dB 4:30 09-Where There's a Will, There's a Way
DR8 -0.10 dB -10.07 dB 3:44 10-That's What My Man Is For
DR7 -0.10 dB -8.96 dB 9:21 11-Medley: Pour Your Love on Me/Just Plain Beautiful
DR8 -0.10 dB -10.68 dB 4:48 12-Everybody Loves a Winner
DR8 -0.10 dB -9.72 dB 4:09 13-Things Get Better
DR7 -0.10 dB -8.56 dB 4:49 14-Coming Home
DR6 -0.10 dB -8.00 dB 5:19 15-I Don't Want to Discuss It
DR8 -0.10 dB -10.25 dB 8:52 16-Little Richard Medley: Tutti Frutti/The Girl Can't Help It/Long Tall Sally/Jenny Jenny
DR8 -0.10 dB -10.23 dB 4:19 17-My Baby Specializes
––––––––––––––––––––––––––––––––––––––––

Number of tracks: 17
Official DR value: DR8

Samplerate: 44100 Hz
Channels: 2
Bits per sample: 16
Bitrate: 914 kbps
Codec: FLAC
================================================================================


Exact Audio Copy V0.99 prebeta 4 from 23. January 2008

EAC extraction logfile from 27. November 2010, 13:52

Delaney & Bonnie & Friends with Eric Clapton / Colston Hall 12/2/69

Used drive : TSSTcorpCD/DVDW TS-H652M Adapter: 1 ID: 0

Read mode : Secure
Utilize accurate stream : Yes
Defeat audio cache : Yes
Make use of C2 pointers : No

Read offset correction : 6
Overread into Lead-In and Lead-Out : No
Fill up missing offset samples with silence : Yes
Delete leading and trailing silent blocks : No
Null samples used in CRC calculations : Yes
Used interface : Native Win32 interface for Win NT & 2000
Gap handling : Appended to previous track

Used output format : User Defined Encoder
Selected bitrate : 320 kBit/s
Quality : High
Add ID3 tag : No
Command line compressor : C:\Program Files\Exact Audio Copy\Flac\flac.exe
Additional command line options : -8 -V -T "ARTIST=%a" -T "TITLE=%t" -T "ALBUM=%g" -T "DATE=%y" -T "TRACKNUMBER=%n" -T "TOTALTRACKS=%x" -T "GENRE=%m" -T "ALBUM ARTIST=%v" -T "ALBUMARTIST=%v" -T "COMMENT=EAC V0.99 prebeta 4, Secure Mode, Test & Copy, Accura


TOC of the extracted CD

Track | Start | Length | Start sector | End sector
––––––––––––––––––––––––––––-
1 | 0:00.00 | 0:38.61 | 0 | 2910
2 | 0:38.61 | 4:39.22 | 2911 | 23857
3 | 5:18.08 | 4:10.26 | 23858 | 42633
4 | 9:28.34 | 3:48.70 | 42634 | 59803
5 | 13:17.29 | 5:36.55 | 59804 | 85058
6 | 18:54.09 | 5:22.35 | 85059 | 109243
7 | 24:16.44 | 8:41.66 | 109244 | 148384
8 | 32:58.35 | 4:12.01 | 148385 | 167285
9 | 37:10.36 | 4:49.64 | 167286 | 189024
10 | 42:00.25 | 7:13.28 | 189025 | 221527
11 | 49:13.53 | 5:52.32 | 221528 | 247959
12 | 55:06.10 | 2:55.42 | 247960 | 261126


Track 1

Filename C:\CDs\Delaney & Bonnie & Friends - On Tour with Eric Clapton (1969) [FLAC] {2010 Deluxe Edition}\Disc 2\01 - Intro,Tuning.wav

Pre-gap length 0:00:02.00

Peak level 98.8 %
Track quality 100.0 %
Test CRC 59E5E2DC
Copy CRC 59E5E2DC
Accurately ripped (confidence 2) [D239E835]
Copy OK

Track 2

Filename C:\CDs\Delaney & Bonnie & Friends - On Tour with Eric Clapton (1969) [FLAC] {2010 Deluxe Edition}\Disc 2\02 - Opening Jam.wav

Peak level 98.8 %
Track quality 99.9 %
Test CRC D6A33590
Copy CRC D6A33590
Accurately ripped (confidence 2) [B281465E]
Copy OK

Track 3

Filename C:\CDs\Delaney & Bonnie & Friends - On Tour with Eric Clapton (1969) [FLAC] {2010 Deluxe Edition}\Disc 2\03 - Gimme Some Lovin'.wav

Peak level 98.8 %
Track quality 100.0 %
Test CRC 50E8ABAF
Copy CRC 50E8ABAF
Accurately ripped (confidence 2) [CA55ED7B]
Copy OK

Track 4

Filename C:\CDs\Delaney & Bonnie & Friends - On Tour with Eric Clapton (1969) [FLAC] {2010 Deluxe Edition}\Disc 2\04 - Things Get Better.wav

Pre-gap length 0:00:18.48

Peak level 98.8 %
Track quality 100.0 %
Test CRC FF9D597F
Copy CRC FF9D597F
Accurately ripped (confidence 2) [C9CA0422]
Copy OK

Track 5

Filename C:\CDs\Delaney & Bonnie & Friends - On Tour with Eric Clapton (1969) [FLAC] {2010 Deluxe Edition}\Disc 2\05 - Medley- Poor Elijah,Tribute To Johnson.wav

Pre-gap length 0:00:16.34

Peak level 98.8 %
Track quality 100.0 %
Test CRC 12089E12
Copy CRC 12089E12
Accurately ripped (confidence 2) [380C19C5]
Copy OK

Track 6

Filename C:\CDs\Delaney & Bonnie & Friends - On Tour with Eric Clapton (1969) [FLAC] {2010 Deluxe Edition}\Disc 2\06 - I Don't Know Why.wav

Pre-gap length 0:00:19.16

Peak level 98.8 %
Track quality 100.0 %
Test CRC FEB31517
Copy CRC FEB31517
Accurately ripped (confidence 2) [1FE90126]
Copy OK

Track 7

Filename C:\CDs\Delaney & Bonnie & Friends - On Tour with Eric Clapton (1969) [FLAC] {2010 Deluxe Edition}\Disc 2\07 - Medley- Pour Your Love On Me,Just Plain Beautiful.wav

Pre-gap length 0:00:10.68

Peak level 98.8 %
Track quality 100.0 %
Test CRC 06DB69BD
Copy CRC 06DB69BD
Accurately ripped (confidence 2) [56C41237]
Copy OK

Track 8

Filename C:\CDs\Delaney & Bonnie & Friends - On Tour with Eric Clapton (1969) [FLAC] {2010 Deluxe Edition}\Disc 2\08 - Where There's A Will, There's A Way.wav

Peak level 98.8 %
Track quality 99.9 %
Test CRC 5D972AA5
Copy CRC 5D972AA5
Accurately ripped (confidence 2) [22AD22D7]
Copy OK

Track 9

Filename C:\CDs\Delaney & Bonnie & Friends - On Tour with Eric Clapton (1969) [FLAC] {2010 Deluxe Edition}\Disc 2\09 - Coming Home.wav

Peak level 98.8 %
Track quality 100.0 %
Test CRC 69D2C71A
Copy CRC 69D2C71A
Accurately ripped (confidence 2) [7FF76EE5]
Copy OK

Track 10

Filename C:\CDs\Delaney & Bonnie & Friends - On Tour with Eric Clapton (1969) [FLAC] {2010 Deluxe Edition}\Disc 2\10 - Little Richard Medley- Tutti Frutti,The Girl Can't Help It,Long Tall Sally,Jenny Jenny.wav

Peak level 98.8 %
Track quality 100.0 %
Test CRC 790A8D1D
Copy CRC 790A8D1D
Accurately ripped (confidence 2) [3CF9F2B1]
Copy OK

Track 11

Filename C:\CDs\Delaney & Bonnie & Friends - On Tour with Eric Clapton (1969) [FLAC] {2010 Deluxe Edition}\Disc 2\11 - I Don't Want To Discuss It.wav

Pre-gap length 0:00:44.17

Peak level 98.8 %
Track quality 100.0 %
Test CRC 5239A28F
Copy CRC 5239A28F
Accurately ripped (confidence 2) [C1F71B88]
Copy OK

Track 12

Filename C:\CDs\Delaney & Bonnie & Friends - On Tour with Eric Clapton (1969) [FLAC] {2010 Deluxe Edition}\Disc 2\12 - Crowd,Announcement.wav

Peak level 96.0 %
Track quality 100.0 %
Test CRC C9FA1CC9
Copy CRC C9FA1CC9
Accurately ripped (confidence 2) [B69936A9]
Copy OK


All tracks accurately ripped

No errors occurred

End of status report

foobar2000 1.2 / Dynamic Range Meter 1.1.1
log date: 2017-01-10 15:53:32

––––––––––––––––––––––––––––––––––––––––
Analyzed: Delaney & Bonnie & Friends with Eric Clapton / Colston Hall 12/2/69
––––––––––––––––––––––––––––––––––––––––

DR Peak RMS Duration Track
––––––––––––––––––––––––––––––––––––––––
DR15 -0.10 dB -19.26 dB 0:39 01-Intro/Tuning
DR8 -0.10 dB -9.41 dB 4:39 02-Opening Jam
DR8 -0.10 dB -10.10 dB 4:10 03-Gimme Some Lovin'
DR8 -0.10 dB -10.39 dB 3:49 04-Things Get Better
DR9 -0.10 dB -12.18 dB 5:37 05-Medley: Poor Elijah/Tribute to Johnson
DR7 -0.10 dB -9.49 dB 5:22 06-I Don't Know Why
DR8 -0.10 dB -10.21 dB 8:42 07-Medley: Pour Your Love on Me/Just Plain Beautiful
DR8 -0.10 dB -10.75 dB 4:12 08-Where There's a Will, There's a Way
DR7 -0.10 dB -9.12 dB 4:50 09-Coming Home
DR7 -0.10 dB -9.52 dB 7:13 10-Little Richard Medley: Tutti Frutti/The Girl Can't Help It/Long Tall Sally/Jenny Jenny
DR7 -0.10 dB -9.10 dB 5:52 11-I Don't Want to Discuss It
DR14 -0.35 dB -18.82 dB 2:56 12-Crowd/Announcement
––––––––––––––––––––––––––––––––––––––––

Number of tracks: 12
Official DR value: DR9

Samplerate: 44100 Hz
Channels: 2
Bits per sample: 16
Bitrate: 809 kbps
Codec: FLAC
================================================================================


Exact Audio Copy V0.99 prebeta 4 from 23. January 2008

EAC extraction logfile from 27. November 2010, 22:03

Delaney & Bonnie & Friends with Eric Clapton / Fairfield Halls 12/7/69 (1st Show)

Used drive : TSSTcorpCD/DVDW TS-H652M Adapter: 1 ID: 0

Read mode : Secure
Utilize accurate stream : Yes
Defeat audio cache : Yes
Make use of C2 pointers : No

Read offset correction : 6
Overread into Lead-In and Lead-Out : No
Fill up missing offset samples with silence : Yes
Delete leading and trailing silent blocks : No
Null samples used in CRC calculations : Yes
Used interface : Native Win32 interface for Win NT & 2000
Gap handling : Appended to previous track

Used output format : User Defined Encoder
Selected bitrate : 320 kBit/s
Quality : High
Add ID3 tag : No
Command line compressor : C:\Program Files\Exact Audio Copy\Flac\flac.exe
Additional command line options : -8 -V -T "ARTIST=%a" -T "TITLE=%t" -T "ALBUM=%g" -T "DATE=%y" -T "TRACKNUMBER=%n" -T "TOTALTRACKS=%x" -T "GENRE=%m" -T "ALBUM ARTIST=%v" -T "ALBUMARTIST=%v" -T "COMMENT=EAC V0.99 prebeta 4, Secure Mode, Test & Copy, Accura


TOC of the extracted CD

Track | Start | Length | Start sector | End sector
––––––––––––––––––––––––––––-
1 | 0:00.00 | 0:50.40 | 0 | 3789
2 | 0:50.40 | 4:01.00 | 3790 | 21864
3 | 4:51.40 | 0:44.12 | 21865 | 25176
4 | 5:35.52 | 4:59.02 | 25177 | 47603
5 | 10:34.54 | 7:17.14 | 47604 | 80392
6 | 17:51.68 | 5:35.22 | 80393 | 105539
7 | 23:27.15 | 5:27.03 | 105540 | 130067
8 | 28:54.18 | 5:03.22 | 130068 | 152814
9 | 33:57.40 | 5:32.34 | 152815 | 177748
10 | 39:29.74 | 7:51.06 | 177749 | 213079


Track 1

Filename C:\CDs\Delaney & Bonnie & Friends - On Tour with Eric Clapton (1969) [FLAC] {2010 Deluxe Edition}\Disc 3\01 - Intro,Tuning.wav

Pre-gap length 0:00:02.00

Peak level 78.4 %
Track quality 100.0 %
Test CRC A1B1893E
Copy CRC A1B1893E
Accurately ripped (confidence 2) [06A56D1B]
Copy OK

Track 2

Filename C:\CDs\Delaney & Bonnie & Friends - On Tour with Eric Clapton (1969) [FLAC] {2010 Deluxe Edition}\Disc 3\02 - Gimme Some Lovin'.wav

Peak level 98.8 %
Track quality 100.0 %
Test CRC FED76A8D
Copy CRC FED76A8D
Accurately ripped (confidence 2) [7C491E96]
Copy OK

Track 3

Filename C:\CDs\Delaney & Bonnie & Friends - On Tour with Eric Clapton (1969) [FLAC] {2010 Deluxe Edition}\Disc 3\03 - Introductions.wav

Pre-gap length 0:00:05.14

Peak level 70.5 %
Track quality 99.7 %
Test CRC D7BCC7EC
Copy CRC D7BCC7EC
Accurately ripped (confidence 2) [B1497586]
Copy OK

Track 4

Filename C:\CDs\Delaney & Bonnie & Friends - On Tour with Eric Clapton (1969) [FLAC] {2010 Deluxe Edition}\Disc 3\04 - Things Get Better.wav

Peak level 98.8 %
Track quality 100.0 %
Test CRC 58215D7A
Copy CRC 58215D7A
Accurately ripped (confidence 2) [11DA6A30]
Copy OK

Track 5

Filename C:\CDs\Delaney & Bonnie & Friends - On Tour with Eric Clapton (1969) [FLAC] {2010 Deluxe Edition}\Disc 3\05 - Medley- Poor Elijah,Tribute To Johnson.wav

Pre-gap length 0:00:31.98

Peak level 98.8 %
Track quality 100.0 %
Test CRC 321A083D
Copy CRC 321A083D
Accurately ripped (confidence 2) [8FD2810B]
Copy OK

Track 6

Filename C:\CDs\Delaney & Bonnie & Friends - On Tour with Eric Clapton (1969) [FLAC] {2010 Deluxe Edition}\Disc 3\06 - I Don't Know Why.wav

Pre-gap length 0:01:02.32

Peak level 98.8 %
Track quality 100.0 %
Test CRC 72712160
Copy CRC 72712160
Accurately ripped (confidence 2) [6960DC62]
Copy OK

Track 7

Filename C:\CDs\Delaney & Bonnie & Friends - On Tour with Eric Clapton (1969) [FLAC] {2010 Deluxe Edition}\Disc 3\07 - Where There's A Will, There's A Way.wav

Pre-gap length 0:00:25.33

Peak level 98.8 %
Track quality 100.0 %
Test CRC 8C9F9EEE
Copy CRC 8C9F9EEE
Accurately ripped (confidence 2) [E43B45DF]
Copy OK

Track 8

Filename C:\CDs\Delaney & Bonnie & Friends - On Tour with Eric Clapton (1969) [FLAC] {2010 Deluxe Edition}\Disc 3\08 - That's What My Man Is For.wav

Pre-gap length 0:00:24.65

Peak level 98.8 %
Track quality 100.0 %
Test CRC 9BDAE6EF
Copy CRC 9BDAE6EF
Accurately ripped (confidence 2) [104B7A90]
Copy OK

Track 9

Filename C:\CDs\Delaney & Bonnie & Friends - On Tour with Eric Clapton (1969) [FLAC] {2010 Deluxe Edition}\Disc 3\09 - I Don't Want To Discuss It.wav

Pre-gap length 0:00:17.29

Peak level 98.8 %
Track quality 100.0 %
Test CRC 81C80ADF
Copy CRC 81C80ADF
Accurately ripped (confidence 2) [2694055C]
Copy OK

Track 10

Filename C:\CDs\Delaney & Bonnie & Friends - On Tour with Eric Clapton (1969) [FLAC] {2010 Deluxe Edition}\Disc 3\10 - Coming Home.wav

Pre-gap length 0:00:56.17

Peak level 98.8 %
Track quality 100.0 %
Test CRC E71138EE
Copy CRC E71138EE
Accurately ripped (confidence 2) [2C20EB97]
Copy OK


All tracks accurately ripped

No errors occurred

End of status report

foobar2000 1.2 / Dynamic Range Meter 1.1.1
log date: 2017-01-10 15:53:51

––––––––––––––––––––––––––––––––––––––––
Analyzed: Delaney & Bonnie & Friends with Eric Clapton / Fairfield Halls 12/7/69 (1st Show)
––––––––––––––––––––––––––––––––––––––––

DR Peak RMS Duration Track
––––––––––––––––––––––––––––––––––––––––
DR11 -2.11 dB -17.93 dB 0:51 01-Intro/Tuning
DR9 -0.10 dB -10.35 dB 4:01 02-Gimme Some Lovin'
DR14 -3.02 dB -21.72 dB 0:44 03-Introductions
DR7 -0.10 dB -9.37 dB 4:59 04-Things Get Better
DR8 -0.10 dB -10.36 dB 7:17 05-Medley: Poor Elijah/Tribute to Johnson
DR8 -0.10 dB -10.66 dB 5:35 06-I Don't Know Why
DR8 -0.10 dB -10.56 dB 5:27 07-Where There's a Will, There's a Way
DR7 -0.10 dB -9.70 dB 5:03 08-That's What My Man Is For
DR7 -0.10 dB -9.33 dB 5:32 09-I Don't Want to Discuss It
DR7 -0.10 dB -9.31 dB 7:51 10-Coming Home
––––––––––––––––––––––––––––––––––––––––

Number of tracks: 10
Official DR value: DR9

Samplerate: 44100 Hz
Channels: 2
Bits per sample: 16
Bitrate: 920 kbps
Codec: FLAC
================================================================================


Exact Audio Copy V0.99 prebeta 4 from 23. January 2008

EAC extraction logfile from 28. November 2010, 0:46

Delaney & Bonnie & Friends with Eric Clapton / Fairfield Halls 12/7/69 (2nd Show)

Used drive : TSSTcorpCD/DVDW TS-H652M Adapter: 1 ID: 0

Read mode : Secure
Utilize accurate stream : Yes
Defeat audio cache : Yes
Make use of C2 pointers : No

Read offset correction : 6
Overread into Lead-In and Lead-Out : No
Fill up missing offset samples with silence : Yes
Delete leading and trailing silent blocks : No
Null samples used in CRC calculations : Yes
Used interface : Native Win32 interface for Win NT & 2000
Gap handling : Appended to previous track

Used output format : User Defined Encoder
Selected bitrate : 320 kBit/s
Quality : High
Add ID3 tag : No
Command line compressor : C:\Program Files\Exact Audio Copy\Flac\flac.exe
Additional command line options : -8 -V -T "ARTIST=%a" -T "TITLE=%t" -T "ALBUM=%g" -T "DATE=%y" -T "TRACKNUMBER=%n" -T "TOTALTRACKS=%x" -T "GENRE=%m" -T "ALBUM ARTIST=%v" -T "ALBUMARTIST=%v" -T "COMMENT=EAC V0.99 prebeta 4, Secure Mode, Test & Copy, Accura


TOC of the extracted CD

Track | Start | Length | Start sector | End sector
––––––––––––––––––––––––––––-
1 | 0:00.00 | 1:24.47 | 0 | 6346
2 | 1:24.47 | 4:24.03 | 6347 | 26149
3 | 5:48.50 | 8:50.74 | 26150 | 65973
4 | 14:39.49 | 1:30.40 | 65974 | 72763
5 | 16:10.14 | 4:50.28 | 72764 | 94541
6 | 21:00.42 | 5:30.15 | 94542 | 119306
7 | 26:30.57 | 5:28.14 | 119307 | 143920
8 | 31:58.71 | 3:53.69 | 143921 | 161464
9 | 35:52.65 | 5:22.40 | 161465 | 185654
10 | 41:15.30 | 5:57.56 | 185655 | 212485
11 | 47:13.11 | 4:55.38 | 212486 | 234648
12 | 52:08.49 | 7:41.74 | 234649 | 269297
13 | 59:50.48 | 6:17.19 | 269298 | 297591


Track 1

Filename C:\CDs\Delaney & Bonnie & Friends - On Tour with Eric Clapton (1969) [FLAC] {2010 Deluxe Edition}\Disc 4\01 - Intro,Tuning.wav

Pre-gap length 0:00:02.00

Peak level 59.4 %
Track quality 100.0 %
Test CRC 3D05330B
Copy CRC 3D05330B
Accurately ripped (confidence 2) [6F6FD6D9]
Copy OK

Track 2

Filename C:\CDs\Delaney & Bonnie & Friends - On Tour with Eric Clapton (1969) [FLAC] {2010 Deluxe Edition}\Disc 4\02 - Gimme Some Lovin'.wav

Peak level 98.8 %
Track quality 100.0 %
Test CRC 07CA7A8A
Copy CRC 07CA7A8A
Accurately ripped (confidence 2) [03298AF3]
Copy OK

Track 3

Filename C:\CDs\Delaney & Bonnie & Friends - On Tour with Eric Clapton (1969) [FLAC] {2010 Deluxe Edition}\Disc 4\03 - Pigmy (Instrumental).wav

Pre-gap length 0:00:03.46

Peak level 98.8 %
Track quality 100.0 %
Test CRC 3F0E0A3C
Copy CRC 3F0E0A3C
Accurately ripped (confidence 2) [2B952F51]
Copy OK

Track 4

Filename C:\CDs\Delaney & Bonnie & Friends - On Tour with Eric Clapton (1969) [FLAC] {2010 Deluxe Edition}\Disc 4\04 - Introductions.wav

Peak level 69.5 %
Track quality 100.0 %
Test CRC 88A222C8
Copy CRC 88A222C8
Accurately ripped (confidence 2) [870F33A3]
Copy OK

Track 5

Filename C:\CDs\Delaney & Bonnie & Friends - On Tour with Eric Clapton (1969) [FLAC] {2010 Deluxe Edition}\Disc 4\05 - Things Get Better.wav

Peak level 98.8 %
Track quality 100.0 %
Test CRC B7E4D11C
Copy CRC B7E4D11C
Accurately ripped (confidence 2) [F3E6B76D]
Copy OK

Track 6

Filename C:\CDs\Delaney & Bonnie & Friends - On Tour with Eric Clapton (1969) [FLAC] {2010 Deluxe Edition}\Disc 4\06 - Medley- Poor Elijah,Tribute To Johnson.wav

Pre-gap length 0:00:12.20

Peak level 98.8 %
Track quality 100.0 %
Test CRC 93E22510
Copy CRC 93E22510
Accurately ripped (confidence 2) [AE3E015D]
Copy OK

Track 7

Filename C:\CDs\Delaney & Bonnie & Friends - On Tour with Eric Clapton (1969) [FLAC] {2010 Deluxe Edition}\Disc 4\07 - Only You Know And I Know.wav

Pre-gap length 0:00:18.90

Peak level 98.8 %
Track quality 100.0 %
Test CRC B87ACE46
Copy CRC B87ACE46
Accurately ripped (confidence 2) [0E2AA6A5]
Copy OK

Track 8

Filename C:\CDs\Delaney & Bonnie & Friends - On Tour with Eric Clapton (1969) [FLAC] {2010 Deluxe Edition}\Disc 4\08 - Will The Circle Be Unbroken.wav

Pre-gap length 0:00:21.04

Peak level 97.8 %
Track quality 100.0 %
Test CRC D5DF7FF8
Copy CRC D5DF7FF8
Accurately ripped (confidence 2) [8DF15DA2]
Copy OK

Track 9

Filename C:\CDs\Delaney & Bonnie & Friends - On Tour with Eric Clapton (1969) [FLAC] {2010 Deluxe Edition}\Disc 4\09 - Where There's A Will, There's A Way.wav

Pre-gap length 0:00:42.22

Peak level 98.8 %
Track quality 100.0 %
Test CRC CED2C4FA
Copy CRC CED2C4FA
Accurately ripped (confidence 2) [6B7F9670]
Copy OK

Track 10

Filename C:\CDs\Delaney & Bonnie & Friends - On Tour with Eric Clapton (1969) [FLAC] {2010 Deluxe Edition}\Disc 4\10 - I Don't Know Why.wav

Pre-gap length 0:00:31.86

Peak level 98.8 %
Track quality 100.0 %
Test CRC 3EFECE7E
Copy CRC 3EFECE7E
Accurately ripped (confidence 2) [C8838CE6]
Copy OK

Track 11

Filename C:\CDs\Delaney & Bonnie & Friends - On Tour with Eric Clapton (1969) [FLAC] {2010 Deluxe Edition}\Disc 4\11 - That's What My Man Is For.wav

Pre-gap length 0:00:46.84

Peak level 98.8 %
Track quality 99.9 %
Test CRC 3400AAD9
Copy CRC 3400AAD9
Accurately ripped (confidence 2) [5ADB298D]
Copy OK

Track 12

Filename C:\CDs\Delaney & Bonnie & Friends - On Tour with Eric Clapton (1969) [FLAC] {2010 Deluxe Edition}\Disc 4\12 - Coming Home.wav

Pre-gap length 0:00:25.18

Peak level 98.8 %
Track quality 100.0 %
Test CRC 1F8D145A
Copy CRC 1F8D145A
Accurately ripped (confidence 2) [E264562C]
Copy OK

Track 13

Filename C:\CDs\Delaney & Bonnie & Friends - On Tour with Eric Clapton (1969) [FLAC] {2010 Deluxe Edition}\Disc 4\13 - Little Richard Medley- Tutti Frutti,The Girl Can't Help It,Long Tall Sally,Jenny Jenny.wav

Pre-gap length 0:01:37.01

Peak level 93.3 %
Track quality 100.0 %
Test CRC 9E68E452
Copy CRC 9E68E452
Accurately ripped (confidence 2) [79007636]
Copy OK


All tracks accurately ripped

No errors occurred

End of status report

foobar2000 1.2 / Dynamic Range Meter 1.1.1
log date: 2017-01-10 15:54:17

––––––––––––––––––––––––––––––––––––––––
Analyzed: Delaney & Bonnie & Friends with Eric Clapton / Fairfield Halls 12/7/69 (2nd Show)
––––––––––––––––––––––––––––––––––––––––

DR Peak RMS Duration Track
––––––––––––––––––––––––––––––––––––––––
DR13 -4.52 dB -22.83 dB 1:25 01-Intro/Tuning
DR8 -0.10 dB -9.92 dB 4:24 02-Gimme Some Lovin'
DR9 -0.10 dB -9.93 dB 8:51 03-Pigmy (Instrumental)
DR13 -3.15 dB -20.18 dB 1:31 04-Introductions
DR9 -0.10 dB -11.32 dB 4:50 05-Things Get Better
DR8 -0.10 dB -10.36 dB 5:30 06-Medley: Poor Elijah/Tribute to Johnson
DR8 -0.10 dB -9.76 dB 5:28 07-Only You Know and I Know
DR9 -0.19 dB -11.58 dB 3:54 08-Will the Circle Be Unbroken
DR8 -0.10 dB -10.93 dB 5:23 09-Where There's a Will, There's a Way
DR8 -0.10 dB -11.02 dB 5:58 10-I Don't Know Why
DR9 -0.10 dB -11.92 dB 4:56 11-That's What My Man Is For
DR9 -0.10 dB -11.70 dB 7:42 12-Coming Home
DR7 -0.60 dB -9.89 dB 6:17 13-Little Richard Medley: Tutti Frutti/The Girl Can't Help It/Long Tall Sally/Jenny Jenny
––––––––––––––––––––––––––––––––––––––––

Number of tracks: 13
Official DR value: DR9

Samplerate: 44100 Hz
Channels: 2
Bits per sample: 16
Bitrate: 888 kbps
Codec: FLAC
================================================================================

Delaney & Bonnie & Friends - On Tour With Eric Clapton (1970) 4CD Box Set, Expanded Deluxe Edition, Remastered 2010

Delaney & Bonnie & Friends - On Tour With Eric Clapton (1970) 4CD Box Set, Expanded Deluxe Edition, Remastered 2010