Tags
Language
Tags

Deutsche Harmonia Mundi - 100 Great Recordings, Part 3 (2017)

Posted By: ArlegZ
Deutsche Harmonia Mundi - 100 Great Recordings, Part 3 (2017)

Deutsche Harmonia Mundi - 100 Great Recordings, Part 3 (2017)
EAC | FLAC | Image (Cue & Log) ~ 6,13 Gb | Scans included
Classical | Label: Deutsche Harmonia Mundi | # 19075800702 | Recorded: 1960-2013

Since it's founding in Freiburg in 1958, Deutsche Harmonia Mundi has been one of the most important and ambitious labels for period performances. Over decades, globally-acclaimed recordings were created with outstanding musicians. The limited edition "Deutsche Harmonia Mundi: 100 Great Recordings" contains 100 outstanding DHM recordings with some of the most important and best artists in their field: Nuria Rial, Dorothee Mields, Al Ayre Espanol, Hille Perl, Concentus Musicus Wien, Nikolaus Harnoncourt, the Freiburger Barockorchester, Skip Sempé, Capriccio Stravagante, La Petite Bande, Gustav Leonhardt, Andrew Lawrence-King, Frieder Bernius, the Balthasar-Neumann-Chor, Thomas Hengelbrock and many others.

Contents:
CD 52: Monteverdi - Monteverdi e il suo tempo
Guillemette Laurens · Capriccio Stravagante · Skip Sempé
CD 53-54: Monteverdi - Vespro della Beata Vergine
Cantus Cölln · Concerto Palatino · Konrad Junghänel
CD 55: José de Nebra - Miserere
Marta Almajano · Xenia Meijer · Al Ayre Español · Eduardo López Banzo
CD 56: Pachelbel · J.C. Bach · J.M.Bach - Motets
Cantus Cölln · Konrad Junghänel
CD 57: Purcell - Instrumental Music
Freiburger Barockorchester · Thomas Hengelbrock
CD 58: Rameau - Les Indes Galantes · Dardanus
Collegium Aureum
CD 59–61: Rameau - Zoroastre
John Elwes · Greta de Reyghere · Collegium Vocale, Gent · La Petite Bande · Sigiswald Kuijken
CD 62: Esaias Reusner - Lute Suites
Konrad Junghänel
CD 63: Cypriano De Rore - Passio Domini nostri Jesu Christi Secundum Johannem
Huelgas Ensemble · Paul Van Nevel
CD 64: Johann Rosenmüller - Sacri Concerti
Cantus Cölln · Konrad Junghänel
CD 65: Schein - Diletti Pastorali
Cantus Cölln · Konrad Junghänel
CD 66: Schütz - Il primo libro de Madrigali
The Consort of Musicke · Anthony Rooley
CD 67-68: Schütz - Psalms · Motets · Concertos
Knabenchor Hannover · Heinz Hennig · Cantus Cölln · Konrad Junghänel · Musica Fiata · Roland Wilson
CD 69-70: Schütz - Symphoniae Sacrae III
Kammerchor Stuttgart · Musica Fiata · Frieder Bernius
CD 71: Schubert - Winterreise
Michel Schopper · Andreas Staier
CD 72: Telemann - Concertos from Tafelmusik
Johannes Koch · Collegium Aureum
CD 73-74: Telemann - Orpheus
Dorothee Mields · Markus Volpert · L’Orfeo Barockorchester · Michi Gaigg
CD 75: Telemann - Suites (Ouvertures) · Concerto
Freiburger Barockorchester · Gottfried von der Goltz


CD 52: Monteverdi - Monteverdi e il suo tempo
01. Claudio Monteverdi - Con che soavità, labbra odorate (Madrigali Libro 7 B, No. 24)
02. Dario Castello - Sonata 15
03. Claudio Monteverdi - Ohimè ch'io cado (Madrigali Libro 9)
04. Tarquinio Merula - Chiaccona à 2
05. Girolamo Frescobaldi - Toccata undecima (Libro di Toccate e Partite, Book 1)
06. Giovanni Battista Riccio - Canzon à doi soprani in echo proposta
07. Claudio Monteverdi - Tempro la cetra (Madrigali Libro 7 A, No. 2)
08. Girolamo Frescobaldi - Toccata nona in A (Libro di Toccate e Partite, Book 1)
09. Claudio Monteverdi - Et è pur dunque vero (Madrigali Libro 10)
10. Biagio Marini - Passacaglia
11. Cristofano Malvezzi - Sinfonia
Claudio Monteverdi
12. Ecco di dolci raggi (Madrigali Libro 10)
13. Se vittorie si belle (Madrigali Libro 8 A)
14. Zefiro torna e'bel tempo rimena (Madrigali Libro 6 A)
15. Si dolce è il tormento (Madrigal)
CD 53-54: Monteverdi - Vespro della Beata Vergine
01. Intonatio: Deus in adiutorium-Domine in adiuvandum
02. Dixit Dominus
03. Nigra sum
04. Laudate pueri
05. Pulchra es
06. Laetatus sum
07. Duo Seraphim
08. Nisi Dominus
09. Audi coelum
10. Lauda Jerusalem
CD 54:
01. Sonata a 8 sopra (Sancta Maria ora pro nobis)
02. Hymnus a 8 - Ave maris stella
Magnificat
03. Magnificat
04. Et exultavit
05. Quia respexit
06. Quia fecit mihi magna
07. Et misericordia
08. Fecit potentiam
09. Deposuit potentes
10. Esurientis implevit bonis
11. Suscepit Israel
12. Sicut locutus est
13. Gloria patri
14. Sicut erat in principio
CD 55: José de Nebra - Miserere · Iphigenia en Tracia
01. Miserere mei Deus
02. Et secundum multitudinem (plain chant)
03. Miserere mei Deus: Amplius lava me
04. Quoniam iniquitatem (plain chant)
05. Miserere mei Deus: Tibi soli peccavi
06. Ecce enim in iniquitatibus (plain chant)
07. Miserere mei Deus: Ecce enim veritatem
08. Asperges me (plain chant)
09. Miserere mei Deus: Auditui meo
10. Averte faciem (plain chant)
11. Miserere mei Deus: Cor mundum crea
12. Ne projicias me (plain chant)
13. Miserere mei Deus: Redde mihi
14. Docebo (plain chant)
15. Miserere mei Deus: Libera me
16. Domine, labia mea aperies (plain chant)
17. Miserere mei Deus: Quoniam si voluisses
18. Miserere mei Deus: Sacrificium Deo
19. Benigne fac (plain chant)
20. Miserere mei Deus: Tunc acceptabis
21. Miserere mei Deus: Tunc imponent
Zarzuela: Para obsequio a la deydad nunca es culto la crueldad, y Iphigenia en Tracia (1747)
22. Iphigenia en Tracia - Allegro cantabile
23. Iphigenia en Tracia - Recitado: Yo soy, tyrana
24. Iphigenia en Tracia - Area a dúo: Ha, ingrato
CD 56: Pachelbel · J.C. Bach · J.M.Bach - Motets
Johann Pachelbel
01. Jauchzet Dem Herrn
02. Nun Danket Alle Gott
03. Exsurgat Deus
Johann Christoph Bach
04. Fürchte Dich Nicht
05. Der Gerechte
Johann Pachelbel
06. Tröste Uns Gott
07. Magnificat
08. Der Herr Ist König
Johann Christoph Bach
09. Ich Lasse Dich Nicht
Johann Pachelbel
10. Gott Ist Unser Zuversicht
11. Paratum Cor Meum Deus
12. Der Herr Ist König
Johann Michael Bach
13. Halt, Was Du Hast
14. Fürchtet Euch Nicht
Johann Pachelbel
15. Singet Dem Herrn
16. Jauchzet Gott Alle Lande
CD 57: Purcell - Instrumental Music
The Faire Queen
01. Prelude & Hornpipe In G
02. Air & Rondeau In B
03. Overture In D
04. Prelude & Entry Dance In C, Dance For The Fairies In G
05. Overture In G - Air In G - Prelude In G
06. Hornpipe In D
07. Symphony / Canzona-Largo-Allegro-Adagio-Allegro
Dido and Aeneas
08. Overture & Air In C, The Triumphing Dance In C
09. Ritornelle In D, Air, Dance In D
10. Echo Dance Of Furies In F
11. The Sailors' Dance In B
12. The Witches' Dance In B
13. Chacony
King Arthur
14. Overture In D, Air In D, Overture In D
15. Symphony In G, Air In G, Hornpipe In G
16. Air In D, Air In A, Song Tune In A
17. Symphony In C, Trumpet Tune In C
18. Frost Dance In C, Hornpipe In G
19. Passacaglia In G
Abdelazer
20. Overture In D
21. Rondeau In D
22. Air In D, Air In G
23. Minuett In G, Air In G
24. Jigg In G
25. Hornpipe In B, Air In G
CD 58: Rameau - Les Indes Galantes · Dardanus
Les Indes Galantes
01. Ouverture
02. Entrée Des Quatre Nations
03. Menuet I Et II
04. Forlane
05. Rondeau
06. Air Por Les Amours
07. Contre-danse
08. Air Pour Les Persans
09. Air Vif Pour Zéphire Et La Rose
10. Air Pour Borée Et La Rose
11. Gavotte Des Fleurs
12. Air Tendre Pur La Rose
13. Gavotte Pour Les Fleurs
14. Tambourin
15. Chaconne
Dardanus
16. Ouverture
17. Marche Pour Les Different Nations
18. Menuet Tendre En Rondeau
19. Tambourin I Et II
20. Air Vif
21. Rigaudon I Et II
22. Air En Rondeau
23. Entréss
24. Sommeil
25. Tambourin I Et II
26. Chaconne
CD 59–61: Rameau - Zoroastre
01. Ouverture
02. Acte premier. Scène 1: À l'heureux Abramane
03. Scène 2: Princesse, avec Phoerés
04. Scène 3: Rassurez-vous tendre Amélite
05. Air tendre en rondeau
06. L'amour pour un coeur
07. Gavotte tendre
08. Cher Zoroastre, hélas!
09. Gavotte en rondeau I/II/I- Air léger
10. Les rayons du soleil
11. Scène 4: C'est vous, chère Érénice?
12. Scène 5 & 6: Entr'acte
13. Acte second. Scène 1: À mes tristes égards
14. Scène 2: Dans cet azile favorable
15. Scène 3: Aux accens de ma voix cieux
16. Enchantemens: Sarabande-Air un peu gay & bien piqué-Gavotte gaye I/II/I
17. Zoroastre vole à la gloire
18. Scène 4: En vain l'innocence crie
19. Scène 5 & 6: Hélas! Je bravois son courroux
CD 60:
01. Scène 7: Le ciel, qu'ont attendri mes pleurs
02. Entrée des Peuples - Air majestueux
03. Ah! Que l'absence est un cruel tournement!
04. Menuet I/II/I
05. Non, ce n'est pas toujours
06. Rigaudon I/II/I
07. Cessés de redouter des prêstres criminels
08. Entr'acte
09. Acte troisième. Scène 1: Arrestés. Moderés cette fureur extrême
10. Scène 2: Osons achever de grand crimes
11. Scène 3: Sommeil fu de ce séjour
12. Scène 4 & 5: Sommeil fui de ce séjour
13. Entrée des Peuples différents
14. Mille rayons brillans
15. Loure
16. Accourrées jeunesse brillante
17. Scène 6: Entrée des montagnards
18. Gigue vive
19. Sur nos coeurs épuise tes armes
20. Tambourin en Rondeau
21. Hâtons notre bonheur
22. Scène 7 & 8: Entr'acte
CD 61:
01. Acte quatrième. Scène 1: Cruels tyrans, qui régnés dans mon coeur
02. Scène 2: Votre ennemi triomphe
03. Scène 3-4-5: Air grave
04. Scène 6: A ta voix nous quittons
05. Scène 7: Ballet - Air grave
06. Vengez-vous, cessez de souffrir
07. Ballet: Air vif
08. La flamme le consume!
09. Air très vif
10. Ah! Nos fureurs ne sont point vaines
11. Scène 8: Entr'acte - Air très vif
12. Acte cinquième. Scène 1: Quel tourment!
13. Il approche
14. Scène 2-4 & 5: Q'ue la fière Erinice triomphe
15. Scène 6: Par un dernier revers
16. Scène 7: Ballet: Air majestueux
17. Air en rondeau-Mouvement de chaconne
18. Que ces noeuds sont charmants!
19. Scène 8: Entrée des Bergers, Pastres, Peuples, etc. - Andante
20. L'amour vole au son des hautbois
21. Ballet: Première Gavotte - Vive - 2e Gavotte - Première Gavotte - Vive
CD 62: Reusner - Lute Suites
Suite in D minor
01. Praeludium
02. Paduan
03. Allemanda
04. Couranta
05. Saraband
06. Gavotte
07. Gigue
Suite in C minor
08. Allemanda
09. Courant
10. Sarabanda
11. Gavotte
12. Gigue
Suite in D major
13. Sonatina
14. Allemanda
15. Courant
16. Sarabanda
17. Gavotte
18. Gigue
19. Passacaglia
Suite in G minor
20. Allemanda
21. Courant
22. Sarabanda
23. Aria I
24. Aria II
25. Balett
26. Gigue
Suite in C minor
27. Paduana
28. Allemanda
29. Couranta
30. Sarabanda
31. Gigue
Suite in E minor
32. Allemanda
33. Couranta
34. Sarabanda
35. Gigue
CD 63: De Rore - Passio Domini nostri Jesu Christi Secundum Johannem
01. Passio Domini Nostri
02. Intermedium I: Ad Te Levavi Oculos
03. Adducunt Ergo Jesum
04. Intermedium II: Instrumental
05. Susceperunt Autem Jesu
06. Intermedium III: Agnus Dei
07. Judaei Ergo Quoniam Parasceve Erat
CD 64: Rosenmüller - Sacri Concerti
01. Beatus Vir
02. Magnificat
03. Benedicam Dominum
04. De Profundis
05. Confitebor
06. Gloria
CD 65: Schein - Diletti Pastorali
01. O Amarilli Zart
02. Aurora Schön Mit Ihrem Haar
03. Frischauf, Ihr Klosterbrüder Mein
04. Ringstum Mich Schwebet Traurigkeit
05. Als Filli Schön Und Fromm
06. In Filli Schönen Äugelein
07. O Scheiden, O Bitter Scheiden
08. Unlängst Dem Blinden Göttelein
09. Wie Kömmt's, O Zarte Filli Mein
10. Kickehihi, Kakakanei
11. Cupido Blind, Das Venuskind
12. Wenn Filli Ihre Liebesstrahl
13. O Amarilli, Schönste Zier
14. Heulen Und Schmerzlichs Weinen
15. All Wilden Tier Im Grünen Wald
16. O, Venus Und Cupido Blind
17. Amor, Das Liebe Räuberlein
18. O Seidene Härelein
19. Ihr Brüder, Lieben Brüder Mein
20. Mirtillo Hat Ein Schäfelein
21. Die Vöglein Singen
22. Mein Schifflein Lief Im Wilden Meer
CD 66: Schütz - Il primo libro de Madrigali
01. O Primavera, Gioventù De L'anno
02. O Dolcezze Amarissime D'amore
03. Selve Beate, Se Sospirando
04. Alma Afflitta Che Fai?
05. Così Morir Debb'io
06. D'orrida Selce Alpina
07. Ride La Primavera
08. Fuggi, Fuggi O Mio Core
09. Feritevi, Ferite, Viperette, Mordaci
10. Fiamma Ch'allaccia
11. Quella Damma Son Io
12. Mi Saluta Costei
13. Io Moro, Ecco Ch'io Moro
14. Sospir Che Del Bel Petto
15. Dunque Addio, Care Selve
16. Tornate, O Cari Baci
17. Di Marmo Siete Voi
18. Giunte è Pur, Lidia
19. Vasto Mar, Nel Cui Seno
CD 67-68: Schütz - Psalms · Motets · Concertos
01. Auf dich, Herr, traue ich, SWV 462
02. Herr, wer wird wohnen in deiner Hütten, SWV 466
03. Veni Sancte Spiritus, SWV 475
04. Herr, unser Herrscher, SWV 449
05. Wo der Herr das Haus nicht bauet, SWV473
06. Herr, höre mein Wort, SWV Anh. 7
07. Surrexit Pastor Bonus, SWV 469
08. An den Wassern zu Babel, SWV 500
09. Da pacem, Domine, SWV 465
CD 68:
01. Es erhub sich ein Streit im Himmel, SWV Anh. 11
02. Freue dich des Weibes deiner Jugend, SWV 453
03. Syncharma Musicum, SWV 49
04. Wohl dem, der ein tugendsam Weib hat, SWV 20
05. Domini est Terra, SWV 476
06. Haus und Güter erbet man von Eltern, SWV 21
07. Herr, der du bist vormals gnädig gewest deinem Lande, SWV 461
CD 69-70: Schütz - Symphoniae Sacrae III
01. Der Herr Ist Mein Hirt, SWV 398 Op. 12,1
02. Ich Hebe Meine Augen Auf Zu Den Bergen, SWV 398 Op. 12,2
03. Wo Der Herr Nicht Das Haus Bauet, SWV 400 Op. 12,3
04. Mein Sohn, Warum Hast Du Uns Das Getan?, SWV 401 Op. 12,4
05. O Herr, Hilf, O Herr, Laß Wohl Gelingen, SWV 402 Op. 12,5
06. Siehe, Es Erschien Der Engel Des Herrn, SWV 403 Op. 12,6
07. Feget Den Alten Sauerteig Aus, SWV 404 Op. 12,7
08. O Süßer Jesu Christ, SWV 405 Op. 12,8
09. O Jesu Süß. Wer Dein Gedenkt, SWV 406 Op. 12,9
10. Lasset Uns Doch Den Herren, Unseren Gott, Loben, SWV 407 Op. 12,10
CD 70:
01. Es Ging En Sämann Aus Zu Säen Seinen Samen, SWV 408 Op. 12,11
02. Seid Barmherzig, Wie Auch Euer Vater Barmherzig Ist, SWV 409 Op. 12,12
03. Siehe, Dieser Wird Gesetzt Zu Einem Fall, SWV 410 Op. 12,13
04. Vater Unser, Der Du Bist Im Himmel, SWV 411 Op. 12,14
05. Siehe, Wie Fein Und Lieblich Ist's, SWV 412 Op. 12,15
06. Hütet Euch, Daß Euere Herzen Nicht Beschwert Werden, SWV 413 Op. 12,16
07. Meister, Wir Wissen, Daß Du Wahrhaftig Bist, SWV 414 Op. 12,17
08. Saul, Saul, Was Verfolgst Du Mich?, SWV 415 Op. 12,18
09. Herr, Wie Lange Willst Du Mein So Gar Vergessen, SWV 416 Op. 12,19
10. Komm, Heiliger Geist, Herre Gott, SWV 417 Op. 12,20
11. Nun Dankelt Alle Gott, SWV 418 Op. 12,21
CD 71: Schubert - Winterreise
01. Gute Nacht
02. Die Wetterfahne
03. Gefror'ne Tränen
04. Erstarrung
05. Der Lindenbaum
06. Wasserflut
07. Auf Dem Flusse
08. Rückblick
09. Irrlicht
10. Rast
11. Frühlingstraum
12. Einsamkeit
13. Die Post
14. Der Greise Kopf
15. Die Krähe
16. Letzte Hoffnung
17. Im Dorfe
18. Der Stürmische Morgen
19. Täuschung
20. Der Wegweiser
21. Das Wirtshaus
22. Muth!
23. Die Nebensonnen
24. Der Leiermann
CD 72: Telemann - Concertos from Tafelmusik
Concerto in F Major
01. Allegro
02. Largo
03. Vivace
Concerto in A Major
04. Largo
05. Allegro
06. Gratioso
07. Allegro
Concerto in E Flat Major
08. Maestoso
09. Allegro
10. Grave
11. Vivace
Suite in D Major
12. Ouverture
13. La Trompette
14. Sarabande
15. Rondeau
16. Bourrée
17. Courante With Double
18. Gigue
CD 73-74: Telemann - Orpheus
01. Ouverture (aus: TWV 55:d1)
02. I Akt. Arie Orasia: Wie hart ist mir das Schicksal doch?
03. Rez. Orasia: Ismene, schau
04. Arie Orasia: Lieben, und nicht geliebet seyn
05. Rez. Ismene, Orasia: Bist du nicht Konigin
06. Arie Orasia: Su, mio core, а la vendetta
07. Rez. Orasia, Ismene: Noch heute werden hier die Nymphen
08. Arie а 2 Eurimedes, Orpheus: Angenehmer Aufenthalt
09. Chor Nymphen: Angenehmer Aufenthalt
10. Rez. Orasia, Orpheus: Find ich dich hier
11. Arie Orpheus: Einsamkeit ist mein Vergnugen
12. Rez. Orasia: Erwehnst du denn von Eurydicen nichts
13. Rez. Orpheus, Eurimendes: Wie bist du so betrubt
14. Arie Orpheus: Chi stа in corte
15. Rez. Eurydice: Wie sehr erfreut es mich
16. Arie а 2 Eurydice, Orpheus: Ohne dich kann ich nicht leben
17. Rez. Eurimendes: Wie lebhaft wird es hier
18. Furies (aus: TWV 55:D7)
19. Rez. Cephisa, Eurimedes, Orpheus: Welch Unfall tragt sich zu?
20. Rez. Orpheus, Eurydice: Ihr Himmel, ach!
21. Arie Eurimedes: A' l'incendio
22. Rez. Eurimedes, Cephisa: Du bist's, Cephisa
23. Arie Cephisa: Ich weiss von keiner Liebe nicht
24. Rez. Eurimedes, Cephisa: Ist denn gar nichts fur mich zu hoffen?
25. Chor der Nymphen nebst Cephisa: N'aimons que la liberte
26. Rez. Orpheus: Wie ist mir?
27. Rez. Orpheus: Drum komm, du hochst gewunschter Tod!
28. Arie Orpheus: Ach Tod, ach susser Tod!
29. Rez. Orpheus, Eurimedes: Was kann ich ferner hoffen?
CD 74:
01. Entree (aus: TWV 55:d1)
02. II Akt. Rez. Pluto: Was hor ich
03. Arie Pluto: Zu den Waffen!
04. Chor der Bedienten des Pluto: Zu den Waffen!
05. Sinfonia
06. Rez. Pluto: Was fur ein holder Klang
07. Sinfonia
08. Rez. Pluto: Es scheint sich die Musik
09. Rez. Ascalax: Lass dir, Monarch
10. Arie Orpheus: Trа speranza
11. Rez. Orpheus, Pluto: Monarch der Unterwelt
12. Arie Pluto: Ruhet ihr Foltern
13. Rez. Ascalax, Orpheus, Eurydice: Schau, welche Botschaft
14. Arie Eurydice: Mit dir mich zu ergetzen
15. Rez. Ascalax, Orpheus, Eurydice: Folgt diesem Wege nur!
16. Chor der verdammten Geister: Du hast das Schicksal selbst besieget
17. Rez. Ascalax: Geht, verdammte Geister
18. Arie Ascalax: Was hilft's
19. Rez. Orpheus, Eurydice: Gleich werden wir
20. Rez. Orpheus: Ihr Gotter ach!
21. Rez. Orpheus, Bediente des Pluto: Verstattet doch…
22. Furies (aus: TWV 55:D7)
23. III Akt. Rez. Orasia: Nun wird mein Orpheus bald
24. Arie Orasia: Furcht und Hoffnung
25. Rez. Orasia, Ismene: Mein Hass, der bloss auf Eurydicen fallt
26. Arie Ismene: Bitter und suss
27. Rez. Orasia, Orpheus: Kommst du, mein Orpheus
28. Arie Orasia: Vieni, o sdengo
29. Rez. Eurimedes, Orpheus: Wie freu ich mich
30. Arie Eurimedes: Wanket, ihr leichten und fluchtigen Sinne!
31. Rez. Accomp. Orpheus: Hier sitz ich in der Einsamkeit
32. Rez. Orpheus: Ich hab es selbst versehn
33. Arie Orpheus: Fliesst, ihr Zeugen meiner Schmerzen!
34. Arie Priesterin: Esprits de haine et de rage
35. Chor der Weiber: Esprits de haine
36. Rez. Orasia, Priesterin: Geht, sucht den Lastrer auf
37. Rez. Priesterin, Orasia: In welcher Hohle mag er stecken
38. Arioso Chor der Furien: Evohe! Orpheus erliegt
39. Rez. Priesterin: Geht nun! zerreisset ihn
40. Rez. Orasia: So ist nun Orpheus tot!
41. Arie Orasia: Helas, quels soupirs
42. Rez. Orasia: Ihr Himmel, ach!
43. Schlusschor, Gefolge der Orasia: Ach lebe, Konigin
CD 75: Telemann - Suites (Ouvertures) · Concerto
Ouverture in G major, TWV 55 "Bourlesque de Quixotte"
01. Ouverture
02. La Reveil De Quixotte
03. Son Attaque Des Moulins à Vent (Tres Vite)
04. Ses Soupirs Amoureux Après La Princesse Dulcinée
05. Sanche Panse Berné
06. Le Galope De Rosinante Celui D'Ane De Sanche Panse
07. Le Couché De Quixote
Ouverture in F minor for 3 recorders, strings & b.c.
08. Ouverture
09. Menuet I & II
10. Rondeau
11. Sarabande
12. Passepied
13. Plainte
14. Allemande
15. Chaconne
16. Gigue
Concerto a 7 in E minor
17. Andante
18. Allegro
19. Adagio
20. Vivace
Ouverture in D major for three oboes, strings & b.c.
21. Ouverture
22. Prelude
23. Gigue
24. Menuet I & II
25. Harlequinade
26. Loure
27. Rondeau
28. Rejouissance



Exact Audio Copy V1.5 from 20. February 2020

EAC extraction logfile from 22. October 2020, 23:14

Guillemette Laurens / DHM - 100 Great Recordings (CD52) Monteverdi e il suo tempo

Used drive : ATAPI iHAS124 F Adapter: 1 ID: 0

Read mode : Secure
Utilize accurate stream : Yes
Defeat audio cache : Yes
Make use of C2 pointers : No

Read offset correction : 6
Overread into Lead-In and Lead-Out : No
Fill up missing offset samples with silence : Yes
Delete leading and trailing silent blocks : No
Null samples used in CRC calculations : Yes
Used interface : Native Win32 interface for Win NT & 2000

Used output format : User Defined Encoder
Selected bitrate : 1024 kBit/s
Quality : High
Add ID3 tag : No
Command line compressor : C:\Program Files (x86)\Exact Audio Copy\FLAC\FLAC.EXE
Additional command line options : -6 -V -T "ARTIST=%artist%" -T "TITLE=%title%" -T "ALBUM=%albumtitle%" -T "DATE=%year%" -T "TRACKNUMBER=%tracknr%" -T "GENRE=%genre%" -T "COMMENT=%comment%" -T "BAND=%albuminterpret%" -T "ALBUMARTIST=%albuminterpret%" -T "COMPOSER=%composer%" %haslyrics%–tag-from-file=LYRICS="%lyricsfile%"%haslyrics% -T "DISCNUMBER=%cdnumber%" -T "TOTALDISCS=%totalcds%" -T "TOTALTRACKS=%numtracks%" %hascover%–picture="%coverfile%"%hascover% %source% -o %dest%


TOC of the extracted CD

Track | Start | Length | Start sector | End sector
––––––––––––––––––––––––––––-
1 | 0:00.00 | 4:30.42 | 0 | 20291
2 | 4:30.42 | 5:02.50 | 20292 | 42991
3 | 9:33.17 | 4:33.43 | 42992 | 63509
4 | 14:06.60 | 3:22.02 | 63510 | 78661
5 | 17:28.62 | 5:13.00 | 78662 | 102136
6 | 22:41.62 | 3:24.73 | 102137 | 117509
7 | 26:06.60 | 9:59.72 | 117510 | 162506
8 | 36:06.57 | 5:02.05 | 162507 | 185161
9 | 41:08.62 | 7:48.05 | 185162 | 220266
10 | 48:56.67 | 7:07.13 | 220267 | 252304
11 | 56:04.05 | 1:30.57 | 252305 | 259111
12 | 57:34.62 | 2:41.13 | 259112 | 271199
13 | 60:16.00 | 3:20.40 | 271200 | 286239
14 | 63:36.40 | 4:30.20 | 286240 | 306509
15 | 68:06.60 | 2:26.15 | 306510 | 317474


Range status and errors

Selected range

Filename C:\EACRip\DHM - 100 GREAT RECORDINGS (100CDs, DHM) (2017)\CD-052 - Monteverdi et al\DHM - 100 Great Recordings (CD52) Monteverdi e il suo tempo - Guillemette Laurens, Skip Sempe.wav

Peak level 71.1 %
Extraction speed 9.0 X
Range quality 99.9 %
Test CRC 6FB5642E
Copy CRC 6FB5642E
Copy OK

No errors occurred


AccurateRip summary

Track 1 accurately ripped (confidence 14) [2B1F6DDA] (AR v2)
Track 2 accurately ripped (confidence 14) [2BB23118] (AR v2)
Track 3 accurately ripped (confidence 14) [A457CC8C] (AR v2)
Track 4 accurately ripped (confidence 14) [E2CF9B8E] (AR v2)
Track 5 accurately ripped (confidence 14) [C23380AC] (AR v2)
Track 6 accurately ripped (confidence 14) [04E362E5] (AR v2)
Track 7 accurately ripped (confidence 14) [D2EEDA65] (AR v2)
Track 8 accurately ripped (confidence 14) [8D309AEF] (AR v2)
Track 9 accurately ripped (confidence 14) [3569D90D] (AR v2)
Track 10 accurately ripped (confidence 14) [8A621193] (AR v2)
Track 11 accurately ripped (confidence 14) [166FEB92] (AR v2)
Track 12 accurately ripped (confidence 14) [CA5D2A86] (AR v2)
Track 13 accurately ripped (confidence 14) [E353F39D] (AR v2)
Track 14 accurately ripped (confidence 14) [EBDFA7F8] (AR v2)
Track 15 accurately ripped (confidence 14) [6746C72E] (AR v2)

All tracks accurately ripped

End of status report

–– CUETools DB Plugin V2.1.6

[CTDB TOCID: cufmUxp_rCZMuniIi5ltt38tosY-] found
Submit result: cufmUxp_rCZMuniIi5ltt38tosY- has been confirmed
Track | CTDB Status
1 | (66/66) Accurately ripped
2 | (66/66) Accurately ripped
3 | (66/66) Accurately ripped
4 | (66/66) Accurately ripped
5 | (66/66) Accurately ripped
6 | (66/66) Accurately ripped
7 | (66/66) Accurately ripped
8 | (66/66) Accurately ripped
9 | (66/66) Accurately ripped
10 | (66/66) Accurately ripped
11 | (66/66) Accurately ripped
12 | (66/66) Accurately ripped
13 | (66/66) Accurately ripped
14 | (66/66) Accurately ripped
15 | (64/66) Accurately ripped, or (2/66) differs in 2397 samples @02:25:70-02:25:74


==== Log checksum 05D721041B0418809EA9561D5399523DE5E87130118A544A3FEABDDDAA427843 ====


Exact Audio Copy V1.5 from 20. February 2020

EAC extraction logfile from 23. October 2020, 14:25

Konrad Junghänel / DHM - 100 Great Recordings (CD53) Monteverdi - Vespro della beata Vergine (1)

Used drive : ATAPI iHAS124 F Adapter: 1 ID: 0

Read mode : Secure
Utilize accurate stream : Yes
Defeat audio cache : Yes
Make use of C2 pointers : No

Read offset correction : 6
Overread into Lead-In and Lead-Out : No
Fill up missing offset samples with silence : Yes
Delete leading and trailing silent blocks : No
Null samples used in CRC calculations : Yes
Used interface : Native Win32 interface for Win NT & 2000

Used output format : User Defined Encoder
Selected bitrate : 1024 kBit/s
Quality : High
Add ID3 tag : No
Command line compressor : C:\Program Files (x86)\Exact Audio Copy\FLAC\FLAC.EXE
Additional command line options : -6 -V -T "ARTIST=%artist%" -T "TITLE=%title%" -T "ALBUM=%albumtitle%" -T "DATE=%year%" -T "TRACKNUMBER=%tracknr%" -T "GENRE=%genre%" -T "COMMENT=%comment%" -T "BAND=%albuminterpret%" -T "ALBUMARTIST=%albuminterpret%" -T "COMPOSER=%composer%" %haslyrics%–tag-from-file=LYRICS="%lyricsfile%"%haslyrics% -T "DISCNUMBER=%cdnumber%" -T "TOTALDISCS=%totalcds%" -T "TOTALTRACKS=%numtracks%" %hascover%–picture="%coverfile%"%hascover% %source% -o %dest%


TOC of the extracted CD

Track | Start | Length | Start sector | End sector
––––––––––––––––––––––––––––-
1 | 0:00.00 | 2:15.22 | 0 | 10146
2 | 2:15.22 | 8:10.63 | 10147 | 46959
3 | 10:26.10 | 3:31.20 | 46960 | 62804
4 | 13:57.30 | 6:29.02 | 62805 | 91981
5 | 20:26.32 | 3:49.00 | 91982 | 109156
6 | 24:15.32 | 7:25.68 | 109157 | 142599
7 | 31:41.25 | 5:44.47 | 142600 | 168446
8 | 37:25.72 | 5:05.50 | 168447 | 191371
9 | 42:31.47 | 8:12.23 | 191372 | 228294
10 | 50:43.70 | 4:55.00 | 228295 | 250419


Range status and errors

Selected range

Filename C:\EACRip\DHM - 100 GREAT RECORDINGS (100CDs, DHM) (2017)\CD-053 - Monteverdi - Vespro… (1)\DHM - 100 Great Recordings (CD53) Monteverdi - Vespro della beata Vergine (1) - Konrad Junghanel.wav

Peak level 99.9 %
Extraction speed 8.4 X
Range quality 99.9 %
Test CRC F44A3556
Copy CRC F44A3556
Copy OK

No errors occurred


AccurateRip summary

Track 1 accurately ripped (confidence 110) [FAE2A3AF] (AR v2)
Track 2 accurately ripped (confidence 109) [8268D100] (AR v2)
Track 3 accurately ripped (confidence 110) [20F9A732] (AR v2)
Track 4 accurately ripped (confidence 110) [C135BCA7] (AR v2)
Track 5 accurately ripped (confidence 110) [D9C5BB2E] (AR v2)
Track 6 accurately ripped (confidence 110) [001B4906] (AR v2)
Track 7 accurately ripped (confidence 111) [BB980C4A] (AR v2)
Track 8 accurately ripped (confidence 111) [5509EBB1] (AR v2)
Track 9 accurately ripped (confidence 111) [2A54BD29] (AR v2)
Track 10 accurately ripped (confidence 107) [D36DABE0] (AR v2)

All tracks accurately ripped

End of status report

–– CUETools DB Plugin V2.1.6

[CTDB TOCID: d3J9pPIrJx7zf4aArMnPSEF.mZU-] found
Submit result: already submitted
Track | CTDB Status
1 | (206/206) Accurately ripped
2 | (206/206) Accurately ripped
3 | (206/206) Accurately ripped
4 | (206/206) Accurately ripped
5 | (206/206) Accurately ripped
6 | (206/206) Accurately ripped
7 | (206/206) Accurately ripped
8 | (205/206) Accurately ripped
9 | (205/206) Accurately ripped
10 | (204/206) Accurately ripped


==== Log checksum 62D93987B8E529A65641913068770DEC940BA04D901E3622B001C07EDE2B9FD8 ====


Exact Audio Copy V1.5 from 20. February 2020

EAC extraction logfile from 23. October 2020, 14:53

Konrad Junghänel / DHM - 100 Great Recordings (CD54) Monteverdi - Vespro della beata Vergine (2)

Used drive : ATAPI iHAS124 F Adapter: 1 ID: 0

Read mode : Secure
Utilize accurate stream : Yes
Defeat audio cache : Yes
Make use of C2 pointers : No

Read offset correction : 6
Overread into Lead-In and Lead-Out : No
Fill up missing offset samples with silence : Yes
Delete leading and trailing silent blocks : No
Null samples used in CRC calculations : Yes
Used interface : Native Win32 interface for Win NT & 2000

Used output format : User Defined Encoder
Selected bitrate : 1024 kBit/s
Quality : High
Add ID3 tag : No
Command line compressor : C:\Program Files (x86)\Exact Audio Copy\FLAC\FLAC.EXE
Additional command line options : -6 -V -T "ARTIST=%artist%" -T "TITLE=%title%" -T "ALBUM=%albumtitle%" -T "DATE=%year%" -T "TRACKNUMBER=%tracknr%" -T "GENRE=%genre%" -T "COMMENT=%comment%" -T "BAND=%albuminterpret%" -T "ALBUMARTIST=%albuminterpret%" -T "COMPOSER=%composer%" %haslyrics%–tag-from-file=LYRICS="%lyricsfile%"%haslyrics% -T "DISCNUMBER=%cdnumber%" -T "TOTALDISCS=%totalcds%" -T "TOTALTRACKS=%numtracks%" %hascover%–picture="%coverfile%"%hascover% %source% -o %dest%


TOC of the extracted CD

Track | Start | Length | Start sector | End sector
––––––––––––––––––––––––––––-
1 | 0:00.00 | 7:09.65 | 0 | 32239
2 | 7:09.65 | 8:56.37 | 32240 | 72476
3 | 16:06.27 | 0:52.23 | 72477 | 76399
4 | 16:58.50 | 1:18.02 | 76400 | 82251
5 | 18:16.52 | 1:47.03 | 82252 | 90279
6 | 20:03.55 | 1:07.45 | 90280 | 95349
7 | 21:11.25 | 2:03.20 | 95350 | 104594
8 | 23:14.45 | 0:57.70 | 104595 | 108939
9 | 24:12.40 | 2:05.70 | 108940 | 118384
10 | 26:18.35 | 1:50.70 | 118385 | 126704
11 | 28:09.30 | 1:22.72 | 126705 | 132926
12 | 29:32.27 | 1:07.65 | 132927 | 138016
13 | 30:40.17 | 2:04.38 | 138017 | 147354
14 | 32:44.55 | 1:54.02 | 147355 | 155906


Range status and errors

Selected range

Filename C:\EACRip\DHM - 100 GREAT RECORDINGS (100CDs, DHM) (2017)\CD-054 - Monteverdi - Vespro… (2)\DHM - 100 Great Recordings (CD54) Monteverdi - Vespro della beata Vergine (2) - Konrad Junghanel.wav

Peak level 96.9 %
Extraction speed 7.6 X
Range quality 100.0 %
Test CRC 1D1A54F3
Copy CRC 1D1A54F3
Copy OK

No errors occurred


AccurateRip summary

Track 1 accurately ripped (confidence 115) [69975EC9] (AR v2)
Track 2 accurately ripped (confidence 116) [E1EC0B7E] (AR v2)
Track 3 accurately ripped (confidence 116) [9D12ABD7] (AR v2)
Track 4 accurately ripped (confidence 116) [0599953A] (AR v2)
Track 5 accurately ripped (confidence 115) [6A8D24FA] (AR v2)
Track 6 accurately ripped (confidence 116) [EFC7597E] (AR v2)
Track 7 accurately ripped (confidence 116) [484D0917] (AR v2)
Track 8 accurately ripped (confidence 116) [29F9C47B] (AR v2)
Track 9 accurately ripped (confidence 116) [56B85860] (AR v2)
Track 10 accurately ripped (confidence 116) [F1FDACBD] (AR v2)
Track 11 accurately ripped (confidence 116) [C579D5E4] (AR v2)
Track 12 accurately ripped (confidence 116) [33D23D70] (AR v2)
Track 13 accurately ripped (confidence 116) [9882EF86] (AR v2)
Track 14 accurately ripped (confidence 116) [379B5A6D] (AR v2)

All tracks accurately ripped

End of status report

–– CUETools DB Plugin V2.1.6

[CTDB TOCID: 1gMyeLECox9t_kpqjoFVa.Ipz6k-] found
Submit result: already submitted
Track | CTDB Status
1 | (207/207) Accurately ripped
2 | (207/207) Accurately ripped
3 | (207/207) Accurately ripped
4 | (207/207) Accurately ripped
5 | (207/207) Accurately ripped
6 | (207/207) Accurately ripped
7 | (207/207) Accurately ripped
8 | (207/207) Accurately ripped
9 | (207/207) Accurately ripped
10 | (207/207) Accurately ripped
11 | (207/207) Accurately ripped
12 | (207/207) Accurately ripped
13 | (207/207) Accurately ripped
14 | (206/207) Accurately ripped


==== Log checksum FFDB963D42F49068BC34AA9ED667FD8AD3136B07F4719F05736CC5C41B427089 ====


Exact Audio Copy V1.5 from 20. February 2020

EAC extraction logfile from 23. October 2020, 15:56

Marta Almajano, Xenia Meijer / DHM - 100 Great Recordings (CD55) Jose de Nebra - Miserere

Used drive : ATAPI iHAS124 F Adapter: 1 ID: 0

Read mode : Secure
Utilize accurate stream : Yes
Defeat audio cache : Yes
Make use of C2 pointers : No

Read offset correction : 6
Overread into Lead-In and Lead-Out : No
Fill up missing offset samples with silence : Yes
Delete leading and trailing silent blocks : No
Null samples used in CRC calculations : Yes
Used interface : Native Win32 interface for Win NT & 2000

Used output format : User Defined Encoder
Selected bitrate : 1024 kBit/s
Quality : High
Add ID3 tag : No
Command line compressor : C:\Program Files (x86)\Exact Audio Copy\FLAC\FLAC.EXE
Additional command line options : -6 -V -T "ARTIST=%artist%" -T "TITLE=%title%" -T "ALBUM=%albumtitle%" -T "DATE=%year%" -T "TRACKNUMBER=%tracknr%" -T "GENRE=%genre%" -T "COMMENT=%comment%" -T "BAND=%albuminterpret%" -T "ALBUMARTIST=%albuminterpret%" -T "COMPOSER=%composer%" %haslyrics%–tag-from-file=LYRICS="%lyricsfile%"%haslyrics% -T "DISCNUMBER=%cdnumber%" -T "TOTALDISCS=%totalcds%" -T "TOTALTRACKS=%numtracks%" %hascover%–picture="%coverfile%"%hascover% %source% -o %dest%


TOC of the extracted CD

Track | Start | Length | Start sector | End sector
––––––––––––––––––––––––––––-
1 | 0:00.00 | 5:52.00 | 0 | 26399
2 | 5:52.00 | 0:17.30 | 26400 | 27704
3 | 6:09.30 | 4:08.50 | 27705 | 46354
4 | 10:18.05 | 0:19.53 | 46355 | 47832
5 | 10:37.58 | 3:33.40 | 47833 | 63847
6 | 14:11.23 | 0:19.15 | 63848 | 65287
7 | 14:30.38 | 2:15.16 | 65288 | 75428
8 | 16:45.54 | 0:16.64 | 75429 | 76692
9 | 17:02.43 | 3:57.15 | 76693 | 94482
10 | 20:59.58 | 0:16.23 | 94483 | 95705
11 | 21:16.06 | 4:24.71 | 95706 | 115576
12 | 25:41.02 | 0:18.57 | 115577 | 116983
13 | 25:59.59 | 2:43.27 | 116984 | 129235
14 | 28:43.11 | 0:15.71 | 129236 | 130431
15 | 28:59.07 | 4:33.07 | 130432 | 150913
16 | 33:32.14 | 0:18.00 | 150914 | 152263
17 | 33:50.14 | 4:00.44 | 152264 | 170307
18 | 37:50.58 | 4:12.67 | 170308 | 189274
19 | 42:03.50 | 0:21.52 | 189275 | 190901
20 | 42:25.27 | 1:29.00 | 190902 | 197576
21 | 43:54.27 | 3:30.16 | 197577 | 213342
22 | 47:24.43 | 1:42.22 | 213343 | 221014
23 | 49:06.65 | 1:32.44 | 221015 | 227958
24 | 50:39.34 | 6:58.42 | 227959 | 259350


Range status and errors

Selected range

Filename C:\EACRip\DHM - 100 GREAT RECORDINGS (100CDs, DHM) (2017)\CD-055 - Jose de Nebra - Miserere\DHM - 100 Great Recordings (CD55) Jose de Nebra - Miserere - Al Ayre Espanol.wav

Peak level 89.4 %
Extraction speed 8.6 X
Range quality 100.0 %
Test CRC 6F20451E
Copy CRC 6F20451E
Copy OK

No errors occurred


AccurateRip summary

Track 1 accurately ripped (confidence 33) [217ED044] (AR v2)
Track 2 accurately ripped (confidence 33) [CC743D53] (AR v2)
Track 3 accurately ripped (confidence 33) [4411C079] (AR v2)
Track 4 accurately ripped (confidence 33) [F16FF411] (AR v2)
Track 5 accurately ripped (confidence 33) [4D37AA9D] (AR v2)
Track 6 accurately ripped (confidence 33) [5601BFE3] (AR v2)
Track 7 accurately ripped (confidence 33) [B182E1A7] (AR v2)
Track 8 accurately ripped (confidence 33) [DB0FA99A] (AR v2)
Track 9 accurately ripped (confidence 33) [A486955A] (AR v2)
Track 10 accurately ripped (confidence 33) [4E8C51E8] (AR v2)
Track 11 accurately ripped (confidence 33) [3C638332] (AR v2)
Track 12 accurately ripped (confidence 33) [C1E31040] (AR v2)
Track 13 accurately ripped (confidence 33) [D6363283] (AR v2)
Track 14 accurately ripped (confidence 33) [DA10A036] (AR v2)
Track 15 accurately ripped (confidence 33) [43181B0D] (AR v2)
Track 16 accurately ripped (confidence 33) [740839B3] (AR v2)
Track 17 accurately ripped (confidence 33) [B419BE59] (AR v2)
Track 18 accurately ripped (confidence 33) [4F07A614] (AR v2)
Track 19 accurately ripped (confidence 33) [3C6E9539] (AR v2)
Track 20 accurately ripped (confidence 33) [5593CD6A] (AR v2)
Track 21 accurately ripped (confidence 33) [D2DFC5A0] (AR v2)
Track 22 accurately ripped (confidence 33) [8AE5566F] (AR v2)
Track 23 accurately ripped (confidence 33) [AC87A1BD] (AR v2)
Track 24 accurately ripped (confidence 33) [FA4B1747] (AR v2)

All tracks accurately ripped

End of status report

–– CUETools DB Plugin V2.1.6

[CTDB TOCID: ypQQpzPonqhYgYOqFB4jxoIMJnk-] found
Submit result: ypQQpzPonqhYgYOqFB4jxoIMJnk- has been confirmed
Track | CTDB Status
1 | (63/63) Accurately ripped
2 | (63/63) Accurately ripped
3 | (63/63) Accurately ripped
4 | (63/63) Accurately ripped
5 | (63/63) Accurately ripped
6 | (63/63) Accurately ripped
7 | (63/63) Accurately ripped
8 | (63/63) Accurately ripped
9 | (63/63) Accurately ripped
10 | (63/63) Accurately ripped
11 | (63/63) Accurately ripped
12 | (63/63) Accurately ripped
13 | (63/63) Accurately ripped
14 | (63/63) Accurately ripped
15 | (63/63) Accurately ripped
16 | (63/63) Accurately ripped
17 | (63/63) Accurately ripped
18 | (63/63) Accurately ripped
19 | (63/63) Accurately ripped
20 | (63/63) Accurately ripped
21 | (63/63) Accurately ripped
22 | (63/63) Accurately ripped
23 | (63/63) Accurately ripped
24 | (61/63) Accurately ripped, or (2/63) differs in 699 samples @06:58:29-06:58:30


==== Log checksum 4B76CCE55E2A1EB4EC92B8FB100D8A3940AA2A34D673EEC6042E963123820D3F ====


Exact Audio Copy V1.5 from 20. February 2020

EAC extraction logfile from 23. October 2020, 18:55

Konrad Junghänel / DHM - 100 Great Recordings (CD56) Pachelbel, J.C. Bach, J.M. Bach - Motetten

Used drive : ATAPI iHAS124 F Adapter: 1 ID: 0

Read mode : Secure
Utilize accurate stream : Yes
Defeat audio cache : Yes
Make use of C2 pointers : No

Read offset correction : 6
Overread into Lead-In and Lead-Out : No
Fill up missing offset samples with silence : Yes
Delete leading and trailing silent blocks : No
Null samples used in CRC calculations : Yes
Used interface : Native Win32 interface for Win NT & 2000

Used output format : User Defined Encoder
Selected bitrate : 1024 kBit/s
Quality : High
Add ID3 tag : No
Command line compressor : C:\Program Files (x86)\Exact Audio Copy\FLAC\FLAC.EXE
Additional command line options : -6 -V -T "ARTIST=%artist%" -T "TITLE=%title%" -T "ALBUM=%albumtitle%" -T "DATE=%year%" -T "TRACKNUMBER=%tracknr%" -T "GENRE=%genre%" -T "COMMENT=%comment%" -T "BAND=%albuminterpret%" -T "ALBUMARTIST=%albuminterpret%" -T "COMPOSER=%composer%" %haslyrics%–tag-from-file=LYRICS="%lyricsfile%"%haslyrics% -T "DISCNUMBER=%cdnumber%" -T "TOTALDISCS=%totalcds%" -T "TOTALTRACKS=%numtracks%" %hascover%–picture="%coverfile%"%hascover% %source% -o %dest%


TOC of the extracted CD

Track | Start | Length | Start sector | End sector
––––––––––––––––––––––––––––-
1 | 0:00.00 | 5:36.50 | 0 | 25249
2 | 5:36.50 | 3:46.45 | 25250 | 42244
3 | 9:23.20 | 2:54.65 | 42245 | 55359
4 | 12:18.10 | 3:58.15 | 55360 | 73224
5 | 16:16.25 | 4:23.50 | 73225 | 92999
6 | 20:40.00 | 2:55.68 | 93000 | 106192
7 | 23:35.68 | 5:06.02 | 106193 | 129144
8 | 28:41.70 | 3:52.53 | 129145 | 146597
9 | 32:34.48 | 3:36.60 | 146598 | 162857
10 | 36:11.33 | 4:06.00 | 162858 | 181307
11 | 40:17.33 | 2:51.40 | 181308 | 194172
12 | 43:08.73 | 3:21.40 | 194173 | 209287
13 | 46:30.38 | 4:47.57 | 209288 | 230869
14 | 51:18.20 | 3:09.58 | 230870 | 245102
15 | 54:28.03 | 2:40.25 | 245103 | 257127
16 | 57:08.28 | 6:41.70 | 257128 | 287272


Range status and errors

Selected range

Filename C:\EACRip\DHM - 100 GREAT RECORDINGS (100CDs, DHM) (2017)\CD-056 - Pachelbel, JCh&JM Bach\DHM - 100 Great Recordings (CD56) Pachelbel, J.C. Bach, J.M. Bach - Motetten - Konrad Junghanel.wav

Peak level 95.1 %
Extraction speed 8.6 X
Range quality 99.9 %
Test CRC C0C280A4
Copy CRC C0C280A4
Copy OK

No errors occurred


AccurateRip summary

Track 1 accurately ripped (confidence 101) [DF1C57C3] (AR v2)
Track 2 accurately ripped (confidence 101) [CF801603] (AR v2)
Track 3 accurately ripped (confidence 102) [5DCD6040] (AR v2)
Track 4 accurately ripped (confidence 102) [BD16DF86] (AR v2)
Track 5 accurately ripped (confidence 102) [9C8C8727] (AR v2)
Track 6 accurately ripped (confidence 102) [15B7B25C] (AR v2)
Track 7 accurately ripped (confidence 102) [A8861BC4] (AR v2)
Track 8 accurately ripped (confidence 102) [0977F0DD] (AR v2)
Track 9 accurately ripped (confidence 102) [D99C61D9] (AR v2)
Track 10 accurately ripped (confidence 102) [73106232] (AR v2)
Track 11 accurately ripped (confidence 102) [8F1E5C19] (AR v2)
Track 12 accurately ripped (confidence 102) [98563425] (AR v2)
Track 13 accurately ripped (confidence 103) [BF1F8EBA] (AR v2)
Track 14 accurately ripped (confidence 102) [EC873F6C] (AR v2)
Track 15 accurately ripped (confidence 102) [17C25FCC] (AR v2)
Track 16 accurately ripped (confidence 99) [EC335E94] (AR v2)

All tracks accurately ripped

End of status report

–– CUETools DB Plugin V2.1.6

[CTDB TOCID: 0p9IbOinMtUA5Czn9lVA7IM13q8-] found
Submit result: already submitted
Track | CTDB Status
1 | (177/184) Accurately ripped
2 | (177/184) Accurately ripped
3 | (177/184) Accurately ripped
4 | (177/184) Accurately ripped
5 | (177/184) Accurately ripped
6 | (177/184) Accurately ripped
7 | (177/184) Accurately ripped
8 | (177/184) Accurately ripped
9 | (177/184) Accurately ripped
10 | (177/184) Accurately ripped
11 | (177/184) Accurately ripped
12 | (177/184) Accurately ripped
13 | (177/184) Accurately ripped
14 | (177/184) Accurately ripped
15 | (177/184) Accurately ripped
16 | (171/184) Accurately ripped, or (2/184) differs in 7068 samples @06:41:50-06:41:56


==== Log checksum CA9E9C921A528D2E451F293E8AAB1EF2596FEE0780685C6C573030282DBE8F1B ====


Deutsche Harmonia Mundi - 100 Great Recordings, Part 3 (2017)

Thanks to the original releaser