Subcategories
Tags
Language
Tags

Elton John: Live Albums Collection (1971-2020) [21CD & 6LP]

Posted By: v3122
Elton John: Live Albums Collection (1971-2020) [21CD & 6LP]

Elton John: Live Albums Collection (1971-2020)
EAC | Flac(Image) + Cue + Log & MP3 CBR 320Kbps
Label: various | ~ 8796 or 2146 Mb | Artwork -> 924 Mb
Vinyl Rip 24/96 & 16/44 | Flac(Image + Cue) > 5780 or 1794 Mb
MP3 CBR 320Kbps > 768 Mb | Artwork(jpg) > 78 Mb
Pop Rock, Classic Rock

Sir Elton Hercules John CH CBE (born Reginald Kenneth Dwight; 25 March 1947) is an English singer, songwriter, pianist, and composer. Collaborating with lyricist Bernie Taupin since 1967 on more than 30 albums, John has sold over 300 million records, making him one of the best-selling music artists of all time. He has more than fifty Top 40 hits in the UK Singles Chart and US Billboard Hot 100, including seven number ones in the UK and nine in the US, as well as seven consecutive number-one albums in the US. His tribute single "Candle in the Wind 1997", rewritten in dedication to Diana, Princess of Wales, sold over 33 million copies worldwide and is the best-selling single in the history of the UK and US singles charts. He has also produced records and occasionally acted in films. John owned Watford F.C. from 1976 to 1987 and from 1997 to 2002. He is an honorary life president of the club.

Raised in the Pinner area of Greater London, John learned to play piano at an early age, and by 1962 had formed Bluesology, an R&B band with whom he played until 1967. He met his longtime musical partner Taupin in 1967, after they both answered an advert for songwriters. For two years, they wrote songs for artists including Lulu, and John worked as a session musician for artists including the Hollies and the Scaffold. In 1969, John's debut album, Empty Sky, was released. In 1970, his first hit single, "Your Song", from his second album, Elton John, became his first top ten in both the UK and the US. His most commercially successful period, 1970–1976, included Honky Château (1972), Don't Shoot Me I'm Only the Piano Player (1973), Goodbye Yellow Brick Road (1973) and his first Greatest Hits compilation — the latter two among the official best-selling albums worldwide. John has also had success in musical films and theatre, composing for The Lion King and its stage adaptation, Aida and Billy Elliot the Musical.

John has received five Grammy Awards, five Brit Awards; including for Outstanding Contribution to Music; two Academy Awards, two Golden Globes, a Tony Award, a Disney Legends Award, and the Kennedy Center Honor. In 2004, Rolling Stone ranked him 49th on its list of 100 influential musicians of the rock and roll era. In 2013, Billboard ranked him the most successful male solo artist on the Billboard Hot 100 Top All-Time Artists, and third overall, behind the Beatles and Madonna. He was inducted into the Songwriters Hall of Fame in 1992 and the Rock and Roll Hall of Fame in 1994, and is a fellow of the British Academy of Songwriters, Composers and Authors. He was knighted by Queen Elizabeth II for "services to music and charitable services" in 1998.

John has been involved in the fight against AIDS since the late 1980s. In 1992, he established the Elton John AIDS Foundation, and a year later he began hosting his annual Academy Awards Party, which has since become one of the biggest high-profile Oscar parties in the Hollywood film industry. Since its inception, the foundation has raised over £300 million. John has performed at a number of royal events, such as the funeral of Princess Diana at Westminster Abbey in 1997, the Party at the Palace in 2002 and the Queen's Diamond Jubilee Concert outside Buckingham Palace in 2012. John, who announced he was bisexual in 1976 and has been openly gay since 1988, entered into a civil partnership with David Furnish on 21 December 2005; they married after same-sex marriage became legal in England and Wales in 2014. Presenting John with France's highest civilian award, the Legion d'honneur, in 2019, French President Emmanuel Macron called him a "melodic genius" and praised his work on behalf of the LGBT community. In 2018, John embarked on a three-year farewell tour…

~ wiki
Elton John: Live Albums Collection (1971-2020) [21CD & 6LP]

Elton John: Live Albums Collection (1971-2020):

Elton John: Live Albums Collection (1971-2020) [21CD & 6LP]

Tracklist CD01. 1971 - 11-17-70 [DJM 512 854-2, Germany]:

01. Take Me to the Pilot [0:06:46.05]
02. Honky Tonk Women [0:04:09.33]
03. Sixty Years On [0:07:25.32]
04. Can I Put You On [0:06:12.68]
05. Bad Side of the Moon [0:04:24.35]
06. Burn Down the Mission (including My Baby Left Me & Get Back) [0:18:11.27]

Exact Audio Copy V1.6 from 23. October 2020

EAC extraction logfile from 16. May 2021, 14:35

Elton John / 11-17-70

Used drive : PLEXTOR DVDR PX-L890SA Adapter: 1 ID: 1

Read mode : Secure
Utilize accurate stream : Yes
Defeat audio cache : Yes
Make use of C2 pointers : No

Read offset correction : 6
Overread into Lead-In and Lead-Out : No
Fill up missing offset samples with silence : Yes
Delete leading and trailing silent blocks : No
Null samples used in CRC calculations : Yes
Used interface : Native Win32 interface for Win NT & 2000

Used output format : User Defined Encoder
Selected bitrate : 1024 kBit/s
Quality : High
Add ID3 tag : No
Command line compressor : C:\Program Files (x86)\Exact Audio Copy\Flac\flac.exe
Additional command line options : -V -8 -T "Date=%year%" -T "Genre=%genre%" %source%


TOC of the extracted CD

Track | Start | Length | Start sector | End sector
––––––––––––––––––––––––––––-
1 | 0:00.32 | 6:46.05 | 32 | 30486
2 | 6:46.37 | 4:09.33 | 30487 | 49194
3 | 10:55.70 | 7:25.32 | 49195 | 82601
4 | 18:21.27 | 6:12.68 | 82602 | 110569
5 | 24:34.20 | 4:24.35 | 110570 | 130404
6 | 28:58.55 | 18:11.27 | 130405 | 212256


Range status and errors

Selected range

Filename H:\AUDIO\MUSIC\1971. Elton John - 17-11-70 (DJM 512 854-2, Germany)\Elton John - 11-17-70.wav

Peak level 98.7 %
Extraction speed 3.0 X
Range quality 100.0 %
Test CRC 2C90C462
Copy CRC 2C90C462
Copy OK

No errors occurred


AccurateRip summary

Track 1 accurately ripped (confidence 8) [A47DFC48] (AR v2)
Track 2 accurately ripped (confidence 8) [8F5149E3] (AR v2)
Track 3 accurately ripped (confidence 8) [40AC4B67] (AR v2)
Track 4 accurately ripped (confidence 8) [5D23A822] (AR v2)
Track 5 accurately ripped (confidence 8) [10712914] (AR v2)
Track 6 accurately ripped (confidence 8) [29EAC49D] (AR v2)

All tracks accurately ripped

End of status report

==== Log checksum D67CB76F6A7B646612AB36A3E864C453C70782B1EF38D1CE8539CF6F5BB323E9 ====


[CUETools log; Date: 12.06.2021 15:38:13; Version: 2.1.4]
Pregap length 00:00:32.
[AccurateRip ID: 0009647c-0033454e-430b0e06] found.
Track [ CRC | V2 ] Status
01 [e754b698|a47dfc48] (04+09/13) Accurately ripped
02 [29191522|8f5149e3] (04+09/13) Accurately ripped
03 [d5e0ad41|40ac4b67] (04+09/13) Accurately ripped
04 [e6615a37|5d23a822] (04+09/13) Accurately ripped
05 [60cbd920|10712914] (04+09/13) Accurately ripped
06 [3c6a4b78|29eac49d] (04+09/13) Accurately ripped

Track Peak [ CRC32 ] [W/O NULL] [ LOG ]
– 98,7 [2C90C462] [CA8897D3] CRC32
01 86,0 [43D35E52] [1F9B0AC2]
02 98,7 [7473871D] [0E3DE35C]
03 91,5 [AF6C598C] [013AD658]
04 94,3 [8C57CD7C] [9F4665BF]
05 93,1 [5A4FC5E7] [3D318116]
06 95,5 [C92B6241] [E2256F21]


Elton John: Live Albums Collection (1971-2020) [21CD & 6LP]

Tracklist CD02. 1971 - 17-11-70 [Rocket 314-528 165-2, USA, Remastered]:

01. Bad Side Of The Moon [0:04:59.62]
02. Amoreena [0:04:54.10]
03. Take Me To The Pilot [0:05:54.73]
04. Sixty Years On [0:07:22.20]
05. Honky Tonk Women [0:04:07.10]
06. Can I Put You On [0:06:10.35]
07. Burn Down The Mission (including: My Baby Left Me & Get Back) [0:18:27.00]

Exact Audio Copy V0.99 prebeta 5 from 4. May 2009

EAC extraction logfile from 25. December 2011, 19:15

Elton John / 17-11-70

Used drive : PLEXTOR DVDR PX-L890SA Adapter: 2 ID: 0

Read mode : Secure
Utilize accurate stream : Yes
Defeat audio cache : Yes
Make use of C2 pointers : No

Read offset correction : 6
Overread into Lead-In and Lead-Out : No
Fill up missing offset samples with silence : Yes
Delete leading and trailing silent blocks : No
Null samples used in CRC calculations : Yes
Used interface : Native Win32 interface for Win NT & 2000

Used output format : User Defined Encoder
Selected bitrate : 768 kBit/s
Quality : High
Add ID3 tag : No
Command line compressor : d:\Program Files\Exact Audio Copy\FLAC\FLAC.EXE
Additional command line options : -T "DATE=%y" -T "GENRE=%m" -8 -V %s


TOC of the extracted CD

Track | Start | Length | Start sector | End sector
––––––––––––––––––––––––––––-
1 | 0:00.00 | 4:59.62 | 0 | 22486
2 | 4:59.62 | 4:54.10 | 22487 | 44546
3 | 9:53.72 | 5:54.73 | 44547 | 71169
4 | 15:48.70 | 7:22.20 | 71170 | 104339
5 | 23:11.15 | 4:07.10 | 104340 | 122874
6 | 27:18.25 | 6:10.35 | 122875 | 150659
7 | 33:28.60 | 18:27.00 | 150660 | 233684


Range status and errors

Selected range

Filename H:\MUSIC\COLLECTION\Elton John\1971 17-11-70\Elton John - 17-11-70.wav

Peak level 98.3 %
Range quality 100.0 %
Test CRC 0D9A7AB7
Copy CRC 0D9A7AB7
Copy OK

No errors occurred


AccurateRip summary

Track 1 accurately ripped (confidence 7) [DCFAFF7F]
Track 2 accurately ripped (confidence 7) [ABB0E442]
Track 3 accurately ripped (confidence 7) [224B618A]
Track 4 accurately ripped (confidence 7) [86207F9A]
Track 5 accurately ripped (confidence 7) [F3929C76]
Track 6 accurately ripped (confidence 7) [D0A2978D]
Track 7 accurately ripped (confidence 7) [81AACFC4]

All tracks accurately ripped

End of status report


[CUETools log; Date: 12.06.2021 15:38:23; Version: 2.1.4]
[AccurateRip ID: 000b70c4-0046e5ca-450c2b07] found.
Track [ CRC | V2 ] Status
01 [dcfaff7f|5a672e97] (010+027/182) Accurately ripped
02 [abb0e442|3b2c0981] (010+027/182) Accurately ripped
03 [224b618a|bb9f60ec] (010+027/182) Accurately ripped
04 [86207f9a|868f2836] (010+027/179) Accurately ripped
05 [f3929c76|0daaf120] (010+027/182) Accurately ripped
06 [d0a2978d|e1a8eac2] (010+027/183) Accurately ripped
07 [81aacfc4|28ca53b7] (010+027/174) Accurately ripped
Offsetted by -36:
01 [71dbaf13] (000/182) No match (V2 was not tested)
02 [c95a8bad] (000/182) No match (V2 was not tested)
03 [d30c0a9c] (000/182) No match (V2 was not tested)
04 [7b4373b1] (000/179) No match (V2 was not tested)
05 [0c0b074e] (000/182) No match (V2 was not tested)
06 [f22db09c] (000/183) No match (V2 was not tested)
07 [86cc26d8] (000/174) No match (V2 was not tested)
Offsetted by 2441:
01 [bcab3cd6] (000/182) No match (V2 was not tested)
02 [b874ecb4] (000/182) No match (V2 was not tested)
03 [f2f7a80e] (000/182) No match (V2 was not tested)
04 [8baa9f6f] (000/179) No match (V2 was not tested)
05 [7b12b113] (000/182) No match (V2 was not tested)
06 [619faf9a] (000/183) No match (V2 was not tested)
07 [2797ea5d] (000/174) No match (V2 was not tested)

Track Peak [ CRC32 ] [W/O NULL] [ LOG ]
– 98,3 [0D9A7AB7] [116A5E13] CRC32
01 98,2 [6FDFACED] [DB8AEAA6]
02 96,4 [C7E03D1A] [E606C76D]
03 96,7 [82E8328C] [841E7823]
04 96,4 [A5A927BB] [4C9B727D]
05 96,8 [52CE126C] [3E93BE1A]
06 96,5 [71586BEA] [8317F693]
07 98,3 [A3010544] [2B68B79A]


Elton John: Live Albums Collection (1971-2020) [21CD & 6LP]

Tracklist CD03. 1976 - Here and There [Polydor 314 512 739-2, USA]:

01. Live in London (Introduction) [0:00:38.50]
02. Skyline Pigeon [0:04:05.65]
03. Border Song [0:03:24.15]
04. Honky Cat [0:07:33.70]
05. Love Song [0:05:43.05]
06. Crocodile Rock [0:04:07.57]
07. Funeral for a Friend / Love Lies Bleeding [0:11:48.48]
08. Rocket Man (I Think It’s Going to Be a Long, Long Time) [0:05:04.10]
09. Bennie and the Jets [0:06:18.60]
10. Take Me to the Pilot [0:05:55.57]

Exact Audio Copy V1.6 from 23. October 2020

EAC extraction logfile from 16. April 2021, 19:06

Elton John / Here and There

Used drive : PLEXTOR DVDR PX-L890SA Adapter: 1 ID: 1

Read mode : Secure
Utilize accurate stream : Yes
Defeat audio cache : Yes
Make use of C2 pointers : No

Read offset correction : 6
Overread into Lead-In and Lead-Out : No
Fill up missing offset samples with silence : Yes
Delete leading and trailing silent blocks : No
Null samples used in CRC calculations : Yes
Used interface : Native Win32 interface for Win NT & 2000

Used output format : User Defined Encoder
Selected bitrate : 1024 kBit/s
Quality : High
Add ID3 tag : No
Command line compressor : C:\Program Files (x86)\Exact Audio Copy\Flac\flac.exe
Additional command line options : -V -8 -T "Date=%year%" -T "Genre=%genre%" %source%


TOC of the extracted CD

Track | Start | Length | Start sector | End sector
––––––––––––––––––––––––––––-
1 | 0:00.33 | 0:38.50 | 33 | 2932
2 | 0:39.08 | 4:05.65 | 2933 | 21372
3 | 4:44.73 | 3:24.15 | 21373 | 36687
4 | 8:09.13 | 7:33.70 | 36688 | 70732
5 | 15:43.08 | 5:43.05 | 70733 | 96462
6 | 21:26.13 | 4:07.57 | 96463 | 115044
7 | 25:33.70 | 11:48.48 | 115045 | 168192
8 | 37:22.43 | 5:04.10 | 168193 | 191002
9 | 42:26.53 | 6:18.60 | 191003 | 219412
10 | 48:45.38 | 5:55.57 | 219413 | 246094


Range status and errors

Selected range

Filename H:\AUDIO\MUSIC\1976. Elton John - Here And There (Polydor 314 512 739-2, USA)\Elton John - Here and There.wav

Peak level 100.0 %
Extraction speed 8.6 X
Range quality 100.0 %
Test CRC A9CF5BA8
Copy CRC A9CF5BA8
Copy OK

No errors occurred


AccurateRip summary

Track 1 accurately ripped (confidence 13) [A479CB0E] (AR v2)
Track 2 accurately ripped (confidence 13) [A07981C2] (AR v2)
Track 3 accurately ripped (confidence 13) [D8C247C3] (AR v2)
Track 4 accurately ripped (confidence 13) [E727532E] (AR v2)
Track 5 accurately ripped (confidence 14) [D8ABE9A6] (AR v2)
Track 6 accurately ripped (confidence 13) [82ADAF4B] (AR v2)
Track 7 accurately ripped (confidence 13) [DAE4DE52] (AR v2)
Track 8 accurately ripped (confidence 13) [A55CAB43] (AR v2)
Track 9 accurately ripped (confidence 13) [CA40261F] (AR v2)
Track 10 accurately ripped (confidence 13) [5DF460CD] (AR v2)

All tracks accurately ripped

End of status report

==== Log checksum E8A38D25E9F3A1685E7C584A9750452CD81F2E2B556CED089BF526025491F864 ====


[CUETools log; Date: 12.06.2021 15:38:32; Version: 2.1.4]
Pregap length 00:00:33.
[AccurateRip ID: 0011d264-00975f12-8b0cd10a] found.
Track [ CRC | V2 ] Status
01 [fe46a85d|a479cb0e] (06+13/24) Accurately ripped
02 [a7d4bb92|a07981c2] (06+13/24) Accurately ripped
03 [e255383b|d8c247c3] (06+13/24) Accurately ripped
04 [9934aa60|e727532e] (06+13/24) Accurately ripped
05 [f9df0f40|d8abe9a6] (06+14/25) Accurately ripped
06 [ce39021f|82adaf4b] (06+13/24) Accurately ripped
07 [27ac9f60|dae4de52] (06+13/24) Accurately ripped
08 [ef1efa1b|a55cab43] (06+13/24) Accurately ripped
09 [1214be2f|ca40261f] (06+13/24) Accurately ripped
10 [0d521314|5df460cd] (05+13/23) Accurately ripped
Offsetted by -1169:
01 [b7070b1e] (02/24) Accurately ripped
02 [b00121ca] (02/24) Accurately ripped
03 [32717071] (02/24) Accurately ripped
04 [b423614e] (02/24) Accurately ripped
05 [2ae7bb59] (02/25) Accurately ripped
06 [908474d3] (02/24) Accurately ripped
07 [d12d12fb] (02/24) Accurately ripped
08 [9bcad98e] (02/24) Accurately ripped
09 [d4483192] (02/24) Accurately ripped
10 [0a4fd6b4] (00/23) No match (V2 was not tested)

Track Peak [ CRC32 ] [W/O NULL] [ LOG ]
– 100,0 [A9CF5BA8] [31D48FC2] CRC32
01 41,7 [EAF7CA56] [21D27B1C]
02 75,0 [CBB29954] [1B7703DD]
03 95,1 [08B43EFA] [9467F612]
04 100,0 [0E4FFFC1] [FFE778F6]
05 86,9 [FFC07380] [676217EF]
06 94,5 [5A6CA958] [A7DAAC2F]
07 100,0 [7EC34DC6] [CD523592]
08 100,0 [B3787EE5] [E16276B2]
09 99,6 [8957245E] [BD29A298]
10 100,0 [1ED9B0EC] [B9F2E97A]


Elton John: Live Albums Collection (1971-2020) [21CD & 6LP]

Tracklist CD05-06. 1976 - Here And There [This Record 528 164-2, Germany, Remastered]:

01. Skyline Pigeon [0:05:40.25]
02. Border Song [0:03:27.28]
03. Take Me To The Pilot [0:04:33.65]
04. Country Comfort [0:06:44.62]
05. Love Song [0:05:03.50]
06. Bad Side Of The Moon [0:07:54.30]
07. Burn Down The Mission [0:08:25.48]
08. Honky Cat [0:07:04.25]
09. Crocodile Rock [0:04:08.67]
10. Candle In The Wind [0:03:57.00]
11. Your Song [0:04:07.30]
12. Saturday Night's Alright For Fighting [0:07:08.53]

Exact Audio Copy V1.0 beta 3 from 29. August 2011

EAC extraction logfile from 1. August 2015, 17:31

Elton John / Here And There Disc 1

Used drive : PLEXTOR DVDR PX-L890SA Adapter: 3 ID: 1

Read mode : Secure
Utilize accurate stream : Yes
Defeat audio cache : Yes
Make use of C2 pointers : No

Read offset correction : 6
Overread into Lead-In and Lead-Out : No
Fill up missing offset samples with silence : Yes
Delete leading and trailing silent blocks : No
Null samples used in CRC calculations : Yes
Used interface : Native Win32 interface for Win NT & 2000

Used output format : User Defined Encoder
Selected bitrate : 768 kBit/s
Quality : High
Add ID3 tag : No
Command line compressor : C:\Program Files (x86)\Exact Audio Copy\Flac\flac.exe
Additional command line options : -V -8 -T "Date=%year%" -T "Genre=%genre%" %source%


TOC of the extracted CD

Track | Start | Length | Start sector | End sector
––––––––––––––––––––––––––––-
1 | 0:00.32 | 5:40.25 | 32 | 25556
2 | 5:40.57 | 3:27.28 | 25557 | 41109
3 | 9:08.10 | 4:33.65 | 41110 | 61649
4 | 13:42.00 | 6:44.62 | 61650 | 92011
5 | 20:26.62 | 5:03.50 | 92012 | 114786
6 | 25:30.37 | 7:54.30 | 114787 | 150366
7 | 33:24.67 | 8:25.48 | 150367 | 188289
8 | 41:50.40 | 7:04.25 | 188290 | 220114
9 | 48:54.65 | 4:08.67 | 220115 | 238781
10 | 53:03.57 | 3:57.00 | 238782 | 256556
11 | 57:00.57 | 4:07.30 | 256557 | 275111
12 | 61:08.12 | 7:08.53 | 275112 | 307264


Range status and errors

Selected range

Filename H:\MUSIC\Elton John\1976. Elton John - Here And There (This Record 528 164-2, Germany)\Elton John - Here And There Disc 1.wav

Peak level 100.0 %
Extraction speed 9.8 X
Range quality 99.9 %
Test CRC 668245E4
Copy CRC 668245E4
Copy OK

No errors occurred


AccurateRip summary

Track 1 accurately ripped (confidence 12) [292C9EF2] (AR v2)
Track 2 accurately ripped (confidence 12) [540E7BED] (AR v2)
Track 3 accurately ripped (confidence 12) [BA48A315] (AR v2)
Track 4 accurately ripped (confidence 12) [DF411411] (AR v2)
Track 5 accurately ripped (confidence 12) [F631A699] (AR v2)
Track 6 accurately ripped (confidence 12) [148371DA] (AR v2)
Track 7 accurately ripped (confidence 12) [E97F27B4] (AR v2)
Track 8 accurately ripped (confidence 12) [BE39AE9D] (AR v2)
Track 9 accurately ripped (confidence 11) [1DD6C14F] (AR v2)
Track 10 accurately ripped (confidence 12) [D12FB095] (AR v2)
Track 11 accurately ripped (confidence 11) [5D06E882] (AR v2)
Track 12 accurately ripped (confidence 11) [F4EC8817] (AR v2)

All tracks accurately ripped

End of status report

==== Log checksum 9ADDB2FBB591A82748EBD730FC30B04B4916DDCC57611719135270E6AEBF02DB ====


[CUETools log; Date: 12.06.2021 15:39:00; Version: 2.1.4]
Pregap length 00:00:32.
[AccurateRip ID: 001e15b4-011c0cde-8d10000c] found.
Track [ CRC | V2 ] Status
01 [f38d6648|292c9ef2] (017+027/103) Accurately ripped
02 [c22f17b5|540e7bed] (018+027/104) Accurately ripped
03 [23d4e34d|ba48a315] (018+027/102) Accurately ripped
04 [df02b5f7|df411411] (018+027/102) Accurately ripped
05 [a6eaba28|f631a699] (018+027/101) Accurately ripped
06 [ebfd970f|148371da] (018+027/101) Accurately ripped
07 [046803a0|e97f27b4] (018+027/102) Accurately ripped
08 [f6aa8d52|be39ae9d] (018+027/102) Accurately ripped
09 [e260f16d|1dd6c14f] (017+026/100) Accurately ripped
10 [ea04ce85|d12fb095] (018+027/105) Accurately ripped
11 [1178a653|5d06e882] (017+026/102) Accurately ripped
12 [eb297e79|f4ec8817] (017+026/098) Accurately ripped
Offsetted by -681:
01 [2baa2d25] (005/103) Accurately ripped
02 [90029c1d] (005/104) Accurately ripped
03 [6918aa59] (005/102) Accurately ripped
04 [e4eb770b] (005/102) Accurately ripped
05 [0b1174b3] (004/101) Accurately ripped
06 [bad99ac8] (003/101) Accurately ripped
07 [b6a3b2c4] (005/102) Accurately ripped
08 [e3715a38] (005/102) Accurately ripped
09 [f6258e37] (005/100) Accurately ripped
10 [2ba97478] (004/105) Accurately ripped
11 [85df0b92] (005/102) Accurately ripped
12 [0977398d] (003/098) Accurately ripped
Offsetted by -654:
01 [14da38cd] (003/103) Accurately ripped
02 [302e796f] (003/104) Accurately ripped
03 [96c088c6] (003/102) Accurately ripped
04 [fa1fcecd] (003/102) Accurately ripped
05 [7650efe2] (003/101) Accurately ripped
06 [96b0b1ec] (004/101) Accurately ripped
07 [27eb2853] (003/102) Accurately ripped
08 [6ae6d27e] (003/102) Accurately ripped
09 [8aa2fd23] (003/100) Accurately ripped
10 [e8245c13] (005/105) Accurately ripped
11 [3931e35d] (003/102) Accurately ripped
12 [2b37db28] (003/098) Accurately ripped
Offsetted by -1321:
01 [2c1eb670] (000/103) No match (V2 was not tested)
02 [c12afb1d] (000/104) No match (V2 was not tested)
03 [464ac8d6] (000/102) No match (V2 was not tested)
04 [360fb4d5] (000/102) No match (V2 was not tested)
05 [d8616472] (000/101) No match (V2 was not tested)
06 [6a52970b] (000/101) No match (V2 was not tested)
07 [70b3c06d] (000/102) No match (V2 was not tested)
08 [07648380] (000/102) No match (V2 was not tested)
09 [224b0280] (000/100) No match (V2 was not tested)
10 [2ee531bd] (000/105) No match (V2 was not tested)
11 [2a575638] (000/102) No match (V2 was not tested)
12 [d91e080b] (000/098) No match (V2 was not tested)
Offsetted by -1318:
01 [6303b2b8] (002/103) Accurately ripped
02 [7583ad18] (002/104) Accurately ripped
03 [0874319e] (000/102) No match (V2 was not tested)
04 [cef6dbe9] (000/102) No match (V2 was not tested)
05 [f526f44b] (000/101) No match (V2 was not tested)
06 [e526b53b] (000/101) No match (V2 was not tested)
07 [2f8178c1] (000/102) No match (V2 was not tested)
08 [16180ce5] (000/102) No match (V2 was not tested)
09 [387d2356] (000/100) No match (V2 was not tested)
10 [d2c73216] (002/105) Accurately ripped
11 [56f5385d] (002/102) Accurately ripped
12 [fc1b6de9] (000/098) No match (V2 was not tested)

Track Peak [ CRC32 ] [W/O NULL] [ LOG ]
– 100,0 [668245E4] [64FD7D97] CRC32
01 61,2 [74BA7505] [0AC80CAC]
02 79,2 [E3282024] [633E1B45]
03 94,7 [685263C1] [6CFB4E3C]
04 79,2 [86AA242D] [ECA6865D]
05 78,4 [C3DAA2AB] [690F81A2]
06 79,2 [3C5CB0E4] [7B9481AB]
07 84,9 [7F4928AF] [F381A549]
08 100,0 [E0251F08] [0E50786F]
09 99,3 [92E07B04] [493E53F9]
10 100,0 [0F8391DB] [589D40A5]
11 50,7 [61EFE9BD] [739A8DC4]
12 99,9 [61694BC6] [9929F450]


01. Funeral For A Friend (Love Lies Bleeding) [0:11:53.67]
02. Rocket Man (I Think It's Going To Be A Long Long Time) [0:05:03.53]
03. Take Me To The Pilot [0:06:00.32]
04. Bennie And The Jets [0:05:59.70]
05. Grey Seal [0:05:27.55]
06. Daniel [0:04:06.33]
07. You're So Static [0:04:32.05]
08. Whatever Gets You Thru The Night (Ft. John Lennon) [0:04:40.17]
09. Lucy In The Sky With Diamonds [0:06:15.38]
10. I Saw Her Standing There [0:03:17.37]
11. Don't Let The Sun Go Down On Me [0:05:57.18]
12. Your Song [0:03:58.20]
13. The Bitch Is Back [0:04:23.05]

Exact Audio Copy V1.0 beta 3 from 29. August 2011

EAC extraction logfile from 1. August 2015, 18:22

Elton John / Here And There [Disc 2]

Used drive : PLEXTOR DVDR PX-L890SA Adapter: 3 ID: 1

Read mode : Secure
Utilize accurate stream : Yes
Defeat audio cache : Yes
Make use of C2 pointers : No

Read offset correction : 6
Overread into Lead-In and Lead-Out : No
Fill up missing offset samples with silence : Yes
Delete leading and trailing silent blocks : No
Null samples used in CRC calculations : Yes
Used interface : Native Win32 interface for Win NT & 2000

Used output format : User Defined Encoder
Selected bitrate : 768 kBit/s
Quality : High
Add ID3 tag : No
Command line compressor : C:\Program Files (x86)\Exact Audio Copy\Flac\flac.exe
Additional command line options : -V -8 -T "Date=%year%" -T "Genre=%genre%" %source%


TOC of the extracted CD

Track | Start | Length | Start sector | End sector
––––––––––––––––––––––––––––-
1 | 0:00.00 | 11:53.67 | 0 | 53541
2 | 11:53.67 | 5:03.53 | 53542 | 76319
3 | 16:57.45 | 6:00.32 | 76320 | 103351
4 | 22:58.02 | 5:59.70 | 103352 | 130346
5 | 28:57.72 | 5:27.55 | 130347 | 154926
6 | 34:25.52 | 4:06.33 | 154927 | 173409
7 | 38:32.10 | 4:32.05 | 173410 | 193814
8 | 43:04.15 | 4:40.17 | 193815 | 214831
9 | 47:44.32 | 6:15.38 | 214832 | 242994
10 | 53:59.70 | 3:17.37 | 242995 | 257806
11 | 57:17.32 | 5:57.18 | 257807 | 284599
12 | 63:14.50 | 3:58.20 | 284600 | 302469
13 | 67:12.70 | 4:23.05 | 302470 | 322199


Range status and errors

Selected range

Filename H:\MUSIC\Elton John\1976. Elton John - Here And There (This Record 528 164-2, Germany)\Elton John - Here And There Disc 2.wav

Peak level 98.6 %
Extraction speed 10.0 X
Range quality 100.0 %
Test CRC D2F116FD
Copy CRC D2F116FD
Copy OK

No errors occurred


AccurateRip summary

Track 1 accurately ripped (confidence 11) [715CDEDC] (AR v2)
Track 2 accurately ripped (confidence 11) [72B0C4E6] (AR v2)
Track 3 accurately ripped (confidence 11) [0A17F9A1] (AR v2)
Track 4 accurately ripped (confidence 11) [E1C96EFF] (AR v2)
Track 5 accurately ripped (confidence 11) [FFD440A4] (AR v2)
Track 6 accurately ripped (confidence 11) [77F904EF] (AR v2)
Track 7 accurately ripped (confidence 11) [CA96A31D] (AR v2)
Track 8 accurately ripped (confidence 11) [EBB5A713] (AR v2)
Track 9 accurately ripped (confidence 11) [1C13E50F] (AR v2)
Track 10 accurately ripped (confidence 11) [5142A3C4] (AR v2)
Track 11 accurately ripped (confidence 11) [A167D93D] (AR v2)
Track 12 accurately ripped (confidence 11) [264264B1] (AR v2)
Track 13 accurately ripped (confidence 10) [8B750E41] (AR v2)

All tracks accurately ripped

End of status report

==== Log checksum 2C25483E6FB9636F777F07E2403C747478232C5A3963E209A0A8391024559164 ====


[CUETools log; Date: 12.06.2021 15:39:09; Version: 2.1.4]
[AccurateRip ID: 00264f19-017089f5-bf10c80d] found.
Track [ CRC | V2 ] Status
01 [f56ff54a|715cdedc] (018+026/207) Accurately ripped
02 [04bf9b65|72b0c4e6] (018+026/211) Accurately ripped
03 [c0957dde|0a17f9a1] (018+026/209) Accurately ripped
04 [f539e508|e1c96eff] (018+026/210) Accurately ripped
05 [d8c1ce00|ffd440a4] (018+026/210) Accurately ripped
06 [5fd2d008|77f904ef] (018+026/210) Accurately ripped
07 [2a53a5da|ca96a31d] (018+026/209) Accurately ripped
08 [115dc360|ebb5a713] (018+027/211) Accurately ripped
09 [9dd38736|1c13e50f] (018+027/211) Accurately ripped
10 [2bb1a5ac|5142a3c4] (017+027/209) Accurately ripped
11 [60ac909a|a167d93d] (018+026/210) Accurately ripped
12 [1a1f67fc|264264b1] (018+026/207) Accurately ripped
13 [a122bc5e|8b750e41] (018+025/201) Accurately ripped
Offsetted by -681:
01 [afd1107a] (005/207) Accurately ripped
02 [ab88a360] (005/211) Accurately ripped
03 [19a056e8] (005/209) Accurately ripped
04 [1a5d0c97] (005/210) Accurately ripped
05 [8245e3b6] (005/210) Accurately ripped
06 [ace8af35] (005/210) Accurately ripped
07 [ec781768] (005/209) Accurately ripped
08 [bec81840] (005/211) Accurately ripped
09 [8baa33be] (005/211) Accurately ripped
10 [2a557de4] (005/209) Accurately ripped
11 [e406d0aa] (005/210) Accurately ripped
12 [d7e0fa90] (005/207) Accurately ripped
13 [958e427a] (005/201) Accurately ripped
Offsetted by -657:
01 [3b61dc29] (003/207) Accurately ripped
02 [9e04a763] (004/211) Accurately ripped
03 [a91526a0] (004/209) Accurately ripped
04 [e795f865] (004/210) Accurately ripped
05 [d55f18eb] (004/210) Accurately ripped
06 [b4e451e1] (004/210) Accurately ripped
07 [68cae9ba] (003/209) Accurately ripped
08 [6dd0c94c] (004/211) Accurately ripped
09 [70fbb1bf] (004/211) Accurately ripped
10 [3313e313] (004/209) Accurately ripped
11 [2dfbe48b] (004/210) Accurately ripped
12 [25c6f6e5] (004/207) Accurately ripped
13 [43788805] (003/201) Accurately ripped
Offsetted by -27:
01 [23f675e8] (011/207) Accurately ripped
02 [dfdbcc9b] (011/211) Accurately ripped
03 [b1574ef1] (011/209) Accurately ripped
04 [257b9f50] (011/210) Accurately ripped
05 [11c6b143] (011/210) Accurately ripped
06 [ea491f41] (011/210) Accurately ripped
07 [0fdf6580] (011/209) Accurately ripped
08 [a3bdd241] (011/211) Accurately ripped
09 [829dca96] (011/211) Accurately ripped
10 [df3ac452] (011/209) Accurately ripped
11 [d047fcde] (011/210) Accurately ripped
12 [3bd2f6ce] (011/207) Accurately ripped
13 [97f0ae8e] (011/201) Accurately ripped
Offsetted by -6:
01 [67e464cf] (002/207) Accurately ripped
02 [2fb3b3a5] (002/211) Accurately ripped
03 [816b74ae] (002/209) Accurately ripped
04 [51b33675] (002/210) Accurately ripped
05 [9f6380fb] (002/210) Accurately ripped
06 [aeaa3d78] (002/210) Accurately ripped
07 [df79bcaf] (002/209) Accurately ripped
08 [c0e1b8a0] (002/211) Accurately ripped
09 [ecd8b333] (002/211) Accurately ripped
10 [f54f3018] (002/209) Accurately ripped
11 [ee303ce9] (002/210) Accurately ripped
12 [90aa4190] (002/207) Accurately ripped
13 [01091c4d] (002/201) Accurately ripped
Offsetted by 42:
01 [ebb70435] (003/207) Accurately ripped
02 [ed311c49] (005/211) Accurately ripped
03 [ce75da29] (005/209) Accurately ripped
04 [fe2ee29e] (005/210) Accurately ripped
05 [b2e7107c] (005/210) Accurately ripped
06 [8dca8580] (005/210) Accurately ripped
07 [ad41af23] (005/209) Accurately ripped
08 [a1629fff] (005/211) Accurately ripped
09 [2b27ae2c] (005/211) Accurately ripped
10 [997bb6af] (005/209) Accurately ripped
11 [680b2baa] (005/210) Accurately ripped
12 [269ae38e] (005/207) Accurately ripped
13 [23444347] (005/201) Accurately ripped
Offsetted by 1297:
01 [576255d5] (003/207) Accurately ripped
02 [7ca6f13d] (003/211) Accurately ripped
03 [8e1aab0a] (003/209) Accurately ripped
04 [6b347586] (003/210) Accurately ripped
05 [1d389072] (003/210) Accurately ripped
06 [0d4f8cdf] (003/210) Accurately ripped
07 [e590d4b2] (003/209) Accurately ripped
08 [8f58f55b] (003/211) Accurately ripped
09 [01e77b74] (003/211) Accurately ripped
10 [01499853] (003/209) Accurately ripped
11 [322af982] (003/210) Accurately ripped
12 [ec912d25] (003/207) Accurately ripped
13 [98db6883] (002/201) Accurately ripped
Offsetted by 1706:
01 [eacdfbf9] (008/207) Accurately ripped
02 [1b94ed55] (009/211) Accurately ripped
03 [6804a620] (009/209) Accurately ripped
04 [4c9d6600] (009/210) Accurately ripped
05 [8592fe6f] (009/210) Accurately ripped
06 [5df2af19] (009/210) Accurately ripped
07 [f319dee1] (009/209) Accurately ripped
08 [8117cbd7] (009/211) Accurately ripped
09 [e7d3639b] (009/211) Accurately ripped
10 [88fb95af] (009/209) Accurately ripped
11 [61da65ce] (009/210) Accurately ripped
12 [87f2c57c] (008/207) Accurately ripped
13 [2e9a4296] (008/201) Accurately ripped
Offsetted by -1321:
01 [6d111ecf] (000/207) No match (V2 was not tested)
02 [a117bfc8] (000/211) No match (V2 was not tested)
03 [071e5242] (000/209) No match (V2 was not tested)
04 [d68af719] (000/210) No match (V2 was not tested)
05 [e5bd2c13] (000/210) No match (V2 was not tested)
06 [03f3247e] (000/210) No match (V2 was not tested)
07 [e642d254] (000/209) No match (V2 was not tested)
08 [a6a0297f] (000/211) No match (V2 was not tested)
09 [e7f416be] (000/211) No match (V2 was not tested)
10 [161ca9ce] (000/209) No match (V2 was not tested)
11 [c9886dee] (000/210) No match (V2 was not tested)
12 [3c64fc8a] (000/207) No match (V2 was not tested)
13 [195846fe] (000/201) No match (V2 was not tested)
Offsetted by 693:
01 [43d21bbc] (000/207) No match (V2 was not tested)
02 [f9012aa1] (000/211) No match (V2 was not tested)
03 [d9db8c47] (000/209) No match (V2 was not tested)
04 [856ed26f] (000/210) No match (V2 was not tested)
05 [85b36330] (000/210) No match (V2 was not tested)
06 [83afe2f4] (000/210) No match (V2 was not tested)
07 [b0eeb2a8] (000/209) No match (V2 was not tested)
08 [d9b5fa2b] (000/211) No match (V2 was not tested)
09 [b8ec2eab] (000/211) No match (V2 was not tested)
10 [8ed852c2] (000/209) No match (V2 was not tested)
11 [6cbd31cc] (000/210) No match (V2 was not tested)
12 [dd8073b4] (000/207) No match (V2 was not tested)
13 [772bbacf] (000/201) No match (V2 was not tested)

Track Peak [ CRC32 ] [W/O NULL] [ LOG ]
– 98,6 [D2F116FD] [254D8E31] CRC32
01 98,3 [647C799B] [F3A70F74]
02 97,8 [C4F4A289] [7A057636]
03 98,3 [CED688E6] [5B5626F4]
04 98,4 [963310A8] [B54DDD67]
05 98,2 [4A1C3569] [457544AC]
06 97,8 [55CBF23B] [93FB62E6]
07 98,6 [7FC8CB06] [5AB2E104]
08 97,0 [4C86B10E] [ABC72A00]
09 96,1 [FDA2BF3E] [CC7A2592]
10 98,5 [6289C99F] [26D7F94C]
11 97,5 [C4801F6F] [6C048779]
12 97,7 [8B52284C] [8CFDC89D]
13 98,5 [8E66DC7A] [8A3BF706]


Elton John: Live Albums Collection (1971-2020) [21CD & 6LP]

Tracklist CD07-08. 1976 - Here And There [Rocket 314-528 164-2, USA, Remastered]:

01. Skyline Pigeon [0:05:41.12]
02. Border Song [0:03:27.28]
03. Take Me to the Pilot [0:04:33.65]
04. Country Comfort [0:06:44.62]
05. Elton John feat. Lesley Duncan / Love Song [0:05:03.50]
06. Bad Side of the Moon [0:07:54.30]
07. Burn Down the Mission [0:08:25.48]
08. Honky Cat [0:07:04.25]
09. Crocodile Rock [0:04:08.67]
10. Candle in the Wind [0:03:57.00]
11. Your Song [0:04:07.30]
12. Saturday Night’s Alright (for Fighting) [0:07:09.65]

Exact Audio Copy V1.3 from 2. September 2016

EAC extraction logfile from 28. October 2020, 18:04

Elton John / Here And There (Disc 1) (314-528 164-2)

Used drive : ASUS DRW-24D5MT Adapter: 1 ID: 0

Read mode : Secure
Utilize accurate stream : Yes
Defeat audio cache : Yes
Make use of C2 pointers : No

Read offset correction : 6
Overread into Lead-In and Lead-Out : No
Fill up missing offset samples with silence : Yes
Delete leading and trailing silent blocks : No
Null samples used in CRC calculations : Yes
Used interface : Native Win32 interface for Win NT & 2000

Used output format : User Defined Encoder
Selected bitrate : 768 kBit/s
Quality : High
Add ID3 tag : No
Command line compressor : C:\Program Files (x86)\Exact Audio Copy\Flac\flac.exe
Additional command line options : -V -8 -T "Genre=%genre%" -T "Artist=%artist%" -T "Title=%title%" -T "Album=%albumtitle%" -T "Date=%year%" -T "Tracknumber=%tracknr%" -T "Comment=%comment%" %source%


TOC of the extracted CD

Track | Start | Length | Start sector | End sector
––––––––––––––––––––––––––––-
1 | 0:00.00 | 5:41.12 | 0 | 25586
2 | 5:41.12 | 3:27.28 | 25587 | 41139
3 | 9:08.40 | 4:33.65 | 41140 | 61679
4 | 13:42.30 | 6:44.62 | 61680 | 92041
5 | 20:27.17 | 5:03.50 | 92042 | 114816
6 | 25:30.67 | 7:54.30 | 114817 | 150396
7 | 33:25.22 | 8:25.48 | 150397 | 188319
8 | 41:50.70 | 7:04.25 | 188320 | 220144
9 | 48:55.20 | 4:08.67 | 220145 | 238811
10 | 53:04.12 | 3:57.00 | 238812 | 256586
11 | 57:01.12 | 4:07.30 | 256587 | 275141
12 | 61:08.42 | 7:09.65 | 275142 | 307381


Range status and errors

Selected range

Filename I:\dafnaplus\Elton John - Here And There\Disc 1\Elton John - Here And There (Disc 1) (314-528 164-2).wav

Peak level 100.0 %
Extraction speed 7.6 X
Range quality 100.0 %
Test CRC C77D01BD
Copy CRC C77D01BD
Copy OK

No errors occurred


AccurateRip summary

Track 1 accurately ripped (confidence 8) [0CEDF39F] (AR v2)
Track 2 accurately ripped (confidence 8) [47D28ED4] (AR v2)
Track 3 accurately ripped (confidence 8) [9CA8A487] (AR v2)
Track 4 accurately ripped (confidence 8) [2054D868] (AR v2)
Track 5 accurately ripped (confidence 8) [A08D66F4] (AR v2)
Track 6 accurately ripped (confidence 8) [455FF7A2] (AR v2)
Track 7 accurately ripped (confidence 8) [A9EAC9C4] (AR v2)
Track 8 accurately ripped (confidence 8) [5E57001C] (AR v2)
Track 9 accurately ripped (confidence 8) [D93152F2] (AR v2)
Track 10 accurately ripped (confidence 8) [33C4B661] (AR v2)
Track 11 accurately ripped (confidence 8) [7ADF6858] (AR v2)
Track 12 accurately ripped (confidence 8) [FC3DED38] (AR v2)

All tracks accurately ripped

End of status report

–– CUETools DB Plugin V2.1.6

[CTDB TOCID: Zf0Exy7R6jMJ9BwjDOtyxu8SXhw-] found
Submit result: Zf0Exy7R6jMJ9BwjDOtyxu8SXhw- has been confirmed
Track | CTDB Status
1 | (135/139) Accurately ripped
2 | (135/139) Accurately ripped
3 | (135/139) Accurately ripped
4 | (135/139) Accurately ripped
5 | (134/139) Accurately ripped
6 | (134/139) Accurately ripped
7 | (134/139) Accurately ripped
8 | (135/139) Accurately ripped
9 | (135/139) Accurately ripped
10 | (135/139) Accurately ripped
11 | (135/139) Accurately ripped
12 | (132/139) Accurately ripped


==== Log checksum 8155084923AF06C68029036731B20DF99330A1D427BE341CB58AF51FEFCFD226 ====


[CUETools log; Date: 12.06.2021 15:38:42; Version: 2.1.4]
[AccurateRip ID: 001e1753-011c1bb6-9310020c] found.
Track [ CRC | V2 ] Status
01 [9f43aaf2|0cedf39f] (003+010/115) Accurately ripped
02 [b8642266|47d28ed4] (003+010/116) Accurately ripped
03 [641b52a2|9ca8a487] (003+010/116) Accurately ripped
04 [0b1a46e4|2054d868] (003+010/116) Accurately ripped
05 [6f0a2dbe|a08d66f4] (003+010/116) Accurately ripped
06 [f9136774|455ff7a2] (003+010/116) Accurately ripped
07 [20492f16|a9eac9c4] (003+010/116) Accurately ripped
08 [77ef64b5|5e57001c] (003+010/116) Accurately ripped
09 [9774efcc|d93152f2] (003+010/115) Accurately ripped
10 [4ba0b058|33c4b661] (003+010/115) Accurately ripped
11 [1ec74abe|7adf6858] (003+010/115) Accurately ripped
12 [28c3ca9d|fc3ded38] (003+010/107) Accurately ripped
Offsetted by -2075:
01 [3b92b67d] (012/115) Accurately ripped
02 [67568012] (012/116) Accurately ripped
03 [2502e81b] (012/116) Accurately ripped
04 [f3ffb4ab] (012/116) Accurately ripped
05 [1e94cb0f] (012/116) Accurately ripped
06 [43a67854] (012/116) Accurately ripped
07 [0cf517f3] (012/116) Accurately ripped
08 [da84b09a] (012/116) Accurately ripped
09 [ea2c5b33] (011/115) Accurately ripped
10 [5e19af4a] (012/115) Accurately ripped
11 [1153ac8f] (012/115) Accurately ripped
12 [3c831cc8] (012/107) Accurately ripped
Offsetted by -2017:
01 [eb489464] (002/115) Accurately ripped
02 [e08a34da] (002/116) Accurately ripped
03 [ae3ffc5e] (002/116) Accurately ripped
04 [02e720d9] (002/116) Accurately ripped
05 [8e000810] (002/116) Accurately ripped
06 [3e979d10] (002/116) Accurately ripped
07 [bda458bb] (002/116) Accurately ripped
08 [31b7e584] (002/116) Accurately ripped
09 [824abb2a] (002/115) Accurately ripped
10 [9b526046] (002/115) Accurately ripped
11 [0f198ce8] (002/115) Accurately ripped
12 [2371fc17] (002/107) Accurately ripped
Offsetted by -2012:
01 [f4e2f162] (005/115) Accurately ripped
02 [31f66ce7] (005/116) Accurately ripped
03 [d83014ec] (005/116) Accurately ripped
04 [18147469] (005/116) Accurately ripped
05 [c580eb97] (005/116) Accurately ripped
06 [f3de5894] (005/116) Accurately ripped
07 [b607120d] (005/116) Accurately ripped
08 [e935cee1] (005/116) Accurately ripped
09 [2cba36fd] (005/115) Accurately ripped
10 [ea4468b6] (005/115) Accurately ripped
11 [712269e3] (005/115) Accurately ripped
12 [16337b81] (004/107) Accurately ripped
Offsetted by -675:
01 [e8c77aa7] (010/115) Accurately ripped
02 [c4143898] (011/116) Accurately ripped
03 [62210dbc] (011/116) Accurately ripped
04 [dfeba7dc] (011/116) Accurately ripped
05 [608756a8] (011/116) Accurately ripped
06 [6c376097] (011/116) Accurately ripped
07 [3c614089] (011/116) Accurately ripped
08 [d0230d98] (011/116) Accurately ripped
09 [397e6fdf] (011/115) Accurately ripped
10 [3f938e0e] (011/115) Accurately ripped
11 [0ec065eb] (011/115) Accurately ripped
12 [645e7e7a] (010/107) Accurately ripped

Track Peak [ CRC32 ] [W/O NULL] [ LOG ]
– 100,0 [C77D01BD] [64FD7D97] CRC32
01 61,2 [1AF7570B] [7E723904]
02 79,2 [96775BBF] [BFE8F6BA]
03 94,7 [346A6291] [613950D9]
04 79,2 [86C7B73F] [73A88276]
05 78,4 [278B6044] [8E47432E]
06 79,2 [90923B3D] [8FE5CC26]
07 84,9 [6AEEA649] [651980D4]
08 100,0 [EE658ECE] [51B6347B]
09 99,3 [82C8B759] [4132351D]
10 100,0 [4D0CD8ED] [3C2B16B0]
11 50,7 [D5F28F88] [843EFCE8]
12 99,9 [FBF62F4F] [DD9896CC]


01. Funeral for a Friend / Love Lies Bleeding [0:11:53.67]
02. Rocket Man (I Think It's Going to Be a Long, Long Time) [0:05:03.53]
03. Take Me to the Pilot [0:06:00.32]
04. Bennie and the Jets [0:05:59.70]
05. Grey Seal [0:05:27.55]
06. Daniel [0:04:06.33]
07. You're So Static [0:04:32.05]
08. Elton John feat. John Lennon / Whatever Gets You Through the Night [0:04:40.17]
09. Elton John feat. John Lennon / Lucy in the Sky With Diamonds [0:06:15.38]
10. Elton John feat. John Lennon / I Saw Her Standing There [0:03:17.37]
11. Don't Let the Sun Go Down on Me [0:05:57.18]
12. Your Song [0:03:58.20]
13. The Bitch Is Back [0:04:23.05]

Exact Audio Copy V1.3 from 2. September 2016

EAC extraction logfile from 28. October 2020, 18:30

Elton John / Here And There (Disc 2) (314-528 164-2)

Used drive : ASUS DRW-24D5MT Adapter: 1 ID: 0

Read mode : Secure
Utilize accurate stream : Yes
Defeat audio cache : Yes
Make use of C2 pointers : No

Read offset correction : 6
Overread into Lead-In and Lead-Out : No
Fill up missing offset samples with silence : Yes
Delete leading and trailing silent blocks : No
Null samples used in CRC calculations : Yes
Used interface : Native Win32 interface for Win NT & 2000

Used output format : User Defined Encoder
Selected bitrate : 768 kBit/s
Quality : High
Add ID3 tag : No
Command line compressor : C:\Program Files (x86)\Exact Audio Copy\Flac\flac.exe
Additional command line options : -V -8 -T "Genre=%genre%" -T "Artist=%artist%" -T "Title=%title%" -T "Album=%albumtitle%" -T "Date=%year%" -T "Tracknumber=%tracknr%" -T "Comment=%comment%" %source%


TOC of the extracted CD

Track | Start | Length | Start sector | End sector
––––––––––––––––––––––––––––-
1 | 0:00.00 | 11:53.67 | 0 | 53541
2 | 11:53.67 | 5:03.53 | 53542 | 76319
3 | 16:57.45 | 6:00.32 | 76320 | 103351
4 | 22:58.02 | 5:59.70 | 103352 | 130346
5 | 28:57.72 | 5:27.55 | 130347 | 154926
6 | 34:25.52 | 4:06.33 | 154927 | 173409
7 | 38:32.10 | 4:32.05 | 173410 | 193814
8 | 43:04.15 | 4:40.17 | 193815 | 214831
9 | 47:44.32 | 6:15.38 | 214832 | 242994
10 | 53:59.70 | 3:17.37 | 242995 | 257806
11 | 57:17.32 | 5:57.18 | 257807 | 284599
12 | 63:14.50 | 3:58.20 | 284600 | 302469
13 | 67:12.70 | 4:23.05 | 302470 | 322199


Range status and errors

Selected range

Filename I:\dafnaplus\Elton John - Here And There\Disc 2\Elton John - Here And There (Disc 2) (314-528 164-2).wav

Peak level 98.6 %
Extraction speed 7.7 X
Range quality 100.0 %
Test CRC 79F263C6
Copy CRC 79F263C6
Copy OK

No errors occurred


AccurateRip summary

Track 1 accurately ripped (confidence 19) [CEDD4DEA] (AR v2)
Track 2 accurately ripped (confidence 19) [16DE6CC0] (AR v2)
Track 3 accurately ripped (confidence 19) [4EE5CFBB] (AR v2)
Track 4 accurately ripped (confidence 19) [1C46A43F] (AR v2)
Track 5 accurately ripped (confidence 19) [91E7150C] (AR v2)
Track 6 accurately ripped (confidence 19) [6F36AEAF] (AR v2)
Track 7 accurately ripped (confidence 19) [82ECFD94] (AR v2)
Track 8 accurately ripped (confidence 19) [378D51D0] (AR v2)
Track 9 accurately ripped (confidence 19) [A97BFCC2] (AR v2)
Track 10 accurately ripped (confidence 18) [671611E3] (AR v2)
Track 11 accurately ripped (confidence 19) [1571C592] (AR v2)
Track 12 accurately ripped (confidence 18) [76B26180] (AR v2)
Track 13 accurately ripped (confidence 19) [2CCDB7E1] (AR v2)

All tracks accurately ripped

End of status report

–– CUETools DB Plugin V2.1.6

[CTDB TOCID: mVBvpCHnby6.fAkxBzMx_Y1pA7o-] found
Submit result: mVBvpCHnby6.fAkxBzMx_Y1pA7o- has been confirmed
Track | CTDB Status
1 | (244/271) Accurately ripped
2 | (245/271) Accurately ripped
3 | (245/271) Accurately ripped
4 | (245/271) Accurately ripped
5 | (245/271) Accurately ripped
6 | (244/271) Accurately ripped
7 | (245/271) Accurately ripped
8 | (245/271) Accurately ripped
9 | (244/271) Accurately ripped
10 | (245/271) Accurately ripped
11 | (244/271) Accurately ripped
12 | (244/271) Accurately ripped
13 | (242/271) Accurately ripped


==== Log checksum 66808BF8818C43AAC3B66B96E6F7B6FEEF8DD72C63E934E5E4B9AF458630391D ====


[CUETools log; Date: 12.06.2021 15:38:51; Version: 2.1.4]
[AccurateRip ID: 00264f19-017089f5-bf10c80d] found.
Track [ CRC | V2 ] Status
01 [ff75ccb0|cedd4dea] (000+023/207) Accurately ripped
02 [ad53f49c|16de6cc0] (000+023/211) Accurately ripped
03 [0bee8a8a|4ee5cfbb] (000+023/209) Accurately ripped
04 [39993be7|1c46a43f] (000+023/210) Accurately ripped
05 [355c5be3|91e7150c] (000+023/210) Accurately ripped
06 [45e1430e|6f36aeaf] (000+023/210) Accurately ripped
07 [14d26278|82ecfd94] (000+023/209) Accurately ripped
08 [80fbaa77|378d51d0] (000+023/211) Accurately ripped
09 [4bdf6aa3|a97bfcc2] (000+023/211) Accurately ripped
10 [42c44864|671611e3] (000+022/209) Accurately ripped
11 [c385607b|1571c592] (000+023/210) Accurately ripped
12 [59af76fe|76b26180] (000+022/207) Accurately ripped
13 [717f2161|2ccdb7e1] (000+023/201) Accurately ripped

Track Peak [ CRC32 ] [W/O NULL] [ LOG ]
– 98,6 [79F263C6] [6192692E] CRC32
01 98,3 [93D72209] [BB4702CD]
02 97,8 [FFBE5443] [3C076855]
03 98,3 [5B5BDA7F] [BC6331C2]
04 98,4 [D8D00BC2] [ECF82477]
05 98,2 [D12E352D] [42553EFC]
06 97,8 [A054690B] [0217A0E4]
07 98,6 [2B235C0F] [257437D8]
08 97,0 [4B8B5EB2] [58351020]
09 96,1 [26A363BF] [386C11CC]
10 98,5 [9F5BE4B2] [22DBCEC6]
11 97,5 [A3D7C8AA] [39AFCBF9]
12 97,7 [BAD2FFBB] [AFECA656]
13 98,5 [8D204EEE] [8B541B65]


Elton John: Live Albums Collection (1971-2020) [21CD & 6LP]

Tracklist CD09. 1987 - Live In Australia [MCA MCAD-8022, USA, PMDC]:

01. Sixty Years On [0:05:40.48]
02. I Need You To Turn To [0:02:48.27]
03. The Greatest Discovery [0:04:27.45]
04. Tonight [0:08:04.05]
05. Sorry Seems To Be The Hardest Word [0:03:50.18]
06. The King Must Die [0:05:30.40]
07. Take Me To The Pilot [0:04:19.62]
08. Tiny Dancer [0:06:26.48]
09. Have Mercy On The Criminal [0:06:09.02]
10. Madman Across The Water [0:06:38.35]
11. Candle In The Wind [0:04:00.05]
12. Burn Down The Mission [0:05:49.65]
13. Your Song [0:04:04.70]
14. Don't Let The Sun Go Down On Me [0:06:04.68]

Exact Audio Copy V1.3 from 2. September 2016

EAC extraction logfile from 2. May 2018, 10:52

Elton John / Live In Australia

Used drive : PLEXTOR DVDR PX-L890SA Adapter: 1 ID: 0

Read mode : Secure
Utilize accurate stream : Yes
Defeat audio cache : Yes
Make use of C2 pointers : No

Read offset correction : 6
Overread into Lead-In and Lead-Out : No
Fill up missing offset samples with silence : Yes
Delete leading and trailing silent blocks : No
Null samples used in CRC calculations : Yes
Used interface : Native Win32 interface for Win NT & 2000

Used output format : User Defined Encoder
Selected bitrate : 1024 kBit/s
Quality : High
Add ID3 tag : No
Command line compressor : C:\Program Files (x86)\Exact Audio Copy\Flac\flac.exe
Additional command line options : -V -8 -T "Date=%year%" -T "Genre=%genre%" %source%


TOC of the extracted CD

Track | Start | Length | Start sector | End sector
––––––––––––––––––––––––––––-
1 | 0:00.32 | 5:40.48 | 32 | 25579
2 | 5:41.05 | 2:48.27 | 25580 | 38206
3 | 8:29.32 | 4:27.45 | 38207 | 58276
4 | 12:57.02 | 8:04.05 | 58277 | 94581
5 | 21:01.07 | 3:50.18 | 94582 | 111849
6 | 24:51.25 | 5:30.40 | 111850 | 136639
7 | 30:21.65 | 4:19.62 | 136640 | 156126
8 | 34:41.52 | 6:26.48 | 156127 | 185124
9 | 41:08.25 | 6:09.02 | 185125 | 212801
10 | 47:17.27 | 6:38.35 | 212802 | 242686
11 | 53:55.62 | 4:00.05 | 242687 | 260691
12 | 57:55.67 | 5:49.65 | 260692 | 286931
13 | 63:45.57 | 4:04.70 | 286932 | 305301
14 | 67:50.52 | 6:04.68 | 305302 | 332669


Range status and errors

Selected range

Filename H:\AUDIO\MUSIC\1987. Elton John - Live in Australia (MCAD 8022, USA)\Elton John - Live In Australia.wav

Peak level 100.0 %
Extraction speed 10.2 X
Range quality 100.0 %
Test CRC A6F3B70F
Copy CRC A6F3B70F
Copy OK

No errors occurred


AccurateRip summary

Track 1 accurately ripped (confidence 3) [BE758C44] (AR v2)
Track 2 accurately ripped (confidence 3) [5A4B2AF2] (AR v2)
Track 3 accurately ripped (confidence 3) [FB289E35] (AR v2)
Track 4 accurately ripped (confidence 2) [7679A186] (AR v2)
Track 5 accurately ripped (confidence 3) [1EDEDBBE] (AR v2)
Track 6 accurately ripped (confidence 3) [AB6FE2E6] (AR v2)
Track 7 accurately ripped (confidence 3) [5D25A251] (AR v2)
Track 8 accurately ripped (confidence 2) [F881D4A0] (AR v2)
Track 9 accurately ripped (confidence 3) [9509F3C3] (AR v2)
Track 10 accurately ripped (confidence 3) [B656B82F] (AR v2)
Track 11 accurately ripped (confidence 3) [54A6B25B] (AR v2)
Track 12 accurately ripped (confidence 2) [5BDBC2EF] (AR v2)
Track 13 accurately ripped (confidence 3) [812B281C] (AR v2)
Track 14 accurately ripped (confidence 3) [69604108] (AR v2)

All tracks accurately ripped

End of status report

==== Log checksum 483FAB232955302C7149EE082CC1169D1CBA124BE61FF8D43422D4F1FBA2767A ====


[CUETools log; Date: 12.06.2021 15:39:19; Version: 2.1.4]
Pregap length 00:00:32.
[AccurateRip ID: 00255891-0191d66b-ca11530e] found.
Track [ CRC | V2 ] Status
01 [1a8fbcec|be758c44] (04+03/77) Accurately ripped
02 [6b04768a|5a4b2af2] (04+03/79) Accurately ripped
03 [1f56baa8|fb289e35] (04+03/77) Accurately ripped
04 [64ccf10e|7679a186] (04+02/72) Accurately ripped
05 [c4dedec1|1ededbbe] (04+03/78) Accurately ripped
06 [5d91da59|ab6fe2e6] (04+03/78) Accurately ripped
07 [1ccf570f|5d25a251] (04+03/77) Accurately ripped
08 [7dcac1b0|f881d4a0] (04+02/77) Accurately ripped
09 [9047a9c0|9509f3c3] (04+03/77) Accurately ripped
10 [bdb5134c|b656b82f] (04+03/78) Accurately ripped
11 [fb09584b|54a6b25b] (04+03/78) Accurately ripped
12 [5c5615b9|5bdbc2ef] (04+02/73) Accurately ripped
13 [e6ae3eca|812b281c] (04+03/76) Accurately ripped
14 [9c3178c9|69604108] (04+03/70) Accurately ripped
Offsetted by 2603:
01 [87837666] (18/77) Accurately ripped
02 [eed90f54] (19/79) Accurately ripped
03 [1a055320] (19/77) Accurately ripped
04 [d44749a6] (18/72) Accurately ripped
05 [e9244980] (19/78) Accurately ripped
06 [3a5f4dcc] (19/78) Accurately ripped
07 [afe5615b] (18/77) Accurately ripped
08 [aa81eec7] (19/77) Accurately ripped
09 [9646eb88] (18/77) Accurately ripped
10 [0e715104] (18/78) Accurately ripped
11 [56b9316a] (18/78) Accurately ripped
12 [2336b9e9] (17/73) Accurately ripped
13 [725d627e] (17/76) Accurately ripped
14 [af85a0a8] (14/70) Accurately ripped
Offsetted by 2306:
01 [008e3372] (02/77) Accurately ripped
02 [ac668ceb] (02/79) Accurately ripped
03 [1314b553] (02/77) Accurately ripped
04 [e93f773b] (02/72) Accurately ripped
05 [0c6263d8] (02/78) Accurately ripped
06 [52d8e3cf] (02/78) Accurately ripped
07 [cab7fd7d] (02/77) Accurately ripped
08 [57847d04] (02/77) Accurately ripped
09 [46114e24] (02/77) Accurately ripped
10 [8be40ccd] (02/78) Accurately ripped
11 [df25e387] (02/78) Accurately ripped
12 [b8202b6f] (02/73) Accurately ripped
13 [2bebea89] (02/76) Accurately ripped
14 [3e692fd6] (00/70) No match (V2 was not tested)

Track Peak [ CRC32 ] [W/O NULL] [ LOG ]
– 100,0 [A6F3B70F] [2C6786DE] CRC32
01 100,0 [ED741CF2] [9ECE37FC]
02 51,7 [0F810B49] [1F1B48F0]
03 46,1 [07991B64] [7A405F92]
04 99,2 [2A6DB4E4] [32EE599D]
05 61,5 [2AE22527] [3DD93AA3]
06 100,0 [FEC39552] [D9A1F0F2]
07 100,0 [4F334F3F] [78C73374]
08 100,0 [E431E9E2] [6ABD7F81]
09 100,0 [616AEBFD] [7EFDE19B]
10 100,0 [2904DAB4] [18DD37A7]
11 61,4 [AFF3806D] [3885F4C8]
12 99,8 [AE979090] [8E53BD8E]
13 93,7 [6D3AB4CD] [8B61DE30]
14 100,0 [00F90802] [F2F76E64]


Elton John: Live Albums Collection (1971-2020) [21CD & 6LP]

Tracklist CD10. 1987 - Live In Australia [MCA MCAD-8022, USA, UNI]:

01. Sixty Years On [0:05:40.45]
02. I Need You to Turn To [0:02:48.25]
03. The Greatest Discovery [0:04:27.22]
04. Tonight [0:08:04.16]
05. Sorry Seems to Be the Hardest Word [0:03:50.32]
06. The King Must Die [0:05:30.38]
07. Take Me to the Pilot [0:04:19.62]
08. Tiny Dancer [0:06:26.48]
09. Have Mercy on the Criminal [0:06:09.05]
10. Madman Across the Water [0:06:38.35]
11. Candle in the Wind [0:04:00.05]
12. Burn Down the Mission [0:05:49.65]
13. Your Song [0:04:04.70]
14. Don’t Let the Sun Go Down on Me [0:06:07.12]

Exact Audio Copy V1.3 from 2. September 2016

EAC extraction logfile from 23. May 2018, 22:24

Elton John / Live In Australia (MCAD-8022)

Used drive : PLEXTOR DVDR PX-891SA Adapter: 1 ID: 0

Read mode : Secure
Utilize accurate stream : Yes
Defeat audio cache : Yes
Make use of C2 pointers : No

Read offset correction : 6
Overread into Lead-In and Lead-Out : No
Fill up missing offset samples with silence : Yes
Delete leading and trailing silent blocks : No
Null samples used in CRC calculations : Yes
Used interface : Native Win32 interface for Win NT & 2000

Used output format : User Defined Encoder
Selected bitrate : 768 kBit/s
Quality : High
Add ID3 tag : No
Command line compressor : C:\Program Files (x86)\Exact Audio Copy\Flac\flac.exe
Additional command line options : -V -8 -T "Genre=%genre%" -T "Artist=%artist%" -T "Title=%title%" -T "Album=%albumtitle%" -T "Date=%year%" -T "Tracknumber=%tracknr%" -T "Comment=%comment%" %source%


TOC of the extracted CD

Track | Start | Length | Start sector | End sector
––––––––––––––––––––––––––––-
1 | 0:00.00 | 5:40.45 | 0 | 25544
2 | 5:40.45 | 2:48.25 | 25545 | 38169
3 | 8:28.70 | 4:27.22 | 38170 | 58216
4 | 12:56.17 | 8:04.16 | 58217 | 94532
5 | 21:00.33 | 3:50.32 | 94533 | 111814
6 | 24:50.65 | 5:30.38 | 111815 | 136602
7 | 30:21.28 | 4:19.62 | 136603 | 156089
8 | 34:41.15 | 6:26.48 | 156090 | 185087
9 | 41:07.63 | 6:09.05 | 185088 | 212767
10 | 47:16.68 | 6:38.35 | 212768 | 242652
11 | 53:55.28 | 4:00.05 | 242653 | 260657
12 | 57:55.33 | 5:49.65 | 260658 | 286897
13 | 63:45.23 | 4:04.70 | 286898 | 305267
14 | 67:50.18 | 6:07.12 | 305268 | 332804


Range status and errors

Selected range

Filename H:\dafnaplus\Elton John - Live In Australia\Elton John - Live In Australia (MCAD-8022).wav

Peak level 100.0 %
Extraction speed 8.0 X
Range quality 99.9 %
Test CRC D95E8101
Copy CRC D95E8101
Copy OK

No errors occurred


AccurateRip summary

Track 1 accurately ripped (confidence 8) [0B8AE7A7] (AR v2)
Track 2 accurately ripped (confidence 8) [DA302EB3] (AR v2)
Track 3 accurately ripped (confidence 8) [49930BB7] (AR v2)
Track 4 accurately ripped (confidence 8) [C1BF8F00] (AR v2)
Track 5 accurately ripped (confidence 8) [55872D5D] (AR v2)
Track 6 accurately ripped (confidence 8) [CF826E98] (AR v2)
Track 7 accurately ripped (confidence 8) [9D5E1A35] (AR v2)
Track 8 accurately ripped (confidence 9) [2BEB0604] (AR v2)
Track 9 accurately ripped (confidence 9) [F6D584FB] (AR v2)
Track 10 accurately ripped (confidence 8) [1560D42F] (AR v2)
Track 11 accurately ripped (confidence 8) [997598CB] (AR v2)
Track 12 accurately ripped (confidence 8) [A7688136] (AR v2)
Track 13 accurately ripped (confidence 8) [2A4E5DF8] (AR v2)
Track 14 accurately ripped (confidence 8) [8B7CF458] (AR v2)

All tracks accurately ripped

End of status report

–– CUETools DB Plugin V2.1.6

[CTDB TOCID: Mh.ZjEpwzN3l30utRJLpmqxxxPw-] found
Submit result: Mh.ZjEpwzN3l30utRJLpmqxxxPw- has been confirmed
Track | CTDB Status
1 | (14/15) Accurately ripped
2 | (15/15) Accurately ripped
3 | (14/15) Accurately ripped
4 | (14/15) Accurately ripped, or (1/15) differs in 36 samples @00:28:65-00:28:66
5 | (15/15) Accurately ripped
6 | (15/15) Accurately ripped
7 | (15/15) Accurately ripped
8 | (14/15) Accurately ripped
9 | (15/15) Accurately ripped
10 | (13/15) Accurately ripped
11 | (14/15) Accurately ripped
12 | (15/15) Accurately ripped
13 | (15/15) Accurately ripped
14 | (15/15) Accurately ripped


==== Log checksum D81F095F2700FA53BBF566BF3546AFAADC54FBBAA3DAEB737DB301A212B79472 ====


[CUETools log; Date: 12.06.2021 15:39:29; Version: 2.1.4]
[AccurateRip ID: 00255707-0191cf59-cc11550e] found.
Track [ CRC | V2 ] Status
01 [1d042a6e|0b8ae7a7] (06+11/17) Accurately ripped
02 [3e95e038|da302eb3] (06+11/17) Accurately ripped
03 [05e29574|49930bb7] (06+11/17) Accurately ripped
04 [54ed7ab9|c1bf8f00] (06+11/17) Accurately ripped
05 [941ab3e9|55872d5d] (06+11/17) Accurately ripped
06 [9dd712c2|cf826e98] (06+11/17) Accurately ripped
07 [8615303f|9d5e1a35] (06+11/17) Accurately ripped
08 [321dddd4|2beb0604] (06+12/18) Accurately ripped
09 [35a8b539|f6d584fb] (06+11/17) Accurately ripped
10 [eff5d3e6|1560d42f] (06+10/16) Accurately ripped
11 [112724d5|997598cb] (06+10/16) Accurately ripped
12 [154fc97a|a7688136] (06+10/16) Accurately ripped
13 [786af485|2a4e5df8] (06+10/16) Accurately ripped
14 [9c3e0170|8b7cf458] (06+10/16) Accurately ripped

Track Peak [ CRC32 ] [W/O NULL] [ LOG ]
– 100,0 [D95E8101] [D3C540B8] CRC32
01 100,0 [16A8B259] [36C4DEDE]
02 51,7 [BCBBF799] [6CBDAD6B]
03 46,1 [7C33566C] [4CFFB29E]
04 99,2 [A13BAA98] [FF5E62BD]
05 61,5 [E986D530] [0F0982E8]
06 100,0 [DA45CC7A] [FC341242]
07 100,0 [630F5682] [018806DA]
08 100,0 [79C7DCEE] [C5F79937]
09 100,0 [52BE25B3] [1D8B2A57]
10 100,0 [F8BD6EC6] [C88FE40B]
11 61,4 [8DFB299E] [A02AD2FC]
12 99,8 [A1225F06] [9D8C7ECC]
13 93,7 [7E3FAD94] [83978300]
14 100,0 [15D012F4] [E53274E2]


Elton John: Live Albums Collection (1971-2020) [21CD & 6LP]

Tracklist CD11. 1987 - Live in Australia [Mercury 558 477-2, Germany, Remastered]:

01. Sixty Years On [0:05:41.10]
02. I Need You to Turn To [0:03:14.17]
03. The Greatest Discovery [0:04:09.28]
04. Tonight [0:07:44.60]
05. Sorry Seems to Be the Hardest Word [0:03:58.42]
06. The King Must Die [0:05:21.53]
07. Take Me to the Pilot [0:04:22.20]
08. Tiny Dancer [0:06:36.55]
09. Have Mercy on the Criminal [0:05:50.32]
10. Madman Across the Water [0:06:38.33]
11. Candle in the Wind [0:04:10.22]
12. Burn Down the Mission [0:05:49.68]
13. Your Song [0:04:04.70]
14. Don't Let the Sun Go Down on Me [0:06:03.32]

Exact Audio Copy V1.0 beta 3 from 29. August 2011

EAC extraction logfile from 10. January 2015, 17:35

Elton John / Live in Australia (86.12.14, with The Melbourne Symphony Orchestra)

Used drive : PLEXTOR DVDR PX-L890SA Adapter: 2 ID: 1

Read mode : Secure
Utilize accurate stream : Yes
Defeat audio cache : Yes
Make use of C2 pointers : No

Read offset correction : 6
Overread into Lead-In and Lead-Out : No
Fill up missing offset samples with silence : Yes
Delete leading and trailing silent blocks : No
Null samples used in CRC calculations : Yes
Used interface : Native Win32 interface for Win NT & 2000

Used output format : User Defined Encoder
Selected bitrate : 768 kBit/s
Quality : High
Add ID3 tag : No
Command line compressor : G:\Program Files\Exact Audio Copy\FLAC\FLAC.EXE
Additional command line options : -V -8 -T "Date=%year%" -T "Genre=%genre%" %source%


TOC of the extracted CD

Track | Start | Length | Start sector | End sector
––––––––––––––––––––––––––––-
1 | 0:00.00 | 5:41.10 | 0 | 25584
2 | 5:41.10 | 3:14.17 | 25585 | 40151
3 | 8:55.27 | 4:09.28 | 40152 | 58854
4 | 13:04.55 | 7:44.60 | 58855 | 93714
5 | 20:49.40 | 3:58.42 | 93715 | 111606
6 | 24:48.07 | 5:21.53 | 111607 | 135734
7 | 30:09.60 | 4:22.20 | 135735 | 155404
8 | 34:32.05 | 6:36.55 | 155405 | 185159
9 | 41:08.60 | 5:50.32 | 185160 | 211441
10 | 46:59.17 | 6:38.33 | 211442 | 241324
11 | 53:37.50 | 4:10.22 | 241325 | 260096
12 | 57:47.72 | 5:49.68 | 260097 | 286339
13 | 63:37.65 | 4:04.70 | 286340 | 304709
14 | 67:42.60 | 6:03.32 | 304710 | 331966


Range status and errors

Selected range

Filename H:\MUSIC\Elton John\1986. Elton John - Live in Australia (Mercury 558 477-2, Germany)\Elton John - Live in Australia.wav

Peak level 99.7 %
Extraction speed 6.7 X
Range quality 99.9 %
Test CRC 9ED97DEA
Copy CRC 9ED97DEA
Copy OK

No errors occurred


AccurateRip summary

Track 1 accurately ripped (confidence 18) [1487860B] (AR v2)
Track 2 accurately ripped (confidence 18) [EF6A1159] (AR v2)
Track 3 accurately ripped (confidence 18) [6C2A3869] (AR v2)
Track 4 accurately ripped (confidence 18) [085124A1] (AR v2)
Track 5 accurately ripped (confidence 18) [183EB153] (AR v2)
Track 6 accurately ripped (confidence 18) [35BF7F7A] (AR v2)
Track 7 accurately ripped (confidence 18) [DB6130A4] (AR v2)
Track 8 accurately ripped (confidence 18) [6ACDA4AA] (AR v2)
Track 9 accurately ripped (confidence 18) [10DDD4FA] (AR v2)
Track 10 accurately ripped (confidence 18) [EBDB2D57] (AR v2)
Track 11 accurately ripped (confidence 18) [F9FE7D86] (AR v2)
Track 12 accurately ripped (confidence 18) [AAF6C9AD] (AR v2)
Track 13 accurately ripped (confidence 18) [A56BB610] (AR v2)
Track 14 accurately ripped (confidence 18) [C439B69C] (AR v2)

All tracks accurately ripped

End of status report

==== Log checksum BC48F896C67C5697DA85ABC939660F4C1A4425BBCD17EC4FF5C52F9505FF169C ====


[CUETools log; Date: 12.06.2021 15:39:39; Version: 2.1.4]
[AccurateRip ID: 0025436f-0190be49-c1114a0e] found.
Track [ CRC | V2 ] Status
01 [105074ef|1487860b] (007+031/168) Accurately ripped
02 [13016804|ef6a1159] (008+031/168) Accurately ripped
03 [301c7027|6c2a3869] (008+031/168) Accurately ripped
04 [6ce5b65f|085124a1] (008+031/167) Accurately ripped
05 [470f1d2e|183eb153] (007+031/165) Accurately ripped
06 [22fe8732|35bf7f7a] (007+031/167) Accurately ripped
07 [33394792|db6130a4] (007+031/167) Accurately ripped
08 [9cde210d|6acda4aa] (007+031/167) Accurately ripped
09 [15937dd2|10ddd4fa] (007+031/166) Accurately ripped
10 [ce4c2750|ebdb2d57] (007+031/166) Accurately ripped
11 [be0f2b9e|f9fe7d86] (007+031/166) Accurately ripped
12 [d1991de4|aaf6c9ad] (007+031/163) Accurately ripped
13 [7f7b234f|a56bb610] (007+031/163) Accurately ripped
14 [a03e6ad7|c439b69c] (007+031/164) Accurately ripped
Offsetted by 667:
01 [bc32e3cf] (006/168) Accurately ripped
02 [63b9bf26] (005/168) Accurately ripped
03 [ab774ae7] (006/168) Accurately ripped
04 [97edbe89] (006/167) Accurately ripped
05 [b8e51487] (006/165) Accurately ripped
06 [40553ea7] (006/167) Accurately ripped
07 [b05305b3] (007/167) Accurately ripped
08 [5ce72b38] (007/167) Accurately ripped
09 [64256f25] (006/166) Accurately ripped
10 [0ae105fb] (006/166) Accurately ripped
11 [b4fb310f] (007/166) Accurately ripped
12 [7388e7f0] (006/163) Accurately ripped
13 [fdf2eb1c] (007/163) Accurately ripped
14 [1c0221c2] (007/164) Accurately ripped
Offsetted by 1331:
01 [e3cb5d7f] (018/168) Accurately ripped
02 [399c48c5] (018/168) Accurately ripped
03 [58f8a7fb] (017/168) Accurately ripped
04 [bc76c922] (017/167) Accurately ripped
05 [1546d238] (017/165) Accurately ripped
06 [3e0a5eb1] (018/167) Accurately ripped
07 [b4ac250c] (017/167) Accurately ripped
08 [6c3707c1] (017/167) Accurately ripped
09 [1f9bb0ed] (016/166) Accurately ripped
10 [0578b807] (017/166) Accurately ripped
11 [c0df6af4] (018/166) Accurately ripped
12 [5e4756fb] (017/163) Accurately ripped
13 [0f68d83c] (017/163) Accurately ripped
14 [61352e6c] (017/164) Accurately ripped

Track Peak [ CRC32 ] [W/O NULL] [ LOG ]
– 99,7 [9ED97DEA] [5ED3C151] CRC32
01 99,7 [A0EA7161] [D0B93149]
02 61,9 [EAD7F84C] [B7EB3DD7]
03 83,9 [844AAF07] [D420DE12]
04 87,7 [BBB0C112] [4AA65E60]
05 73,3 [A706A335] [C83EB3F6]
06 96,1 [84090BD8] [5926947C]
07 97,4 [80F88652] [20064021]
08 95,8 [63EA2EC6] [678DEBEC]
09 94,5 [AFE7B150] [DC0EF03B]
10 95,9 [6C709465] [24CA49C2]
11 64,8 [2D16914A] [A518746F]
12 97,0 [88F5E453] [971E9DFE]
13 78,8 [D3D7D55A] [D2A2701C]
14 99,1 [289A0C12] [BE7780C6]


Elton John: Live Albums Collection (1971-2020) [21CD & 6LP]

Tracklist CD12. 2000 - One Night Only [Mercury 548 334-2, Germany]:

01. Goodbye Yellow Brick Road [0:03:18.57]
02. Philadelphia Freedom [0:05:21.73]
03. Don't Go Breaking My Heart (Elton John with Kiki Dee) [0:04:19.25]
04. Rocket Man [0:05:43.25]
05. Daniel [0:03:50.47]
06. Crocodile Rock [0:04:13.15]
07. Sacrifice [0:05:20.30]
08. Can You Feel The Love Tonight? [0:03:59.68]
09. Bennie & The Jets [0:05:02.50]
10. Your Song (Elton John with Ronan Keating) [0:04:17.52]
11. Sad Songs (Say So Much) (Elton John with Bryan Adams) [0:03:54.55]
12. Candle In The Wind [0:03:45.10]
13. The Bitch Is Back [0:04:12.65]
14. Saturday Night's Alright (For Fighting) (Elton John with Anastacia) [0:04:38.65]
15. I'm Still Standing [0:03:04.20]
16. Don't Let The Sun Go Down On Me [0:05:59.28]
17. I Guess That's Why They Call It The Blues (Elton John with Mary J. Blige) [0:05:10.32]

Exact Audio Copy V1.0 beta 3 from 29. August 2011

EAC extraction logfile from 31. January 2015, 19:00

Elton John / One Night Only

Used drive : PLEXTOR DVDR PX-L890SA Adapter: 2 ID: 1

Read mode : Secure
Utilize accurate stream : Yes
Defeat audio cache : Yes
Make use of C2 pointers : No

Read offset correction : 6
Overread into Lead-In and Lead-Out : No
Fill up missing offset samples with silence : Yes
Delete leading and trailing silent blocks : No
Null samples used in CRC calculations : Yes
Used interface : Native Win32 interface for Win NT & 2000

Used output format : User Defined Encoder
Selected bitrate : 768 kBit/s
Quality : High
Add ID3 tag : No
Command line compressor : G:\Program Files\Exact Audio Copy\FLAC\FLAC.EXE
Additional command line options : -V -8 -T "Date=%year%" -T "Genre=%genre%" %source%


TOC of the extracted CD

Track | Start | Length | Start sector | End sector
––––––––––––––––––––––––––––-
1 | 0:00.00 | 3:18.57 | 0 | 14906
2 | 3:18.57 | 5:21.73 | 14907 | 39054
3 | 8:40.55 | 4:19.25 | 39055 | 58504
4 | 13:00.05 | 5:43.25 | 58505 | 84254
5 | 18:43.30 | 3:50.47 | 84255 | 101551
6 | 22:34.02 | 4:13.15 | 101552 | 120541
7 | 26:47.17 | 5:20.30 | 120542 | 144571
8 | 32:07.47 | 3:59.68 | 144572 | 162564
9 | 36:07.40 | 5:02.50 | 162565 | 185264
10 | 41:10.15 | 4:17.52 | 185265 | 204591
11 | 45:27.67 | 3:54.55 | 204592 | 222196
12 | 49:22.47 | 3:45.10 | 222197 | 239081
13 | 53:07.57 | 4:12.65 | 239082 | 258046
14 | 57:20.47 | 4:38.65 | 258047 | 278961
15 | 61:59.37 | 3:04.20 | 278962 | 292781
16 | 65:03.57 | 5:59.28 | 292782 | 319734
17 | 71:03.10 | 5:10.32 | 319735 | 343016


Range status and errors

Selected range

Filename H:\MUSIC\Elton John\2000. Elton John - One Night Only (Mercury 548 334-2, Germany)\Elton John - One Night Only.wav

Peak level 100.0 %
Extraction speed 6.7 X
Range quality 100.0 %
Test CRC C43B0D8F
Copy CRC C43B0D8F
Copy OK

No errors occurred


AccurateRip summary

Track 1 accurately ripped (confidence 2) [E2FE7210] (AR v2)
Track 2 accurately ripped (confidence 2) [CC27A8E8] (AR v2)
Track 3 accurately ripped (confidence 2) [C725FB9A] (AR v2)
Track 4 accurately ripped (confidence 2) [FF85E2DB] (AR v2)
Track 5 accurately ripped (confidence 2) [953DB954] (AR v2)
Track 6 accurately ripped (confidence 2) [E80F01BC] (AR v2)
Track 7 accurately ripped (confidence 2) [CF784747] (AR v2)
Track 8 accurately ripped (confidence 2) [347B3730] (AR v2)
Track 9 accurately ripped (confidence 2) [00CB95BF] (AR v2)
Track 10 accurately ripped (confidence 2) [2135CB93] (AR v2)
Track 11 accurately ripped (confidence 2) [7CCE17EB] (AR v2)
Track 12 accurately ripped (confidence 2) [E3995D44] (AR v2)
Track 13 accurately ripped (confidence 2) [B2EE3491] (AR v2)
Track 14 accurately ripped (confidence 2) [431CDC66] (AR v2)
Track 15 accurately ripped (confidence 2) [F78E1DD6] (AR v2)
Track 16 accurately ripped (confidence 2) [385349D9] (AR v2)
Track 17 accurately ripped (confidence 2) [0D483A50] (AR v2)

All tracks accurately ripped

End of status report

==== Log checksum B7894561101ABCE6FA703646E9E8B09DC3C196FA4D373B79B7BE531635D9AD76 ====


[CUETools log; Date: 12.06.2021 15:41:03; Version: 2.1.4]
[AccurateRip ID: 002ed6c0-0250b683-f611dd11] found.
Track [ CRC | V2 ] Status
01 [3aa5cdd1|e2fe7210] (000+003/307) Accurately ripped
02 [a27500d0|cc27a8e8] (000+003/302) Accurately ripped
03 [b0aa04e5|c725fb9a] (000+003/306) Accurately ripped
04 [c0955353|ff85e2db] (000+003/304) Accurately ripped
05 [75ab1288|953db954] (000+003/307) Accurately ripped
06 [a6bab453|e80f01bc] (000+003/305) Accurately ripped
07 [8bf0902f|cf784747] (000+003/305) Accurately ripped
08 [0adf65b4|347b3730] (000+003/304) Accurately ripped
09 [b7a8e7b2|00cb95bf] (000+003/304) Accurately ripped
10 [1e0b3cd2|2135cb93] (000+003/304) Accurately ripped
11 [766a0c3b|7cce17eb] (000+003/300) Accurately ripped
12 [67971008|e3995d44] (000+003/304) Accurately ripped
13 [a4a62b1f|b2ee3491] (000+003/300) Accurately ripped
14 [ee18bc27|431cdc66] (000+003/295) Accurately ripped
15 [0905b19c|f78e1dd6] (000+003/298) Accurately ripped
16 [7bbe1457|385349d9] (000+003/290) Accurately ripped
17 [0df9ed53|0d483a50] (000+003/281) Accurately ripped
Offsetted by 667:
01 [04a99fb4] (008/307) Accurately ripped
02 [98602679] (008/302) Accurately ripped
03 [77d07147] (008/306) Accurately ripped
04 [8fcc5bc0] (008/304) Accurately ripped
05 [1b354f05] (008/307) Accurately ripped
06 [63181759] (008/305) Accurately ripped
07 [03f7fb44] (008/305) Accurately ripped
08 [83832ae4] (008/304) Accurately ripped
09 [76f6f2b3] (008/304) Accurately ripped
10 [a73f946e] (008/304) Accurately ripped
11 [cde1bbb6] (008/300) Accurately ripped
12 [3ed1d94b] (008/304) Accurately ripped
13 [83f89387] (008/300) Accurately ripped
14 [44f5e4d9] (008/295) Accurately ripped
15 [22d21013] (008/298) Accurately ripped
16 [0dbfb19a] (008/290) Accurately ripped
17 [e9c3ce09] (008/281) Accurately ripped
Offsetted by 677:
01 [6f6fc30f] (040/307) Accurately ripped
02 [b6f68c29] (040/302) Accurately ripped
03 [9215dc5f] (041/306) Accurately ripped
04 [e4354dd2] (041/304) Accurately ripped
05 [b56a2060] (040/307) Accurately ripped
06 [346156c8] (040/305) Accurately ripped
07 [c23485dd] (041/305) Accurately ripped
08 [46cb2314] (039/304) Accurately ripped
09 [f5be1ea4] (039/304) Accurately ripped
10 [72f74c88] (040/304) Accurately ripped
11 [62bd5b9c] (038/300) Accurately ripped
12 [749674a1] (039/304) Accurately ripped
13 [807b6dde] (039/300) Accurately ripped
14 [b4beca74] (035/295) Accurately ripped
15 [1b5906af] (038/298) Accurately ripped
16 [e419619c] (037/290) Accurately ripped
17 [e8cce682] (033/281) Accurately ripped
Offsetted by 548:
01 [01256ab2] (000/307) No match (V2 was not tested)
02 [0ea4b998] (000/302) No match (V2 was not tested)
03 [a513a7d5] (000/306) No match (V2 was not tested)
04 [0a2f75c3] (000/304) No match (V2 was not tested)
05 [d4367762] (000/307) No match (V2 was not tested)
06 [02928d5a] (000/305) No match (V2 was not tested)
07 [d7262173] (000/305) No match (V2 was not tested)
08 [acd34162] (000/304) No match (V2 was not tested)
09 [d830a1c5] (000/304) No match (V2 was not tested)
10 [b2cb601d] (000/304) No match (V2 was not tested)
11 [9dfc2ffc] (000/300) No match (V2 was not tested)
12 [3737ead8] (000/304) No match (V2 was not tested)
13 [7e1d558f] (000/300) No match (V2 was not tested)
14 [4346fd5c] (000/295) No match (V2 was not tested)
15 [54cfa388] (000/298) No match (V2 was not tested)
16 [f4f1a02a] (000/290) No match (V2 was not tested)
17 [1f39f81c] (000/281) No match
Offsetted by 1606:
01 [4357c79c] (000/307) No match (V2 was not tested)
02 [95ea2a09] (000/302) No match (V2 was not tested)
03 [b3d7c179] (000/306) No match (V2 was not tested)
04 [72df7c79] (000/304) No match (V2 was not tested)
05 [8822c842] (000/307) No match (V2 was not tested)
06 [e7de9b6b] (000/305) No match (V2 was not tested)
07 [e3471114] (000/305) No match (V2 was not tested)
08 [9bc5c0eb] (000/304) No match (V2 was not tested)
09 [9a62e834] (000/304) No match (V2 was not tested)
10 [4e4329f4] (000/304) No match (V2 was not tested)
11 [0352cab7] (000/300) No match (V2 was not tested)
12 [91918ee4] (000/304) No match (V2 was not tested)
13 [c5c0b4f3] (000/300) No match (V2 was not tested)
14 [64a1696d] (000/295) No match (V2 was not tested)
15 [275059df] (000/298) No match (V2 was not tested)
16 [808183a3] (000/290) No match (V2 was not tested)
17 [8eb2ad62] (000/281) No match

Track Peak [ CRC32 ] [W/O NULL] [ LOG ]
– 100,0 [C43B0D8F] [F4420BDE] CRC32
01 98,8 [58BB293F] [684EE707]
02 100,0 [716EB9A5] [2BF8A9F1]
03 100,0 [FD78E356] [DC95931A]
04 98,8 [F618EF93] [408FA9AA]
05 98,8 [A465E7D8] [8FB2378C]
06 100,0 [BC258DDD] [92809086]
07 100,0 [8DFE6099] [B07B3C6D]
08 98,7 [E96804D1] [6350DF0F]
09 98,8 [84E0E36E] [9E2F34D8]
10 100,0 [CF806704] [6107029B]
11 100,0 [AD5A5E3E] [03AF11BD]
12 98,7 [9A5AE8E8] [E878736D]
13 100,0 [277B37E7] [7F7CC41A]
14 100,0 [7D7B65BA] [E701B0C5]
15 100,0 [1F258810] [55C45D26]
16 98,8 [8CBC38AC] [5D277095]
17 100,0 [FF3ED943] [5F76058E]


Elton John: Live Albums Collection (1971-2020) [21CD & 6LP]

Tracklist CD13-14. 2020 - Live From Moscow [Rocket 00602577889424, EU, Remastered]:

01. Daniel [0:03:57.30]
02. Skyline Pigeon [0:04:02.41]
03. Take Me to the Pilot [0:06:50.50]
04. Rocket Man (I Think It's Going to Be a Long, Long Time) [0:07:33.10]
05. Don't Let the Sun Go Down On Me [0:05:36.07]
06. Goodbye Yellow Brick Road [0:03:04.04]
07. Candle in the Wind [0:03:34.04]
08. I Heard It Through the Grapevine [0:11:50.12]

Exact Audio Copy V1.6 from 23. October 2020

EAC extraction logfile from 5. May 2021, 21:05

Elton John / Live From Moscow CD1

Used drive : PLEXTOR DVDR PX-L890SA Adapter: 1 ID: 1

Read mode : Secure
Utilize accurate stream : Yes
Defeat audio cache : Yes
Make use of C2 pointers : No

Read offset correction : 6
Overread into Lead-In and Lead-Out : No
Fill up missing offset samples with silence : Yes
Delete leading and trailing silent blocks : No
Null samples used in CRC calculations : Yes
Used interface : Native Win32 interface for Win NT & 2000

Used output format : User Defined Encoder
Selected bitrate : 1024 kBit/s
Quality : High
Add ID3 tag : No
Command line compressor : C:\Program Files (x86)\Exact Audio Copy\Flac\flac.exe
Additional command line options : -V -8 -T "Date=%year%" -T "Genre=%genre%" %source%


TOC of the extracted CD

Track | Start | Length | Start sector | End sector
––––––––––––––––––––––––––––-
1 | 0:00.00 | 3:57.30 | 0 | 17804
2 | 3:57.30 | 4:02.41 | 17805 | 35995
3 | 7:59.71 | 6:50.50 | 35996 | 66795
4 | 14:50.46 | 7:33.10 | 66796 | 100780
5 | 22:23.56 | 5:36.07 | 100781 | 125987
6 | 27:59.63 | 3:04.04 | 125988 | 139791
7 | 31:03.67 | 3:34.04 | 139792 | 155845
8 | 34:37.71 | 11:50.12 | 155846 | 209107


Range status and errors

Selected range

Filename H:\AUDIO\MUSIC\2020. Elton John - Live From Moscow 1979 (Rocket 00602577889424, EU)\CD1\Elton John - Live From Moscow CD1.wav

Peak level 98.9 %
Extraction speed 8.3 X
Range quality 100.0 %
Test CRC 9CD933D3
Copy CRC 9CD933D3
Copy OK

No errors occurred


AccurateRip summary

Track 1 accurately ripped (confidence 33) [A5C45483] (AR v2)
Track 2 accurately ripped (confidence 33) [BA72863B] (AR v2)
Track 3 accurately ripped (confidence 33) [38AA059E] (AR v2)
Track 4 accurately ripped (confidence 33) [AB2965F1] (AR v2)
Track 5 accurately ripped (confidence 33) [FB18931C] (AR v2)
Track 6 accurately ripped (confidence 33) [E341A08B] (AR v2)
Track 7 accurately ripped (confidence 33) [AAD11CA7] (AR v2)
Track 8 accurately ripped (confidence 33) [5358771F] (AR v2)

All tracks accurately ripped

End of status report

==== Log checksum 8CE28FEE8B9FFF37D7FE4B5107A40DC0205DB98BB1D8A30E1601D2859B86CA04 ====


[CUETools log; Date: 12.06.2021 15:41:13; Version: 2.1.4]
[AccurateRip ID: 000d0090-005829ec-730ae408] found.
Track [ CRC | V2 ] Status
01 [a6302a0b|a5c45483] (00+33/33) Accurately ripped
02 [7763e256|ba72863b] (00+33/33) Accurately ripped
03 [7639064d|38aa059e] (00+33/33) Accurately ripped
04 [05c42464|ab2965f1] (00+33/33) Accurately ripped
05 [9c73da3d|fb18931c] (00+33/33) Accurately ripped
06 [28379737|e341a08b] (00+33/33) Accurately ripped
07 [a2c087a3|aad11ca7] (00+33/33) Accurately ripped
08 [d27e0a6b|5358771f] (00+33/33) Accurately ripped

Track Peak [ CRC32 ] [W/O NULL] [ LOG ]
– 98,9 [9CD933D3] [75A9C0CE] CRC32
01 86,8 [A4D9A5FE] [D8FBD572]
02 98,6 [273639BD] [B4854A37]
03 98,9 [9A7DC505] [9CF543AB]
04 98,7 [B1E26D1F] [AD701553]
05 98,8 [A79CB9D2] [2814AC31]
06 95,5 [A313F63F] [3FBE78AB]
07 97,6 [7D30CF79] [7EECA664]
08 98,9 [6F01891A] [9E32B3FE]


01. Funeral For A Friend (Live) [0:03:04.54]
02. Tonight (Live) [0:07:41.36]
03. Better Off Dead (Live) [0:02:58.66]
04. Bennie And The Jets (Live) [0:12:31.49]
05. Sorry Seems To Be The Hardest Word (Live) [0:03:33.34]
06. Crazy Water (Live) [0:07:58.16]
07. Saturday Night's Alright (For Fighting) - Pinball Wizard (Live) [0:10:11.32]
08. Crocodile Rock - Get Back - Back In The U.S.S.R. (Live) [0:03:32.52]

Exact Audio Copy V1.6 from 23. October 2020

EAC extraction logfile from 5. May 2021, 21:49

Elton John / Live From Moscow CD2

Used drive : Optiarc DVD RW AD-7263S Adapter: 1 ID: 0

Read mode : Secure
Utilize accurate stream : Yes
Defeat audio cache : Yes
Make use of C2 pointers : No

Read offset correction : 48
Overread into Lead-In and Lead-Out : No
Fill up missing offset samples with silence : Yes
Delete leading and trailing silent blocks : No
Null samples used in CRC calculations : Yes
Used interface : Native Win32 interface for Win NT & 2000

Used output format : User Defined Encoder
Selected bitrate : 1024 kBit/s
Quality : High
Add ID3 tag : No
Command line compressor : C:\Program Files (x86)\Exact Audio Copy\Flac\flac.exe
Additional command line options : -V -8 -T "Date=%year%" -T "Genre=%genre%" %source%


TOC of the extracted CD

Track | Start | Length | Start sector | End sector
––––––––––––––––––––––––––––-
1 | 0:00.00 | 3:04.54 | 0 | 13853
2 | 3:04.54 | 7:41.36 | 13854 | 48464
3 | 10:46.15 | 2:58.66 | 48465 | 61880
4 | 13:45.06 | 12:31.49 | 61881 | 118254
5 | 26:16.55 | 3:33.34 | 118255 | 134263
6 | 29:50.14 | 7:58.16 | 134264 | 170129
7 | 37:48.30 | 10:11.32 | 170130 | 215986
8 | 47:59.62 | 3:32.52 | 215987 | 231938


Range status and errors

Selected range

Filename H:\AUDIO\MUSIC\2020. Elton John - Live From Moscow 1979 (Rocket 00602577889424, EU)\CD2\Elton John - Live From Moscow CD2.wav

Peak level 100.0 %
Extraction speed 3.9 X
Range quality 100.0 %
Test CRC ADD26C29
Copy CRC ADD26C29
Copy OK

No errors occurred


AccurateRip summary

Track 1 accurately ripped (confidence 33) [D8E7A077] (AR v2)
Track 2 accurately ripped (confidence 33) [21A8FCEE] (AR v2)
Track 3 accurately ripped (confidence 33) [7BD07B09] (AR v2)
Track 4 accurately ripped (confidence 33) [1B795107] (AR v2)
Track 5 accurately ripped (confidence 33) [294E3D89] (AR v2)
Track 6 accurately ripped (confidence 33) [B6AA9A93] (AR v2)
Track 7 accurately ripped (confidence 32) [236F8C23] (AR v2)
Track 8 accurately ripped (confidence 32) [7554B3DA] (AR v2)

All tracks accurately ripped

End of status report

==== Log checksum 1C6B8F6E79DE89654389F59BA06DBA209972D1F4ACD65DB19CA44F3D53690956 ====


[CUETools log; Date: 12.06.2021 15:41:20; Version: 2.1.4]
[AccurateRip ID: 000f2dd7-00681f40-7a0c1408] found.
Track [ CRC | V2 ] Status
01 [6b200b40|d8e7a077] (00+33/33) Accurately ripped
02 [01fe10a7|21a8fcee] (00+33/33) Accurately ripped
03 [354cd1bd|7bd07b09] (00+33/33) Accurately ripped
04 [76a3c5b6|1b795107] (00+33/33) Accurately ripped
05 [999e6faf|294e3d89] (00+33/33) Accurately ripped
06 [5685301c|b6aa9a93] (00+33/33) Accurately ripped
07 [84ede54a|236f8c23] (00+32/32) Accurately ripped
08 [22ff464b|7554b3da] (00+32/32) Accurately ripped

Track Peak [ CRC32 ] [W/O NULL] [ LOG ]
– 100,0 [ADD26C29] [48E9FF36] CRC32
01 92,1 [06DBF40C] [8804DB85]
02 90,1 [44EBAC26] [4226B420]
03 98,7 [605605C6] [2A6E4B58]
04 100,0 [5A62E2CC] [8FA4E138]
05 90,6 [A7A1E178] [247E43A9]
06 98,8 [1E4E7308] [C2ECACA8]
07 98,9 [EB6F5F96] [4C89966F]
08 99,9 [30021C37] [8F760F52]


* * * * * Bootlegs * * * * *

Tracklist CD14b. 1970 - 'Knockin' Em Dead Alive:
A&R Recording Studios, NY, USA

01. I Need You To Turn To
02. Your Song
03. Country Comfort
04. Border Song
05. Indian Sunset.
06. Elton Introduces Honky Tonk Woman

[CUETools log; Date: 22.06.2021 9:56:44; Version: 2.1.4]
[AccurateRip ID: 00063d9e-0021eed9-49060206] disk not present in database.

Track Peak [ CRC32 ] [W/O NULL]
– 71,7 [A2D79372] [5005043F]
01 50,1 [9752BA5B] [9715016A]
02 54,3 [0470DEDD] [64020E9A]
03 62,1 [8EDD9C25] [8A0552E7]
04 51,7 [57A5FA20] [B3A3BD89]
05 71,7 [BEE80043] [BE161F07]
06 31,8 [FBFA49BC] [686C1B84]


Tracklist CD15. 1973 - Live at the Hammersmith Odeon:

Elton John - Live at the Hammersmith Odeon 22 Dec 73
(BBC transcription reels 1973)

01. Intro/Funeral For A Friend/Love Lies Bleeding
02. Candle in the Wind
03. Hercules
04. Rocket Man
05. Bennie & the Jets
06. Daniel
07. This Song Has No Title
08. Honky Cat
09. Goodbye Yellow Brick Road
10. Ballad of Danny Bailey
11. Elderberry Wine ( including Rudolph )
12. I've Seen That Movie Too
13. All the Young Girls Love Alice
14. Crocodile Rock
15. Your Song
16. Saturday Night's Alright For Fighting

[CUETools log; Date: 22.06.2021 9:17:29; Version: 2.1.4]
[AccurateRip ID: 003e4040-02d92a30-ec182d10] disk not present in database.

Track Peak [ CRC32 ] [W/O NULL]
– 100,0 [5852D776] [C4EFD3D8]
01 100,0 [A6EA8A11] [86C13A6A]
02 100,0 [008AC48D] [D2F440A3]
03 100,0 [8B49EBF5] [84829246]
04 100,0 [36E404ED] [E0A02050]
05 99,9 [7D548AEC] [188571ED]
06 99,1 [47629461] [816FCAF5]
07 78,4 [67172A28] [2D64D8EC]
08 100,0 [62F6E56D] [935F577B]
09 96,2 [24C84A76] [D25D647C]
10 99,0 [87C649AB] [7694035E]
11 99,1 [99A12633] [55192CCE]
12 99,8 [28D1C1C4] [F36D6B41]
13 100,0 [4AEFE4EF] [8D1B814D]
14 100,0 [C4363073] [C7E0FEA6]
15 90,4 [103134DF] [A3ACE1FE]
16 100,0 [E9483987] [A68E5DC7]


Tracklist CD16. 1984 - The Centrum, Worcester, USA CD1:

01. Tiny Dancer
02. Levon
03. Lil Frigerator
04. Rocket Man
05. Daniel
06. Restless
07. Candle in the Wind
08. The Bitch is Back
09. Don't Let The Sun Go Down On Me
10. Sad Songs
11. Who Wears These Shoes
12. Sorry Seems to be the Hardest Word

[CUETools log; Date: 22.06.2021 11:24:26; Version: 2.1.4]
[AccurateRip ID: 001cd512-0106bee7-bc0de80c] disk not present in database.

Track Peak [ CRC32 ] [W/O NULL]
– 69,6 [25C1D3E5] [B0E21A47]
01 65,4 [C3B2B8A1] [C20561E1]
02 69,6 [C72FA00E] [6FA66245]
03 60,7 [332DDEDF] [2F2F67E0]
04 66,9 [6C6DB02E] [CD500C62]
05 64,0 [1EB99032] [81386B7A]
06 65,5 [778930FF] [4400AF68]
07 61,4 [EAB71D60] [EB6AAB70]
08 69,2 [750E7A7A] [753E589F]
09 64,5 [9F607ED8] [8B6F8C14]
10 59,2 [51C6AB99] [E58D2F8A]
11 60,7 [0200F4C6] [052C17B9]
12 53,3 [5417236C] [5985FE1E]


Tracklist CD17. 1984 - The Centrum, Worcester, USA CD2:

13. Bennie and the Jets
14. Philadelphia
15. Blue Eyes
16. I Guess That's Why They Call it
17. Kiss The Bride
18. One More Arrow
19. I'm Still Standing
20. Your Song
21. Saturday Nights Alright For Fighting
22. Goodbye Yellow Brick Road
23. Crocodile Rock

[CUETools log; Date: 22.06.2021 11:39:30; Version: 2.1.4]
[AccurateRip ID: 00155810-00a44616-890bf10a] disk not present in database.

Track Peak [ CRC32 ] [W/O NULL]
– 64,0 [F71AA94C] [D8508335]
01 64,0 [0B1279DC] [659D2AB2]
02 63,5 [017F7364] [5BF1658F]
03 61,6 [69786CB6] [847C0504]
04 63,1 [2AE7CE71] [EA783AD0]
05 60,6 [072BAA10] [EE4D3AEE]
06 63,6 [B454A24C] [A4DD530D]
07 59,6 [F1E6136D] [23C716DB]
08 61,8 [BF32E262] [C502FCA8]
09 63,8 [29052586] [BCE14ADE]
10 61,9 [59078D19] [45D9AEE6]


Tracklist CD18. 1994 - Live At Greek Theater, Los Angeles, Usa CD1:

01 Your Song
02 The One
03 The Last Song
04 Levon
05 Daniel
06 Sorry Seems To Be The Hardest Word
08 Indian Sunset
09 I Think I'm Gonna Kill Myself

[CUETools log; Date: 22.06.2021 11:52:11; Version: 2.1.4]
[AccurateRip ID: 000d5689-0058ef37-7009ea08] disk not present in database.

Track Peak [ CRC32 ] [W/O NULL]
– 99,4 [647525DA] [D2E2C88C]
01 99,4 [8CAFEEAC] [B87D70BA]
02 99,4 [EA4E6170] [9A6020CA]
03 99,4 [BF670689] [3D4C3BF8]
04 99,4 [D7EDE2B6] [A5585808]
05 98,5 [7909F8A4] [47FCF871]
06 93,2 [382C05F0] [F774AA61]
07 99,4 [678703D2] [C30ED78F]
08 99,4 [7EE91A5C] [3C653683]


Tracklist CD19. 1994 - Live At Greek Theater, Los Angeles, Usa CD2:

01 Take Me To The Pilot
02 Don't Let The Sun Go Down On Me
03 Believe
04 Crocodile Rock
05 Bennie and the Jets
06 Candle In The Wind
07 Can You Feel The Love Tonight
08 piano solo

[CUETools log; Date: 22.06.2021 12:10:21; Version: 2.1.4]
[AccurateRip ID: 0011fc79-0070fd56-630b3408] disk not present in database.

Track Peak [ CRC32 ] [W/O NULL]
– 99,4 [72E23D76] [4F079A80]
01 99,4 [D19C5DD8] [A601D8A5]
02 99,4 [9C1AF91D] [2A00A3F4]
03 99,4 [A1E0B93D] [7F85CA47]
04 99,4 [8D65CD89] [C293D573]
05 99,4 [08F6CBEF] [8A0443C1]
06 99,4 [DD20E925] [BF095AE7]
07 99,4 [C0045021] [B5E9526D]
08 99,4 [52A27B62] [54198838]


Tracklist CD20. 2010 - Electric Proms:
Live At The Roundhouse. 28.10.2010

01 - Intro
02 - Burn Down The Mission
03 - Levon
04 - Tiny Dancer
05 - Ballad of a Well Known Gun
06 - I Guess That's Why They Call It The Blues (featurng Plan B)
07 - Announcement
08 - Delta Lady
09 - A Song for You
10 - Masqureade (featuring Rumer)
11 - If It Wasn't For Bad
12 - Eight Hundred Dollar Shoes
13 - Hey Ahab
14 - Gone to Shiloh
15 - Jimmy Rodgers Dream
16 - There's No Tomorrow
17 - Monkey Suit
18 - Announcement
19 - The Best of the Day
20 - Dreams Come True
21 - I Should Have Sent Roses
22 - When Love Is Dying
23 - Hearts Turned To Stone
24 - Never Too Old To Hold Somebody
25 - In The Hands Of Angels
26 - Tightrope
27 - Prince of Peace, Out of the Woods
28 - Roll In My Sweet Baby's Arms
29 - Stranger In A Strange Land
30 - Your Song
31 - Take Me To The Pilot
32 - Sad Songs Say So Much
33 - The Bitch Is Back
34 - Announcement
35 - Hey Ahab

[CUETools log; Date: 22.06.2021 9:45:59; Version: 2.1.4]
Padded some input files to a frame boundary.
[AccurateRip ID: 00bf9da1-127d4e47-4b24a123] disk not present in database.

Track Peak [ CRC32 ] [W/O NULL]
– 100,0 [F872628E] [D991E983]
01 100,0 [A19AA6C2] [2D465174]
02 100,0 [32B6B75C] [66869C91]
03 100,0 [42294760] [D4421539]
04 100,0 [D4CA68E6] [15F4A1CE]
05 100,0 [690CFF1B] [5E7A0F53]
06 100,0 [D5D1DF71] [71488176]
07 100,0 [B8314895] [99C99CF4]
08 100,0 [D4CAD789] [E0434E5E]
09 95,0 [5FDC0461] [5D640DF3]
10 53,3 [56CEA6AD] [9AF4B416]
11 100,0 [8D44AF85] [B75EB2A1]
12 100,0 [6B00711F] [303C1339]
13 100,0 [6205FE24] [6C073BA1]
14 100,0 [3004396A] [F5ECF8F3]
15 100,0 [B92448A0] [F17B924B]
16 100,0 [567EB0FC] [445AD8E9]
17 100,0 [CC296284] [625F8A2A]
18 59,8 [2A45673A] [D98C5AA7]
19 100,0 [E610F0C8] [9D723788]
20 100,0 [E5610D63] [AD43F016]
21 100,0 [F5046BB2] [9D8798E1]
22 100,0 [0C355B35] [10065CB1]
23 100,0 [580EAEC4] [9B05D338]
24 100,0 [DCA9FF9C] [293E9800]
25 100,0 [EF2F7F6E] [715A13FE]
26 100,0 [F4AB8C46] [47CA8582]
27 100,0 [FB00B3CB] [EBC6EBC6]
28 100,0 [E6D05860] [D83CC287]
29 100,0 [68951A24] [B8847A7C]
30 100,0 [029F3F41] [E78CB42A]
31 100,0 [62B9177F] [55B4CA1E]
32 100,0 [0792D2EB] [523AD587]
33 100,0 [E25418A4] [6016F82B]
34 94,2 [8A31B00A] [B85AE723]
35 100,0 [90037560] [6B5F3BD9]


Tracklist CD21. 2010 - Elton John and Ray Cooper - Taormina:
Teatro Antico
Taormina 24 September 2010

01-intro 3.07
02-The One 6.30
03-Sixty Years On 4.53
04-The Greatest Discovery 5.00
05-Border Song 3.41
06-The Ballad Of The Boy In The Red Shoes 4.29
07-The Emperor's New Clothes 4.23
08-I Guess That's Why They Called The Blues 4.43
09-Rocket Man 9.25
10-Tiny Dancer 6.41
11-Philadelphia Freedom 6.10
12-Your Song 4.15
13-Funeral For A Friend 4.57
14-Tonight 6.33
15-Better Off Dead 2.57
16-Levon 7.42
17-Gone To Shilo 5.15
18-Indian Sunset 7.02
19-I Think I'm Gonna Kill Myself 3.30
20-Daniel 4.07
21-Sorry Seems To Be The Hardest Word 4.04
22-Take Me To The Pilot 10.25
23-Don't Let The Sun Go Down On Me 6.08
24-Benny And The Jets 7.05
25-Crazy Water 5.41
26-encore break 2.36
27-outro 2.16

[CUETools log; Date: 22.06.2021 9:32:01; Version: 2.1.4]
[AccurateRip ID: 00895b5a-0a7f0f2c-d221a61b] disk not present in database.

Track Peak [ CRC32 ] [W/O NULL]
– 77,4 [1EFE7A18] [2939D786]
01 72,7 [1075DBAA] [B27DFF25]
02 72,1 [D6430926] [0987EA62]
03 72,4 [A1FD58D8] [06A402D6]
04 71,1 [BAE8F821] [6B0385C0]
05 73,4 [8506FE4F] [5359E03F]
06 70,2 [BD4ADF91] [43FB0164]
07 73,1 [A595D0DC] [275B1EAD]
08 71,8 [87AC6B93] [74B1E331]
09 72,3 [07AD5F98] [C5DBA639]
10 70,8 [AF5A2D5E] [82BD1E0B]
11 77,4 [93385422] [E95F6C26]
12 70,0 [0456D30C] [22D4B9BE]
13 74,5 [E9EFB2C1] [ED0E64CB]
14 72,9 [209691DF] [071236D5]
15 71,5 [CB13B473] [4D8ADAD7]
16 73,9 [4CDB4126] [0089DCA7]
17 70,9 [3839B94A] [DCEE4C03]
18 72,7 [75D04EF4] [036469B5]
19 72,3 [44B4BE50] [CFD9A7BC]
20 72,2 [61A79042] [7EE2F14F]
21 72,0 [741FA492] [D7A07084]
22 76,0 [57B1F2C2] [CAADF826]
23 71,5 [D4355037] [2E61C6FC]
24 75,3 [1DBAB2E0] [4148EB73]
25 73,8 [0AEEDBC8] [704733DC]
26 72,6 [86561B1D] [AB97E30D]
27 72,3 [7CD63F51] [6B5EF80C]


* * * * *

Elton John: Live Albums Collection (1971-2020) [21CD & 6LP]

Tracklist LP01. 1974 - Elton John & John Lennon - Live [DJM Records, K28P-200]:

A1 Whatever Gets You Through The Night
A2 Lucy In The Sky With Diamonds
A3 I Saw Her Standing There
A4 Your Song
A5 Take Me To The Pilot

B1 Rocket Man
B2 Benny And The Jets
B3 Honky Cat
B4 Daniel
B5 Crocodile Rock


Original ripper: Иван_К
Original format: 24/192
Vinyl Condition: NM
Direct Drive Turntable: Micro Seiki DD-7
Cartridge: DENON DL-103D ORTOFON T-10
Amplifier: Sanderz MM-9RIAA (US tube)
ADC: E-MU 0204

Elton John: Live Albums Collection (1971-2020) [21CD & 6LP]

Tracklist LP02. 1977 - Live 17-11-70 [Pickwick Records, SHM 942]:




Original ripper: Иван_К
Original format: 24/192
Vinyl Condition: Ex
Direct Drive Turntable: ELAC MIRACORD 50H
Cartridge: DENON DL-103D ORTOFON MCA-76
Amplifier: Транзисторный SS
ADC: E-MU 1212m PCIe ASIO

Elton John: Live Albums Collection (1971-2020) [21CD & 6LP]

Tracklist LP03. 1979 - 'Live' Collection - 17-11-70 LP1 [Pickwick Records/PDA 047]:

A1 Take Me To The Pilot
A2 Honky Tonk Women
A3 Sixty Years On
A4 Can I Put You On

B1 Bad Side Of The Moon
B2.1 Burn Down The Mission
B2.2 My Baby Left Me
B2.3 Get Back

Tracklist LP04. 1979 - 'Live' Collection - Here And There LP2:

Live In London At The Royal Festival Hall
C1 Skyline Pigeon
C2 Border Song
C3 Honky Cat
C4 Love Song
C5 Crocodile Rock

Live In New York At Madison Square Garden
D1 Funeral For A Friend
D2 Love Lies Bleeding
D3 Rocket Man
D4 Benny And The Jets
D5 Take Me To The Pilot


Original ripper: Fran Solo
Original format: 24/96
Vinyl Condition:
Direct Drive Turntable: Technics SL-1200MK2 Quartz
Cartridge: SHURE M97xE With JICO SAS Stylus
Amplifier: Marantz 2252
ADC: E-MU 0404
Postprocessing:

Elton John: Live Albums Collection (1971-2020) [21CD & 6LP]

Tracklist LP05. 1987 - Live In Australia [MCA Records, MCA2-8022]:

A1 Sixty Years On 5:06
A2 I Need You To Turn To 2:34
A3 Greatest Discovery 3:48
A4 Tonight 7:26
B1 Sorry Seems To Be The Hardest Word 3:30
B2 The King Must Die 4:58
B3 Take Me To The Pilot 3:54
B4 Tiny Dancer 6:06
C1 Have Mercy On The Criminal 5:28
C2 Madman AcrossThe Water 5:20
C3 Candle In The Wind 3:46
D1 Burn Down The Mission 5:26
D2 Your Song 3:48
D3 Don't Let The Sun Go Down On Me 5:28


Original ripper: Иван_К
Original format: 24/192
Vinyl Condition: Mint
Direct Drive Turntable: SONY PS-X55 DENON DL-103D ORTOFON T-10
Amplifier: Sanderz MM-9RIAA (tube)
ADC: E-MU 0204

Elton John: Live Albums Collection (1971-2020) [21CD & 6LP]

Tracklist LP06. 2017 - 17-11-70 [Mercury, 5728537] :

Side one

1. ”Take Me to the Pilot”
2. ”Honky Tonk Women" (Mick Jagger, Keith Richards)
3. ”Sixty Years On"
4. ”Can I Put You On"

Side two

5. ”Bad Side of the Moon"
6. “Burn Down the Mission" including “My Baby Left Me" (Arthur Crudup) / “Get Back" (John Lennon, Paul McCartney)

Side three

7. ”Indian Sunset"
8. ”Amoreena"
9. ”Your Song"

Side four

10. ”Country Comfort"
11. ”I Need You To Turn To"
12. ”Border Song"
13. ”My Father's Gun"


Original ripper: wbhendrix
Original format: 24/96
Vinyl Condition: Mint
Direct Drive Turntable: VPI TNT Mark IV Turntable with VPI 300 RPM Motor
Cartridge: Audio-Technica AT33PTG/II Dual Moving Coil Cartrid
Amplifier: Musical Surroundings Nova Phenomena Battery Powere
ADC: Lavry AD11 external USB 2.0 ADC


All thanks go to the original releaser

Elton John in my Blog

Download Elton John: Live Albums Collection (1971-2020):