Subcategories
Tags
Language
Tags

Elvin Bishop's Big Fun Trio - Something Smell's Funky 'Round Here (2018)

Posted By: Designol
Elvin Bishop's Big Fun Trio - Something Smell's Funky 'Round Here (2018)

Elvin Bishop's Big Fun Trio - Something Smell's Funky 'Round Here (2018)
EAC | FLAC | Image (Cue&Log) ~ 217 Mb | Mp3 (CBR320) ~ 85 Mb | Scans included
Modern Electric Blues, Blues-Rock, R&B | Label: Alligator | # ALCD 4983 | 00:35:59

Elvin and his Big Fun Trio-mates (Willy Jordan on cajon and vocals, Bob Welsh on guitar and piano) serve up a fresh new helping of their good ‘n’ greasy blues and R&B, highlighted by the title track, a comic State of the Union address as only the blues and Southern Rock legend can deliver. Album includes four additional new originals, Big Fun Trio takes on Elvin’s Right Now Is The Hour, Jackie Wilson’s (Your Love Keeps Lifting Me) Higher & Higher, Ann Peebles’ I Can’t Stand The Rain and more.

The blues world planted its first seeds with songs of protest about racial injustice, and artists have reaped the fruits of those political statements ever since. But few folks who’ve come before have made their statements as eloquently and whimsically as Elvin Bishop does in the title song of this intimate and entertaining CD.

A follow-up to 2017’s eponymous Elvin Bishop’s Big Fun Trio CD, it’s an intelligent, whimsical offering that, like the first disc, weaves together into one cohesive package four new songs with tunes from Elvin’s extensive catalog along with a few surprising covers.

Bishop founded the group a few years ago after inviting his longtime keyboard and second guitar player Bob Welsh and percussionist Willy Jordan, who’s worked with Joe Louis Walker, Angela Strehli and John Lee Hooker, for an informal jam at his San Francisco Bay-area studio. Jordan left his kit at home that day, bringing along a cajon, a Peruvian percussion instrument capable of producing a range of sounds that mimic bass and snare drums and more, instead.

While the debut album featured contributions from a trio of superstar harp players, this one is more bare bones. Produced by Steve Savage at Bishop’s Hog Heaven Studio in Lagunitas, Calif., it comes across with a distinct laid-back feel, almost as if it were produced in your living room, and only includes a one-song guest appearance from Andre Thierry, the native Californian of French Creole descent who’s proven to be a master zydeco accordion player.

Penned by all three members, the title tune “Something Smells Funky ‘Round Here” romps out of the gate at a medium shuffle. It’s quickly evident that it’s not a good odor, either, as Elvin sings: “I’m not talkin’ ‘bout funky like a groove/Really funky…like pee-uuuuh!” The stench, it seems, is coming from Washington, D.C., and it’s “funky like some old politicians.” Bishop goes on to deliver a personal State Of The Union address that complains about “unlimited ignorance in high places/Stirrin’ up dust between the races” and more.

Once that political statement is out of the way, the big fun kicks in with a sweet cover of Jackie Wilson’s “(Your Love Keeps Lifting Me) Higher And Higher.” Jordan handles the vocals on this one and three more to follow, and demonstrates range from rich baritone to strong falsettos in the process. “Right Now Is The Hour,” which first appeared on Elvin’s 1978 LP, Hog Heaven, follows and features fretwork from Elvin and Mike before an unhurried take on Dave Bartholomew’s “Another Mule” with Bishop singing about the realization that his woman’s cheating.

Two originals — “That’s The Way Willy Likes It” and “Bob’s Boogie” – are up next and give Jordan and Welsh space to shine. The former’s a mid-tempo funk that describes the percussionist’s taste in women. The latter is a sprightly instrumental that gives Bob plenty of space to rip and run. “I Can’t Stand The Rain,” a huge hit for Ann Peebles in 1973, features Willy at the mike before the band delivers a fresh take on “Stomp,” a redo that first appeared on Bishop’s 1972 LP, Rock My Soul.

“Lookin’ Good,” the final new tune in the set, is another sardonic pleaser — basically spoken words delivered atop Welsh’s work at the 88s. Elvin notes that there are three stages to life: youth, middle age and “you’re looking good” then proceeds to recount a conversation with a friend of 50 years who tells him he ought to be glad about all the gray hair and wrinkles because a lot of their other associates are long gone. It gets Bishop to think about how fortunate he really is. “I never got hit by a truck,” he says. “And I never got that bad batch of dope like some of them do.” And he delivers a treatise on having quit drinking – although, he admits, it took him 25 years to do so…and hasn’t been to jail since he did.

The album concludes with an accordion-driven version of “My Soul,” a gospel-tinged pleaser penned by rockabilly legend Ronnie Hawkins under the title “It’s My Soul.”

Available wherever fine music is sold, Something Smells Funky ‘Round Here will leave you with a smile. Like Big Fun Trio’s previous offering, this one will be under consideration for honors when next year’s awards season comes around. Pick it up. You won’t be disappointed.

Review by Marty Gunter, BluesBlastMagazine.com

Elvin Bishop at Allmusic
Elvin Bishop Website
Elvin Bishop at Wiki

Tracklist:

01. Something Smells Funky 'Round Here (3:07)
02. (Your Love Keeps Lifting Me) Higher And Higher (4:42)
03. Right Now Is The Hour (3:28)
04. Another Mule (3:44)
05. That's The Way Willy Likes It (3:49)
06. Bob's Boogie (2:32)
07. I Can't Stand The Rain (4:09)
08. Stomp (3:11)
09. Lookin' Good (3:38)
10. My Soul (3:38)


Exact Audio Copy V1.1 from 23. June 2015

EAC extraction logfile from 12. September 2018, 14:46

Elvin Bishop's Big Fun Trio / Something Smells Funky 'Round Here

Used drive : Optiarc DVD RW AD-7240S Adapter: 1 ID: 0

Read mode : Secure
Utilize accurate stream : Yes
Defeat audio cache : Yes
Make use of C2 pointers : No

Read offset correction : 48
Overread into Lead-In and Lead-Out : No
Fill up missing offset samples with silence : Yes
Delete leading and trailing silent blocks : No
Null samples used in CRC calculations : Yes
Used interface : Native Win32 interface for Win NT & 2000

Used output format : User Defined Encoder
Selected bitrate : 896 kBit/s
Quality : High
Add ID3 tag : No
Command line compressor : C:\Program Files (x86)\Exact Audio Copy\Flac\flac.exe
Additional command line options : -V -8 -T "Date=%year%" -T "Genre=%genre%" %source%


TOC of the extracted CD

Track | Start | Length | Start sector | End sector
––––––––––––––––––––––––––––-
1 | 0:00.00 | 3:07.01 | 0 | 14025
2 | 3:07.01 | 4:42.28 | 14026 | 35203
3 | 7:49.29 | 3:28.35 | 35204 | 50838
4 | 11:17.64 | 3:44.14 | 50839 | 67652
5 | 15:02.03 | 3:49.02 | 67653 | 84829
6 | 18:51.05 | 2:31.60 | 84830 | 96214
7 | 21:22.65 | 4:08.40 | 96215 | 114854
8 | 25:31.30 | 3:11.30 | 114855 | 129209
9 | 28:42.60 | 3:38.14 | 129210 | 145573
10 | 32:20.74 | 3:37.57 | 145574 | 161905


Range status and errors

Selected range

Filename D:\My Music Archive_D\Elvin Bishop\Elvin Bishop - Regular Albums (My CDs)\(2018) Elvin Bishop's Big Fun Trio - Something Smells Funky 'Round Here\Elvin Bishop's Big Fun Trio - Something Smells Funky 'Round Here.wav

Peak level 96.6 %
Extraction speed 3.5 X
Range quality 100.0 %
Test CRC 2924058B
Copy CRC 2924058B
Copy OK

No errors occurred


AccurateRip summary

Track 1 not present in database
Track 2 not present in database
Track 3 not present in database
Track 4 not present in database
Track 5 not present in database
Track 6 not present in database
Track 7 not present in database
Track 8 not present in database
Track 9 not present in database
Track 10 not present in database

None of the tracks are present in the AccurateRip database

End of status report

==== Log checksum E50CB84D6785623BA7C85A8E4175FE7BE71CC3A8C76DDDC86DFD1E00596D4976 ====

[CUETools log; Date: 13.09.2018 15:23:54; Version: 2.1.4]
[CTDB TOCID: ZdVFgXdt8UV5dsd5o2D.1.inZwY-] found.
Track | CTDB Status
1 | (9/9) Accurately ripped
2 | (9/9) Accurately ripped
3 | (9/9) Accurately ripped
4 | (9/9) Accurately ripped
5 | (9/9) Accurately ripped
6 | (9/9) Accurately ripped
7 | (9/9) Accurately ripped
8 | (9/9) Accurately ripped
9 | (9/9) Accurately ripped
10 | (9/9) Accurately ripped
[AccurateRip ID: 000dbcd8-006d800f-84086e0a] disk not present in database.

Track Peak [ CRC32 ] [W/O NULL] [ LOG ]
– 96,6 [2924058B] [757C8826] CRC32
01 96,5 [83AB8016] [0F39F70F]
02 96,5 [24AD91F6] [BC58FDCF]
03 96,6 [BB18AE87] [1BB7AF6C]
04 96,5 [902CE816] [671BED89]
05 96,5 [6C297D23] [0A43DB1D]
06 96,5 [B9995A48] [8D41BB48]
07 96,5 [B823A198] [AE6EAEA9]
08 96,6 [D5531B12] [8D69C616]
09 96,5 [6317404A] [09E3D0CC]
10 96,6 [7F47F7E6] [859A1BD0]

foobar2000 1.2 / Dynamic Range Meter 1.1.1
log date: 2018-09-13 15:22:50

––––––––––––––––––––––––––––––––––––––––
Analyzed: Elvin Bishop's Big Fun Trio / Something Smells Funky 'Round Here
––––––––––––––––––––––––––––––––––––––––

DR Peak RMS Duration Track
––––––––––––––––––––––––––––––––––––––––
DR7 -0.30 dB -8.23 dB 3:07 01-Something Smells Funky 'Round Here
DR5 -0.30 dB -6.12 dB 4:42 02-(Your Love Keeps Lifting Me) Higher And Higher
DR6 -0.30 dB -7.62 dB 3:28 03-Right Now Is The Hour
DR8 -0.30 dB -9.64 dB 3:44 04-Another Mule
DR7 -0.30 dB -8.17 dB 3:49 05-That's The Way Willy Likes It
DR6 -0.30 dB -7.39 dB 2:32 06-Bob's Boogie
DR6 -0.30 dB -7.17 dB 4:09 07-I Can't Stand The Rain
DR6 -0.30 dB -8.44 dB 3:11 08-Stomp
DR9 -0.31 dB -10.63 dB 3:38 09-Lookin' Good
DR5 -0.30 dB -6.79 dB 3:38 10-My Soul
––––––––––––––––––––––––––––––––––––––––

Number of tracks: 10
Official DR value: DR7

Samplerate: 44100 Hz
Channels: 2
Bits per sample: 16
Bitrate: 830 kbps
Codec: FLAC
================================================================================

Elvin Bishop's Big Fun Trio - Something Smell's Funky 'Round Here (2018)

Elvin Bishop's Big Fun Trio - Something Smell's Funky 'Round Here (2018)

All thanks to original releaser - funny_horse

More interesting music in My Blog