Tags
Language
Tags

Emmylou Harris - Portraits (1996) 3CD Box Set

Posted By: Designol
Emmylou Harris - Portraits (1996) 3CD Box Set

Emmylou Harris - Portraits (1996) 3CD Box Set
EAC | FLAC | Tracks (Cue&Log) ~ 1.25 Gb | Mp3 (CBR320) ~ 538 Mb | Scans ~ 101 Mb
Label: Reprise Records, Reprise Archives | # 9362-45308-2 | Time: 03:42:09
Country, Country Pop, Progressive Country, Country Rock

Portraits is a three-disc, 61-track box set covering Emmylou Harris' entire career for Reprise and Warner Records, which spans from 1974 to 1992. Not only does the box select highlights from classic albums like Luxury Liner, Roses in the Snow, and Blue Kentucky Girl, but it also features her early duets with Gram Parsons and selections from the Trio album she recorded with Dolly Parton and Linda Ronstadt. Portraits doesn't dwell too long on unreleased material – there are only five unearthed tracks on the entire set – preferring to sketch out a full overview of her career. While there might be a few favorite tracks missing, the box nevertheless fulfills its goals quite nicely – anyone looking for a comprehensive compilation of Emmylou's career will not be disappointed.

Review by Thom Owens, Allmusic.com

Emmylou Harris - Portraits (1996) 3CD Box Set



Tracklist:

CD1:

01. Boulder To Birmingham (3:35)
02. Before Believing (4:44)
03. Love Hurts (3:39)
04. In My Hour Of Darkness (3:44) (with Gram Parsons)
05. Angels Rejoiced Last Night (2:24) (with Gram Parsons)
06. Sleepness Nights (3:23) (with Gram Parsons)
07. Too Far Gone (4:06)
08. If I Could Only Win Your Love (2:37)
09. Till I Gain Control Again (5:34)
10. One Of Those Days (3:04)
11. Together Again (3:53)
12. Here, There And Everywhere (3:41)
13. You're Still On My Mind (2:54)
14. Sweet Dreams (4:02)
15. Luxury Liner (3:41)
16. Making Believe (3:35)
17. Pancho & Lefty (4:50)
18. Two More Bottles Of Wine (3:08)
19. You Never Can Tell (C'est La Vie) (3:27)
20. Easy From Now On (3:07)

CD2:

01. Hello Stranger (4:00)
02. Everytime You Leave (3:01) (with Don Everly)
03. Beneath Still Waters (3:43)
04. Blue Kentucky Girl (3:19)
05. To Daddy (2:49)
06. Evangeline (3:12) (with The Band)
07. Save The Last Dance For Me (3:42)
08. Mister Sandman (2:21) (with Dolly Parton and Linda Ronstadt)
09. And I Love You So (4:41)
10. If I Needed You (3:36) (with Don Williams)
11. Roses In The Snow (2:33)
12. The Boxer (3:18)
13. Wayfaring Stranger (3:28)
14. Millworker (4:05)
15. Dimming Of The Day (3:27)
16. Heaven Ain't Ready For You Yet (3:56)
17. Juanita (3:08)
18. Born To Run (3:47)
19. The Price You Pay (4:39)
20. Sweet Chariot (2:59)
21. That Lovin' You Feelin' Again (4:00) (with Roy Orbison)

CD3:

01. In My Dreams (3:15)
02. Love Is (4:39)
03. To Know Him Is To Love Him (3:51) (with Dolly Parton and Linda Ronstadt)
04. The Pain Of Loving You (2:35) (with Dolly Parton and Linda Ronstadt)
05. Farther Along (4:10) (with Dolly Parton and Linda Ronstadt)
06. Angel Band (3:04)
07. I Still Miss Someone (2:51)
08. A River For Him (5:05)
09. Heartbreak Hill (3:14)
10. Icy Blue Heart (4:09)
11. Gulf Coast Highway (3:09) (with Willie Nelson)
12. We Believe In Happy Endings (3:35) (with Earl Thomas Conley)
13. West Texas Waltz (3:33) (with Flaco Jimenez)
14. Rollin' And Ramblin' (The Death Of Hank Williams) (3:28)
15. Casey's Last Ride (3:57)
16. Hard Times (3:26)
17. Calling My Children Home (3:01)
18. Walls Of Time (4:46)
19. When I Paint My Masterpiece (4:19)
20. No Regrets (5:39)


Exact Audio Copy V1.6 from 23. October 2020

EAC extraction logfile from 4. May 2021, 16:06

Emmylou Harris / Portraits (Disc 1)

Used drive : PLEXTOR PX-891SAF Adapter: 1 ID: 0

Read mode : Secure
Utilize accurate stream : Yes
Defeat audio cache : Yes
Make use of C2 pointers : No

Read offset correction : 6
Overread into Lead-In and Lead-Out : No
Fill up missing offset samples with silence : Yes
Delete leading and trailing silent blocks : No
Null samples used in CRC calculations : Yes
Used interface : Native Win32 interface for Win NT & 2000
Gap handling : Appended to previous track

Used output format : User Defined Encoder
Selected bitrate : 1024 kBit/s
Quality : High
Add ID3 tag : No
Command line compressor : C:\Program Files (x86)\Exact Audio Copy\Flac\flac.exe
Additional command line options : -V -6 -T "artist=%artist%" -T "title=%title%" -T "album=%albumtitle%" -T "album artist=%albumartist%" -T "date=%year%" -T "tracknumber=%tracknr%" -T "totaltracks=%numtracks%" -T "discnumber=%cdnumber%" -T "totaldiscs=%totalcds%" -T "genre=%genre%" %source% -o %dest%


TOC of the extracted CD

Track | Start | Length | Start sector | End sector
––––––––––––––––––––––––––––-
1 | 0:00.00 | 3:34.65 | 0 | 16114
2 | 3:34.65 | 4:43.50 | 16115 | 37389
3 | 8:18.40 | 3:38.70 | 37390 | 53809
4 | 11:57.35 | 3:43.50 | 53810 | 70584
5 | 15:41.10 | 2:23.65 | 70585 | 81374
6 | 18:05.00 | 3:22.55 | 81375 | 96579
7 | 21:27.55 | 4:05.05 | 96580 | 114959
8 | 25:32.60 | 2:36.20 | 114960 | 126679
9 | 28:09.05 | 5:33.65 | 126680 | 151719
10 | 33:42.70 | 3:03.10 | 151720 | 165454
11 | 36:46.05 | 3:52.60 | 165455 | 182914
12 | 40:38.65 | 3:40.55 | 182915 | 199469
13 | 44:19.45 | 2:53.05 | 199470 | 212449
14 | 47:12.50 | 4:02.00 | 212450 | 230599
15 | 51:14.50 | 3:40.65 | 230600 | 247164
16 | 54:55.40 | 3:34.70 | 247165 | 263284
17 | 58:30.35 | 4:49.52 | 263285 | 285011
18 | 63:20.12 | 3:07.73 | 285012 | 299109
19 | 66:28.10 | 3:26.55 | 299110 | 314614
20 | 69:54.65 | 3:06.52 | 314615 | 328616


Track 1

Filename D:\WORKING\01. Boulder To Birmingham.wav

Pre-gap length 0:00:02.00

Peak level 99.3 %
Extraction speed 5.6 X
Track quality 100.0 %
Test CRC AAE3E7EC
Copy CRC AAE3E7EC
Accurately ripped (confidence 31) [80F4F564] (AR v2)
Copy OK

Track 2

Filename D:\WORKING\02. Before Believing.wav

Peak level 99.2 %
Extraction speed 6.3 X
Track quality 100.0 %
Test CRC ADD72B7B
Copy CRC ADD72B7B
Accurately ripped (confidence 31) [765D52BE] (AR v2)
Copy OK

Track 3

Filename D:\WORKING\03. Love Hurts.wav

Peak level 90.5 %
Extraction speed 6.7 X
Track quality 100.0 %
Test CRC 65EB911A
Copy CRC 65EB911A
Accurately ripped (confidence 31) [65901E78] (AR v2)
Copy OK

Track 4

Filename D:\WORKING\04. In My Hour Of Darkness.wav

Peak level 88.4 %
Extraction speed 7.1 X
Track quality 100.0 %
Test CRC 1AD452A2
Copy CRC 1AD452A2
Accurately ripped (confidence 31) [F5AE6E79] (AR v2)
Copy OK

Track 5

Filename D:\WORKING\05. Angels Rejoiced Last Night.wav

Peak level 99.9 %
Extraction speed 6.7 X
Track quality 100.0 %
Test CRC 39A0CF9D
Copy CRC 39A0CF9D
Accurately ripped (confidence 31) [27802C38] (AR v2)
Copy OK

Track 6

Filename D:\WORKING\06. Sleepness Nights.wav

Peak level 99.9 %
Extraction speed 7.5 X
Track quality 100.0 %
Test CRC 4528C396
Copy CRC 4528C396
Accurately ripped (confidence 31) [44D486CA] (AR v2)
Copy OK

Track 7

Filename D:\WORKING\07. Too Far Gone.wav

Peak level 99.9 %
Extraction speed 8.0 X
Track quality 100.0 %
Test CRC 88D847A2
Copy CRC 88D847A2
Accurately ripped (confidence 31) [04D7AF9E] (AR v2)
Copy OK

Track 8

Filename D:\WORKING\08. If I Could Only Win Your Love.wav

Peak level 99.9 %
Extraction speed 7.8 X
Track quality 100.0 %
Test CRC 1408AF75
Copy CRC 1408AF75
Accurately ripped (confidence 30) [2778310C] (AR v2)
Copy OK

Track 9

Filename D:\WORKING\09. Till I Gain Control Again.wav

Peak level 99.9 %
Extraction speed 9.0 X
Track quality 100.0 %
Test CRC ECCD66E1
Copy CRC ECCD66E1
Accurately ripped (confidence 31) [52802455] (AR v2)
Copy OK

Track 10

Filename D:\WORKING\10. One Of Those Days.wav

Peak level 99.3 %
Extraction speed 8.5 X
Track quality 100.0 %
Test CRC BE8A81E1
Copy CRC BE8A81E1
Accurately ripped (confidence 31) [44F7CD0C] (AR v2)
Copy OK

Track 11

Filename D:\WORKING\11. Together Again.wav

Peak level 99.3 %
Extraction speed 9.0 X
Track quality 100.0 %
Test CRC F68A6FF1
Copy CRC F68A6FF1
Accurately ripped (confidence 30) [D75F5637] (AR v2)
Copy OK

Track 12

Filename D:\WORKING\12. Here, There And Everywhere.wav

Peak level 99.9 %
Extraction speed 8.4 X
Track quality 99.9 %
Test CRC 62D8A83A
Copy CRC 62D8A83A
Accurately ripped (confidence 31) [89B0E2EC] (AR v2)
Copy OK

Track 13

Filename D:\WORKING\13. You're Still On My Mind.wav

Peak level 99.3 %
Extraction speed 9.3 X
Track quality 100.0 %
Test CRC 552FBF31
Copy CRC 552FBF31
Accurately ripped (confidence 31) [D9BBA873] (AR v2)
Copy OK

Track 14

Filename D:\WORKING\14. Sweet Dreams.wav

Peak level 99.2 %
Extraction speed 8.9 X
Track quality 99.9 %
Test CRC BCCB949E
Copy CRC BCCB949E
Accurately ripped (confidence 31) [8A558F7C] (AR v2)
Copy OK

Track 15

Filename D:\WORKING\15. Luxury Liner.wav

Peak level 99.9 %
Extraction speed 10.1 X
Track quality 100.0 %
Test CRC 3ABB9EED
Copy CRC 3ABB9EED
Accurately ripped (confidence 30) [7E49AC01] (AR v2)
Copy OK

Track 16

Filename D:\WORKING\16. Making Believe.wav

Peak level 99.9 %
Extraction speed 10.3 X
Track quality 100.0 %
Test CRC 623D3396
Copy CRC 623D3396
Accurately ripped (confidence 31) [20650D20] (AR v2)
Copy OK

Track 17

Filename D:\WORKING\17. Pancho & Lefty.wav

Peak level 99.9 %
Extraction speed 11.0 X
Track quality 100.0 %
Test CRC 3AD4EFFF
Copy CRC 3AD4EFFF
Accurately ripped (confidence 31) [B71A5E5A] (AR v2)
Copy OK

Track 18

Filename D:\WORKING\18. Two More Bottles Of Wine.wav

Peak level 99.3 %
Extraction speed 10.4 X
Track quality 100.0 %
Test CRC 3AE1E693
Copy CRC 3AE1E693
Accurately ripped (confidence 31) [F0EBA54F] (AR v2)
Copy OK

Track 19

Filename D:\WORKING\19. You Never Can Tell (C'est La Vie).wav

Peak level 99.9 %
Extraction speed 10.8 X
Track quality 100.0 %
Test CRC B53BDC2B
Copy CRC B53BDC2B
Accurately ripped (confidence 31) [A16BA99B] (AR v2)
Copy OK

Track 20

Filename D:\WORKING\20. Easy From Now On.wav

Peak level 99.9 %
Extraction speed 10.7 X
Track quality 100.0 %
Test CRC 1B82DF18
Copy CRC 1B82DF18
Accurately ripped (confidence 31) [DA427EED] (AR v2)
Copy OK


All tracks accurately ripped

No errors occurred

End of status report

–– CUETools DB Plugin V2.1.6

[CTDB TOCID: 2y9pjlvrjVUAuRqijTnZ2JRs8Ik-] found
Submit result: 2y9pjlvrjVUAuRqijTnZ2JRs8Ik- has been confirmed
Track | CTDB Status
1 | (38/38) Accurately ripped
2 | (37/38) Accurately ripped
3 | (36/38) Accurately ripped
4 | (38/38) Accurately ripped
5 | (38/38) Accurately ripped
6 | (38/38) Accurately ripped
7 | (37/38) Accurately ripped
8 | (37/38) Accurately ripped
9 | (37/38) Accurately ripped
10 | (38/38) Accurately ripped
11 | (37/38) Accurately ripped
12 | (36/38) Accurately ripped
13 | (36/38) Accurately ripped
14 | (36/38) Accurately ripped
15 | (37/38) Accurately ripped
16 | (37/38) Accurately ripped
17 | (37/38) Accurately ripped
18 | (37/38) Accurately ripped
19 | (37/38) Accurately ripped
20 | (37/38) Accurately ripped


==== Log checksum BA400B736B1E8D2C09C351E6E7D2B303480974A3F246AA7C8A6908A849CBC8CD ====

[CUETools log; Date: 01.07.2021 15:58:54; Version: 2.1.7]
[CTDB TOCID: 2y9pjlvrjVUAuRqijTnZ2JRs8Ik-] found.
Track | CTDB Status
1 | (39/39) Accurately ripped
2 | (38/39) Accurately ripped
3 | (37/39) Accurately ripped
4 | (39/39) Accurately ripped
5 | (39/39) Accurately ripped
6 | (39/39) Accurately ripped
7 | (38/39) Accurately ripped
8 | (38/39) Accurately ripped
9 | (38/39) Accurately ripped
10 | (39/39) Accurately ripped
11 | (38/39) Accurately ripped
12 | (37/39) Accurately ripped
13 | (37/39) Accurately ripped
14 | (37/39) Accurately ripped
15 | (38/39) Accurately ripped
16 | (38/39) Accurately ripped
17 | (38/39) Accurately ripped
18 | (38/39) Accurately ripped
19 | (38/39) Accurately ripped
20 | (38/39) Accurately ripped
[AccurateRip ID: 00351195-03092a5f-18111d14] found.
Track [ CRC | V2 ] Status
01 [46e936a5|80f4f564] (20+31/53) Accurately ripped
02 [69ae6e91|765d52be] (21+31/54) Accurately ripped
03 [b75a9bb4|65901e78] (20+31/53) Accurately ripped
04 [a667c49a|f5ae6e79] (20+31/53) Accurately ripped
05 [523619f9|27802c38] (20+31/53) Accurately ripped
06 [d6e0aecf|44d486ca] (21+31/54) Accurately ripped
07 [4ce926f8|04d7af9e] (20+31/53) Accurately ripped
08 [e6238468|2778310c] (20+30/52) Accurately ripped
09 [1481927d|52802455] (20+31/53) Accurately ripped
10 [6946ba6a|44f7cd0c] (20+31/53) Accurately ripped
11 [d9170f18|d75f5637] (20+30/52) Accurately ripped
12 [8909016e|89b0e2ec] (20+31/53) Accurately ripped
13 [af6119a6|d9bba873] (20+31/53) Accurately ripped
14 [3f0f9b28|8a558f7c] (20+31/53) Accurately ripped
15 [0ebff679|7e49ac01] (20+30/52) Accurately ripped
16 [cf6455ca|20650d20] (20+31/53) Accurately ripped
17 [a76805a1|b71a5e5a] (20+31/53) Accurately ripped
18 [0cda33ed|f0eba54f] (20+31/53) Accurately ripped
19 [47d29596|a16ba99b] (20+31/53) Accurately ripped
20 [98aefb70|da427eed] (20+31/53) Accurately ripped
Offsetted by -664:
01 [a34e4585] (00/53) No match (V2 was not tested)
02 [b952a561] (00/54) No match (V2 was not tested)
03 [82ab16c4] (00/53) No match (V2 was not tested)
04 [e77721b2] (00/53) No match (V2 was not tested)
05 [20ad6079] (00/53) No match (V2 was not tested)
06 [f1db43c7] (00/54) No match (V2 was not tested)
07 [c03c9d68] (00/53) No match (V2 was not tested)
08 [06791538] (00/52) No match (V2 was not tested)
09 [d3a1b10d] (00/53) No match (V2 was not tested)
10 [48ab2192] (00/53) No match (V2 was not tested)
11 [35cc7f40] (00/52) No match (V2 was not tested)
12 [cee5e02e] (00/53) No match (V2 was not tested)
13 [61c62447] (00/53) No match (V2 was not tested)
14 [4460a34f] (00/53) No match (V2 was not tested)
15 [b3bb5531] (00/52) No match (V2 was not tested)
16 [3a01285a] (00/53) No match (V2 was not tested)
17 [ef32a679] (00/53) No match (V2 was not tested)
18 [4178b325] (00/53) No match (V2 was not tested)
19 [b5647a56] (00/53) No match (V2 was not tested)
20 [d7d9a298] (00/53) No match (V2 was not tested)

Track Peak [ CRC32 ] [W/O NULL] [ LOG ]
– 99,9 [89BDDF32] [4E6170C2]
01 99,2 [AAE3E7EC] [A68B4A92] CRC32
02 99,2 [ADD72B7B] [9C0AF563] CRC32
03 90,5 [65EB911A] [A5129894] CRC32
04 88,4 [1AD452A2] [0AB7110D] CRC32
05 99,9 [39A0CF9D] [67ED0C0E] CRC32
06 99,9 [4528C396] [7962B497] CRC32
07 99,9 [88D847A2] [0E45AD99] CRC32
08 99,9 [1408AF75] [D99E3012] CRC32
09 99,9 [ECCD66E1] [A2925E47] CRC32
10 99,2 [BE8A81E1] [28CA247F] CRC32
11 99,2 [F68A6FF1] [ED1639A5] CRC32
12 99,9 [62D8A83A] [F0CB6A9C] CRC32
13 99,2 [552FBF31] [B10B85DE] CRC32
14 99,2 [BCCB949E] [41AF1981] CRC32
15 99,9 [3ABB9EED] [C265F1FC] CRC32
16 99,9 [623D3396] [31AB05CB] CRC32
17 99,9 [3AD4EFFF] [A140441A] CRC32
18 99,2 [3AE1E693] [20071496] CRC32
19 99,9 [B53BDC2B] [516EF03D] CRC32
20 99,9 [1B82DF18] [6A8E77A5] CRC32

foobar2000 1.6.3 / Dynamic Range Meter 1.1.1
log date: 2021-07-01 16:11:58

––––––––––––––––––––––––––––––––––––––––
Analyzed: Emmylou Harris with Gram Parsons / Portraits (Disc 1) (1-4)
Emmylou Harris / Portraits (Disc 1) (5-20)
––––––––––––––––––––––––––––––––––––––––

DR Peak RMS Duration Track
––––––––––––––––––––––––––––––––––––––––
DR12 -0.87 dB -16.75 dB 3:39 03-Love Hurts
DR11 -1.06 dB -14.43 dB 3:44 04-In My Hour Of Darkness
DR12 0.00 dB -15.23 dB 2:24 05-Angels Rejoiced Last Night
DR12 0.00 dB -14.76 dB 3:23 06-Sleepness Nights
DR13 -0.06 dB -18.40 dB 3:35 01-Boulder To Birmingham
DR14 -0.06 dB -18.79 dB 4:44 02-Before Believing
DR11 0.00 dB -16.60 dB 4:05 07-Too Far Gone
DR12 0.00 dB -15.54 dB 2:36 08-If I Could Only Win Your Love
DR13 0.00 dB -18.26 dB 5:34 09-Till I Gain Control Again
DR12 -0.06 dB -15.41 dB 3:03 10-One Of Those Days
DR13 -0.06 dB -15.81 dB 3:53 11-Together Again
DR12 0.00 dB -17.08 dB 3:41 12-Here, There And Everywhere
DR13 -0.06 dB -16.17 dB 2:53 13-You're Still On My Mind
DR11 -0.06 dB -14.49 dB 4:02 14-Sweet Dreams
DR12 0.00 dB -15.30 dB 3:41 15-Luxury Liner
DR12 0.00 dB -16.24 dB 3:35 16-Making Believe
DR12 0.00 dB -15.69 dB 4:50 17-Pancho & Lefty
DR12 -0.06 dB -14.68 dB 3:08 18-Two More Bottles Of Wine
DR13 0.00 dB -15.56 dB 3:27 19-You Never Can Tell (C'est La Vie)
DR13 0.00 dB -16.62 dB 3:07 20-Easy From Now On
––––––––––––––––––––––––––––––––––––––––

Number of tracks: 20
Official DR value: DR12

Samplerate: 44100 Hz
Channels: 2
Bits per sample: 16
Bitrate: 795 kbps
Codec: FLAC
================================================================================


Exact Audio Copy V1.6 from 23. October 2020

EAC extraction logfile from 4. May 2021, 16:39

Emmylou Harris / Portraits (Disc 2)

Used drive : PLEXTOR PX-891SAF Adapter: 1 ID: 0

Read mode : Secure
Utilize accurate stream : Yes
Defeat audio cache : Yes
Make use of C2 pointers : No

Read offset correction : 6
Overread into Lead-In and Lead-Out : No
Fill up missing offset samples with silence : Yes
Delete leading and trailing silent blocks : No
Null samples used in CRC calculations : Yes
Used interface : Native Win32 interface for Win NT & 2000
Gap handling : Appended to previous track

Used output format : User Defined Encoder
Selected bitrate : 1024 kBit/s
Quality : High
Add ID3 tag : No
Command line compressor : C:\Program Files (x86)\Exact Audio Copy\Flac\flac.exe
Additional command line options : -V -6 -T "artist=%artist%" -T "title=%title%" -T "album=%albumtitle%" -T "album artist=%albumartist%" -T "date=%year%" -T "tracknumber=%tracknr%" -T "totaltracks=%numtracks%" -T "discnumber=%cdnumber%" -T "totaldiscs=%totalcds%" -T "genre=%genre%" %source% -o %dest%


TOC of the extracted CD

Track | Start | Length | Start sector | End sector
––––––––––––––––––––––––––––-
1 | 0:00.00 | 3:59.07 | 0 | 17931
2 | 3:59.07 | 3:00.13 | 17932 | 31444
3 | 6:59.20 | 3:42.30 | 31445 | 48124
4 | 10:41.50 | 3:18.50 | 48125 | 63024
5 | 14:00.25 | 2:48.15 | 63025 | 75639
6 | 16:48.40 | 3:11.42 | 75640 | 90006
7 | 20:00.07 | 3:41.15 | 90007 | 106596
8 | 23:41.22 | 2:20.05 | 106597 | 117101
9 | 26:01.27 | 4:40.45 | 117102 | 138146
10 | 30:41.72 | 3:35.05 | 138147 | 154276
11 | 34:17.02 | 2:32.45 | 154277 | 165721
12 | 36:49.47 | 3:17.25 | 165722 | 180521
13 | 40:06.72 | 3:27.05 | 180522 | 196051
14 | 43:34.02 | 4:04.50 | 196052 | 214401
15 | 47:38.52 | 3:26.53 | 214402 | 229904
16 | 51:05.30 | 3:55.37 | 229905 | 247566
17 | 55:00.67 | 3:07.25 | 247567 | 261616
18 | 58:08.17 | 3:46.20 | 261617 | 278586
19 | 61:54.37 | 4:38.15 | 278587 | 299451
20 | 66:32.52 | 2:58.65 | 299452 | 312866
21 | 69:31.42 | 3:59.38 | 312867 | 330829


Track 1

Filename D:\WORKING\01. Hello Stranger.wav

Pre-gap length 0:00:02.00

Peak level 99.9 %
Extraction speed 5.7 X
Track quality 100.0 %
Test CRC 5C814CC9
Copy CRC 5C814CC9
Accurately ripped (confidence 32) [5A24594D] (AR v2)
Copy OK

Track 2

Filename D:\WORKING\02. Everytime You Leave.wav

Peak level 99.9 %
Extraction speed 5.9 X
Track quality 100.0 %
Test CRC 07974A33
Copy CRC 07974A33
Accurately ripped (confidence 32) [CA72720C] (AR v2)
Copy OK

Track 3

Filename D:\WORKING\03. Beneath Still Waters.wav

Peak level 89.3 %
Extraction speed 5.8 X
Track quality 99.9 %
Test CRC AED337A1
Copy CRC AED337A1
Accurately ripped (confidence 32) [C59EE859] (AR v2)
Copy OK

Track 4

Filename D:\WORKING\04. Blue Kentucky Girl.wav

Peak level 99.9 %
Extraction speed 6.8 X
Track quality 100.0 %
Test CRC A98ECC9F
Copy CRC A98ECC9F
Accurately ripped (confidence 32) [6C50BBA0] (AR v2)
Copy OK

Track 5

Filename D:\WORKING\05. To Daddy.wav

Peak level 99.9 %
Extraction speed 6.9 X
Track quality 100.0 %
Test CRC 0EDE871E
Copy CRC 0EDE871E
Accurately ripped (confidence 32) [4DFE695B] (AR v2)
Copy OK

Track 6

Filename D:\WORKING\06. Evangeline.wav

Peak level 99.9 %
Extraction speed 6.4 X
Track quality 99.9 %
Test CRC FAE15525
Copy CRC FAE15525
Accurately ripped (confidence 33) [781E2098] (AR v2)
Copy OK

Track 7

Filename D:\WORKING\07. Save The Last Dance For Me.wav

Peak level 99.9 %
Extraction speed 7.8 X
Track quality 100.0 %
Test CRC 7FD41FFC
Copy CRC 7FD41FFC
Accurately ripped (confidence 32) [9C744A20] (AR v2)
Copy OK

Track 8

Filename D:\WORKING\08. Mister Sandman.wav

Peak level 99.9 %
Extraction speed 6.2 X
Track quality 99.9 %
Test CRC 78B8A9CC
Copy CRC 78B8A9CC
Accurately ripped (confidence 32) [7A3FF6BA] (AR v2)
Copy OK

Track 9

Filename D:\WORKING\09. And I Love You So.wav

Peak level 99.9 %
Extraction speed 8.6 X
Track quality 100.0 %
Test CRC 987B63EB
Copy CRC 987B63EB
Accurately ripped (confidence 31) [A7B046A0] (AR v2)
Copy OK

Track 10

Filename D:\WORKING\10. If I Needed You.wav

Peak level 99.9 %
Extraction speed 8.7 X
Track quality 100.0 %
Test CRC BEB1292C
Copy CRC BEB1292C
Accurately ripped (confidence 31) [86558D39] (AR v2)
Copy OK

Track 11

Filename D:\WORKING\11. Roses In The Snow.wav

Peak level 99.9 %
Extraction speed 8.5 X
Track quality 100.0 %
Test CRC A3FDB71B
Copy CRC A3FDB71B
Accurately ripped (confidence 33) [AE9B5211] (AR v2)
Copy OK

Track 12

Filename D:\WORKING\12. The Boxer.wav

Peak level 99.9 %
Extraction speed 9.0 X
Track quality 100.0 %
Test CRC 99E3C002
Copy CRC 99E3C002
Accurately ripped (confidence 31) [37CD7444] (AR v2)
Copy OK

Track 13

Filename D:\WORKING\13. Wayfaring Stranger.wav

Peak level 99.9 %
Extraction speed 9.2 X
Track quality 100.0 %
Test CRC 27AFDC8B
Copy CRC 27AFDC8B
Accurately ripped (confidence 33) [5E15EAC6] (AR v2)
Copy OK

Track 14

Filename D:\WORKING\14. Millworker.wav

Peak level 99.9 %
Extraction speed 8.6 X
Track quality 99.9 %
Test CRC 07360657
Copy CRC 07360657
Accurately ripped (confidence 32) [F2DC8879] (AR v2)
Copy OK

Track 15

Filename D:\WORKING\15. Dimming Of The Day.wav

Peak level 99.9 %
Extraction speed 9.6 X
Track quality 100.0 %
Test CRC 4E45077D
Copy CRC 4E45077D
Accurately ripped (confidence 32) [A48AFE04] (AR v2)
Copy OK

Track 16

Filename D:\WORKING\16. Heaven Ain't Ready For You Yet.wav

Peak level 99.3 %
Extraction speed 10.1 X
Track quality 100.0 %
Test CRC 310A6993
Copy CRC 310A6993
Accurately ripped (confidence 32) [05E7F2A0] (AR v2)
Copy OK

Track 17

Filename D:\WORKING\17. Juanita.wav

Peak level 99.3 %
Extraction speed 9.9 X
Track quality 100.0 %
Test CRC D53C95A8
Copy CRC D53C95A8
Accurately ripped (confidence 32) [892352E2] (AR v2)
Copy OK

Track 18

Filename D:\WORKING\18. Born To Run.wav

Peak level 99.9 %
Extraction speed 10.4 X
Track quality 100.0 %
Test CRC 23D0F161
Copy CRC 23D0F161
Accurately ripped (confidence 32) [23FA1293] (AR v2)
Copy OK

Track 19

Filename D:\WORKING\19. The Price You Pay.wav

Peak level 99.9 %
Extraction speed 9.9 X
Track quality 99.9 %
Test CRC 9D5633DC
Copy CRC 9D5633DC
Accurately ripped (confidence 32) [47E05DCE] (AR v2)
Copy OK

Track 20

Filename D:\WORKING\20. Sweet Chariot.wav

Peak level 99.3 %
Extraction speed 10.7 X
Track quality 100.0 %
Test CRC C867A76E
Copy CRC C867A76E
Accurately ripped (confidence 33) [DF671C9D] (AR v2)
Copy OK

Track 21

Filename D:\WORKING\21. That Lovin' You Feelin' Again.wav

Peak level 99.9 %
Extraction speed 11.1 X
Track quality 100.0 %
Test CRC 1C3A381D
Copy CRC 1C3A381D
Accurately ripped (confidence 31) [6030A5A9] (AR v2)
Copy OK


All tracks accurately ripped

No errors occurred

End of status report

–– CUETools DB Plugin V2.1.6

[CTDB TOCID: 0XxbdKn6XzSDIdau2_FcF9GQ5yg-] found
Submit result: 0XxbdKn6XzSDIdau2_FcF9GQ5yg- has been confirmed
Track | CTDB Status
1 | (38/40) Accurately ripped
2 | (37/40) Accurately ripped
3 | (38/40) Accurately ripped
4 | (40/40) Accurately ripped
5 | (40/40) Accurately ripped
6 | (40/40) Accurately ripped
7 | (37/40) Accurately ripped
8 | (37/40) Accurately ripped
9 | (38/40) Accurately ripped
10 | (36/40) Accurately ripped
11 | (38/40) Accurately ripped
12 | (39/40) Accurately ripped
13 | (36/40) Accurately ripped
14 | (37/40) Accurately ripped
15 | (38/40) Accurately ripped
16 | (40/40) Accurately ripped
17 | (38/40) Accurately ripped
18 | (40/40) Accurately ripped
19 | (38/40) Accurately ripped
20 | (38/40) Accurately ripped
21 | (36/40) Accurately ripped


==== Log checksum 91D29EB420D297BADEA39F377992CC295DCDE2B7179B27F9167630D8D714692D ====

[CUETools log; Date: 01.07.2021 16:25:34; Version: 2.1.7]
[CTDB TOCID: 0XxbdKn6XzSDIdau2_FcF9GQ5yg-] found.
Track | CTDB Status
1 | (39/41) Accurately ripped
2 | (38/41) Accurately ripped
3 | (39/41) Accurately ripped
4 | (41/41) Accurately ripped
5 | (41/41) Accurately ripped
6 | (41/41) Accurately ripped
7 | (38/41) Accurately ripped
8 | (38/41) Accurately ripped
9 | (39/41) Accurately ripped
10 | (37/41) Accurately ripped
11 | (39/41) Accurately ripped
12 | (40/41) Accurately ripped
13 | (37/41) Accurately ripped
14 | (38/41) Accurately ripped
15 | (39/41) Accurately ripped
16 | (41/41) Accurately ripped
17 | (39/41) Accurately ripped
18 | (41/41) Accurately ripped
19 | (39/41) Accurately ripped
20 | (39/41) Accurately ripped
21 | (37/41) Accurately ripped
[AccurateRip ID: 0036518c-03431d22-00113b15] found.
Track [ CRC | V2 ] Status
01 [9fc163f0|5a24594d] (22+32/56) Accurately ripped
02 [c22197e6|ca72720c] (22+32/56) Accurately ripped
03 [bf3441ef|c59ee859] (22+32/56) Accurately ripped
04 [ea5e7ea5|6c50bba0] (22+32/56) Accurately ripped
05 [9a7fd992|4dfe695b] (22+32/56) Accurately ripped
06 [687cd02f|781e2098] (22+33/57) Accurately ripped
07 [8496ebf5|9c744a20] (22+32/56) Accurately ripped
08 [9e07ec41|7a3ff6ba] (22+32/56) Accurately ripped
09 [0ec449a6|a7b046a0] (22+31/55) Accurately ripped
10 [a13fef39|86558d39] (22+31/55) Accurately ripped
11 [3f7152d8|ae9b5211] (22+33/57) Accurately ripped
12 [e200f6e5|37cd7444] (22+31/55) Accurately ripped
13 [92d17867|5e15eac6] (22+33/57) Accurately ripped
14 [4acf01e3|f2dc8879] (22+32/56) Accurately ripped
15 [e86895e2|a48afe04] (22+32/56) Accurately ripped
16 [9eff533e|05e7f2a0] (22+32/56) Accurately ripped
17 [eddbba08|892352e2] (22+32/56) Accurately ripped
18 [a5f16ba7|23fa1293] (21+32/55) Accurately ripped
19 [3fc889b6|47e05dce] (22+32/56) Accurately ripped
20 [082c8608|df671c9d] (22+33/57) Accurately ripped
21 [ce185157|6030a5a9] (22+31/55) Accurately ripped
Offsetted by -664:
01 [ceff0910] (00/56) No match (V2 was not tested)
02 [35b874d6] (00/56) No match (V2 was not tested)
03 [ce64d03f] (00/56) No match (V2 was not tested)
04 [1d30c285] (00/56) No match (V2 was not tested)
05 [4d879ba2] (00/56) No match (V2 was not tested)
06 [bc770d17] (00/57) No match (V2 was not tested)
07 [b872cadd] (00/56) No match (V2 was not tested)
08 [c6d65279] (00/56) No match (V2 was not tested)
09 [09ecdc36] (00/55) No match (V2 was not tested)
10 [64429b11] (00/55) No match (V2 was not tested)
11 [6d2c77c0] (00/57) No match (V2 was not tested)
12 [ab528315] (00/55) No match (V2 was not tested)
13 [7729c33f] (00/57) No match (V2 was not tested)
14 [c215c6eb] (00/56) No match (V2 was not tested)
15 [ce5b3332] (00/56) No match (V2 was not tested)
16 [0e44426e] (00/56) No match (V2 was not tested)
17 [2013d6d0] (00/56) No match (V2 was not tested)
18 [6cd81d5f] (00/55) No match (V2 was not tested)
19 [d24a6afe] (00/56) No match (V2 was not tested)
20 [1b7f65f8] (00/57) No match (V2 was not tested)
21 [654c1517] (00/55) No match (V2 was not tested)

Track Peak [ CRC32 ] [W/O NULL] [ LOG ]
– 99,9 [A5D1FC3E] [D07EA7CB]
01 99,9 [5C814CC9] [3047759B] CRC32
02 99,9 [07974A33] [24BAF2B9] CRC32
03 89,3 [AED337A1] [4AD91486] CRC32
04 99,9 [A98ECC9F] [5D0FC54C] CRC32
05 99,9 [0EDE871E] [72A3AC99] CRC32
06 99,9 [FAE15525] [C71B0655] CRC32
07 99,9 [7FD41FFC] [0D10149E] CRC32
08 99,9 [78B8A9CC] [0BF2965A] CRC32
09 99,9 [987B63EB] [90565A50] CRC32
10 99,9 [BEB1292C] [EF867935] CRC32
11 99,9 [A3FDB71B] [6D19F90A] CRC32
12 99,9 [99E3C002] [7C0A2638] CRC32
13 99,9 [27AFDC8B] [32157251] CRC32
14 99,9 [07360657] [A872FF85] CRC32
15 99,9 [4E45077D] [E6183622] CRC32
16 99,2 [310A6993] [A495B924] CRC32
17 99,2 [D53C95A8] [FE305682] CRC32
18 99,9 [23D0F161] [49A29760] CRC32
19 99,9 [9D5633DC] [32E668C5] CRC32
20 99,2 [C867A76E] [9388AA53] CRC32
21 99,9 [1C3A381D] [3873DF4A] CRC32

foobar2000 1.6.3 / Dynamic Range Meter 1.1.1
log date: 2021-07-01 16:12:20

––––––––––––––––––––––––––––––––––––––––
Analyzed: Emmylou Harris with Dolly Parton and Linda Ronstadt / Portraits (Disc 2) (1)
Emmylou Harris with Don Everly / Portraits (Disc 2) (2)
Emmylou Harris with Don Williams / Portraits (Disc 2) (3)
Emmylou Harris with Roy Orbison / Portraits (Disc 2) (4)
Emmylou Harris with The Band / Portraits (Disc 2) (5)
Emmylou Harris / Portraits (Disc 2) (6-21)
––––––––––––––––––––––––––––––––––––––––

DR Peak RMS Duration Track
––––––––––––––––––––––––––––––––––––––––
DR14 0.00 dB -16.53 dB 2:20 08-Mister Sandman
DR12 0.00 dB -14.37 dB 3:00 02-Everytime You Leave
DR14 0.00 dB -16.68 dB 3:35 10-If I Needed You
DR12 0.00 dB -14.64 dB 4:00 21-That Lovin' You Feelin' Again
DR13 0.00 dB -16.12 dB 3:12 06-Evangeline
DR13 0.00 dB -16.48 dB 3:59 01-Hello Stranger
DR12 -0.98 dB -16.21 dB 3:42 03-Beneath Still Waters
DR12 0.00 dB -14.75 dB 3:19 04-Blue Kentucky Girl
DR12 0.00 dB -18.22 dB 2:48 05-To Daddy
DR13 0.00 dB -16.60 dB 3:41 07-Save The Last Dance For Me
DR13 0.00 dB -17.83 dB 4:41 09-And I Love You So
DR11 0.00 dB -13.48 dB 2:33 11-Roses In The Snow
DR11 0.00 dB -13.75 dB 3:17 12-The Boxer
DR13 0.00 dB -15.99 dB 3:27 13-Wayfaring Stranger
DR13 0.00 dB -15.69 dB 4:05 14-Millworker
DR14 0.00 dB -17.63 dB 3:27 15-Dimming Of The Day
DR14 -0.06 dB -17.33 dB 3:55 16-Heaven Ain't Ready For You Yet
DR12 -0.06 dB -14.23 dB 3:07 17-Juanita
DR13 0.00 dB -15.11 dB 3:46 18-Born To Run
DR14 0.00 dB -16.69 dB 4:38 19-The Price You Pay
DR14 -0.06 dB -18.17 dB 2:59 20-Sweet Chariot
––––––––––––––––––––––––––––––––––––––––

Number of tracks: 21
Official DR value: DR13

Samplerate: 44100 Hz
Channels: 2
Bits per sample: 16
Bitrate: 741 kbps
Codec: FLAC
================================================================================


Exact Audio Copy V1.6 from 23. October 2020

EAC extraction logfile from 4. May 2021, 17:13

Emmylou Harris / Portraits (Disc 3)

Used drive : PLEXTOR PX-891SAF Adapter: 1 ID: 0

Read mode : Secure
Utilize accurate stream : Yes
Defeat audio cache : Yes
Make use of C2 pointers : No

Read offset correction : 6
Overread into Lead-In and Lead-Out : No
Fill up missing offset samples with silence : Yes
Delete leading and trailing silent blocks : No
Null samples used in CRC calculations : Yes
Used interface : Native Win32 interface for Win NT & 2000
Gap handling : Appended to previous track

Used output format : User Defined Encoder
Selected bitrate : 1024 kBit/s
Quality : High
Add ID3 tag : No
Command line compressor : C:\Program Files (x86)\Exact Audio Copy\Flac\flac.exe
Additional command line options : -V -6 -T "artist=%artist%" -T "title=%title%" -T "album=%albumtitle%" -T "album artist=%albumartist%" -T "date=%year%" -T "tracknumber=%tracknr%" -T "totaltracks=%numtracks%" -T "discnumber=%cdnumber%" -T "totaldiscs=%totalcds%" -T "genre=%genre%" %source% -o %dest%


TOC of the extracted CD

Track | Start | Length | Start sector | End sector
––––––––––––––––––––––––––––-
1 | 0:00.00 | 3:14.60 | 0 | 14609
2 | 3:14.60 | 4:38.55 | 14610 | 35514
3 | 7:53.40 | 3:50.30 | 35515 | 52794
4 | 11:43.70 | 2:34.55 | 52795 | 64399
5 | 14:18.50 | 4:09.02 | 64400 | 83076
6 | 18:27.52 | 3:03.08 | 83077 | 96809
7 | 21:30.60 | 2:50.20 | 96810 | 109579
8 | 24:21.05 | 5:04.60 | 109580 | 132439
9 | 29:25.65 | 3:13.07 | 132440 | 146921
10 | 32:38.72 | 4:08.45 | 146922 | 165566
11 | 36:47.42 | 3:08.18 | 165567 | 179684
12 | 39:55.60 | 3:34.45 | 179685 | 195779
13 | 43:30.30 | 3:32.10 | 195780 | 211689
14 | 47:02.40 | 3:27.55 | 211690 | 227269
15 | 50:30.20 | 3:56.32 | 227270 | 245001
16 | 54:26.52 | 3:25.48 | 245002 | 260424
17 | 57:52.25 | 3:00.60 | 260425 | 273984
18 | 60:53.10 | 4:45.10 | 273985 | 295369
19 | 65:38.20 | 4:18.40 | 295370 | 314759
20 | 69:56.60 | 5:38.52 | 314760 | 340161


Track 1

Filename D:\WORKING\01. In My Dreams.wav

Pre-gap length 0:00:02.00

Peak level 99.9 %
Extraction speed 5.5 X
Track quality 100.0 %
Test CRC 8C702A76
Copy CRC 8C702A76
Accurately ripped (confidence 31) [F95BA2B4] (AR v2)
Copy OK

Track 2

Filename D:\WORKING\02. Love Is.wav

Peak level 99.3 %
Extraction speed 6.3 X
Track quality 100.0 %
Test CRC 45E91522
Copy CRC 45E91522
Accurately ripped (confidence 31) [3B8C0E58] (AR v2)
Copy OK

Track 3

Filename D:\WORKING\03. To Know Him Is To Love Him.wav

Peak level 99.9 %
Extraction speed 5.9 X
Track quality 99.9 %
Test CRC A15AEE08
Copy CRC A15AEE08
Accurately ripped (confidence 30) [6FA62FA7] (AR v2)
Copy OK

Track 4

Filename D:\WORKING\04. The Pain Of Loving You.wav

Peak level 99.9 %
Extraction speed 6.4 X
Track quality 100.0 %
Test CRC A31AA004
Copy CRC A31AA004
Accurately ripped (confidence 30) [332EEFB1] (AR v2)
Copy OK

Track 5

Filename D:\WORKING\05. Farther Along.wav

Peak level 99.9 %
Extraction speed 7.4 X
Track quality 100.0 %
Test CRC E89BEE28
Copy CRC E89BEE28
Accurately ripped (confidence 28) [C744C611] (AR v2)
Copy OK

Track 6

Filename D:\WORKING\06. Angel Band.wav

Peak level 99.9 %
Extraction speed 7.3 X
Track quality 100.0 %
Test CRC 130D46A7
Copy CRC 130D46A7
Accurately ripped (confidence 31) [DAEE50D3] (AR v2)
Copy OK

Track 7

Filename D:\WORKING\07. I Still Miss Someone.wav

Peak level 99.9 %
Extraction speed 7.6 X
Track quality 100.0 %
Test CRC CA02B4BC
Copy CRC CA02B4BC
Accurately ripped (confidence 31) [10A3CD8F] (AR v2)
Copy OK

Track 8

Filename D:\WORKING\08. A River For Him.wav

Peak level 99.9 %
Extraction speed 7.7 X
Track quality 99.9 %
Test CRC 84137A47
Copy CRC 84137A47
Accurately ripped (confidence 30) [37BBED9A] (AR v2)
Copy OK

Track 9

Filename D:\WORKING\09. Heartbreak Hill.wav

Peak level 99.3 %
Extraction speed 8.3 X
Track quality 100.0 %
Test CRC F482CB5B
Copy CRC F482CB5B
Accurately ripped (confidence 30) [498A1A2A] (AR v2)
Copy OK

Track 10

Filename D:\WORKING\10. Icy Blue Heart.wav

Peak level 99.9 %
Extraction speed 9.2 X
Track quality 100.0 %
Test CRC 0946341D
Copy CRC 0946341D
Accurately ripped (confidence 29) [A2EC4ECB] (AR v2)
Copy OK

Track 11

Filename D:\WORKING\11. Gulf Coast Highway.wav

Peak level 99.9 %
Extraction speed 7.7 X
Track quality 99.9 %
Test CRC E2B2D59C
Copy CRC E2B2D59C
Accurately ripped (confidence 29) [757BA7F3] (AR v2)
Copy OK

Track 12

Filename D:\WORKING\12. We Believe In Happy Endings.wav

Peak level 99.9 %
Extraction speed 9.3 X
Track quality 100.0 %
Test CRC 9A5A0E9C
Copy CRC 9A5A0E9C
Accurately ripped (confidence 30) [AD728F51] (AR v2)
Copy OK

Track 13

Filename D:\WORKING\13. West Texas Waltz.wav

Peak level 99.9 %
Extraction speed 8.4 X
Track quality 99.9 %
Test CRC 663F0C93
Copy CRC 663F0C93
Accurately ripped (confidence 29) [E731B1F9] (AR v2)
Copy OK

Track 14

Filename D:\WORKING\14. Rollin' And Ramblin' (The Death Of Hank Williams).wav

Peak level 99.9 %
Extraction speed 9.6 X
Track quality 100.0 %
Test CRC 7555726B
Copy CRC 7555726B
Accurately ripped (confidence 29) [E2A4526B] (AR v2)
Copy OK

Track 15

Filename D:\WORKING\15. Casey's Last Ride.wav

Peak level 99.3 %
Extraction speed 10.2 X
Track quality 100.0 %
Test CRC A47FDF31
Copy CRC A47FDF31
Accurately ripped (confidence 29) [E2DEFDB0] (AR v2)
Copy OK

Track 16

Filename D:\WORKING\16. Hard Times.wav

Peak level 82.0 %
Extraction speed 10.2 X
Track quality 100.0 %
Test CRC 48D38AE5
Copy CRC 48D38AE5
Accurately ripped (confidence 30) [77B28D0E] (AR v2)
Copy OK

Track 17

Filename D:\WORKING\17. Calling My Children Home.wav

Peak level 99.9 %
Extraction speed 10.2 X
Track quality 100.0 %
Test CRC 2774DE97
Copy CRC 2774DE97
Accurately ripped (confidence 30) [254B4568] (AR v2)
Copy OK

Track 18

Filename D:\WORKING\18. Walls Of Time.wav

Peak level 100.0 %
Extraction speed 11.0 X
Track quality 100.0 %
Test CRC CD97C9EB
Copy CRC CD97C9EB
Accurately ripped (confidence 30) [8349E038] (AR v2)
Copy OK

Track 19

Filename D:\WORKING\19. When I Paint My Masterpiece.wav

Peak level 99.3 %
Extraction speed 11.2 X
Track quality 100.0 %
Test CRC D7381D8D
Copy CRC D7381D8D
Accurately ripped (confidence 30) [AF2F1AD0] (AR v2)
Copy OK

Track 20

Filename D:\WORKING\20. No Regrets.wav

Peak level 99.9 %
Extraction speed 11.7 X
Track quality 100.0 %
Test CRC E455148C
Copy CRC E455148C
Accurately ripped (confidence 29) [F74877B6] (AR v2)
Copy OK


All tracks accurately ripped

No errors occurred

End of status report

–– CUETools DB Plugin V2.1.6

[CTDB TOCID: QCmD517ix2_c2Tw5AAngltjPAbs-] found
Submit result: QCmD517ix2_c2Tw5AAngltjPAbs- has been confirmed
Track | CTDB Status
1 | (34/34) Accurately ripped
2 | (33/34) Accurately ripped
3 | (32/34) Accurately ripped
4 | (32/34) Accurately ripped
5 | (32/34) Accurately ripped
6 | (31/34) Accurately ripped
7 | (32/34) Accurately ripped
8 | (32/34) Accurately ripped
9 | (33/34) Accurately ripped
10 | (33/34) Accurately ripped
11 | (32/34) Accurately ripped
12 | (32/34) Accurately ripped
13 | (33/34) Accurately ripped
14 | (33/34) Accurately ripped
15 | (33/34) Accurately ripped
16 | (32/34) Accurately ripped
17 | (32/34) Accurately ripped
18 | (31/34) Accurately ripped
19 | (33/34) Accurately ripped
20 | (32/34) Accurately ripped


==== Log checksum D553D415C3041DB3232B18FFA4A85EA2A31A32E262581FC56C3DE7CC14C84BB8 ====

[CUETools log; Date: 01.07.2021 17:18:14; Version: 2.1.7]
[CTDB TOCID: QCmD517ix2_c2Tw5AAngltjPAbs-] found.
Track | CTDB Status
1 | (35/35) Accurately ripped
2 | (34/35) Accurately ripped
3 | (33/35) Accurately ripped
4 | (33/35) Accurately ripped
5 | (33/35) Accurately ripped
6 | (32/35) Accurately ripped
7 | (33/35) Accurately ripped
8 | (33/35) Accurately ripped
9 | (34/35) Accurately ripped
10 | (34/35) Accurately ripped
11 | (33/35) Accurately ripped
12 | (33/35) Accurately ripped
13 | (34/35) Accurately ripped
14 | (34/35) Accurately ripped
15 | (34/35) Accurately ripped
16 | (33/35) Accurately ripped
17 | (33/35) Accurately ripped
18 | (32/35) Accurately ripped
19 | (34/35) Accurately ripped
20 | (33/35) Accurately ripped
[AccurateRip ID: 00349455-030436d0-2c11b714] found.
Track [ CRC | V2 ] Status
01 [fbb9a9eb|f95ba2b4] (22+31/55) Accurately ripped
02 [300cefcc|3b8c0e58] (22+31/55) Accurately ripped
03 [807ccdda|6fa62fa7] (21+30/53) Accurately ripped
04 [918abe41|332eefb1] (22+30/54) Accurately ripped
05 [0c104971|c744c611] (22+28/52) Accurately ripped
06 [ff30197d|daee50d3] (22+31/55) Accurately ripped
07 [349930f0|10a3cd8f] (22+31/55) Accurately ripped
08 [bd236c14|37bbed9a] (22+30/54) Accurately ripped
09 [9df39337|498a1a2a] (23+30/55) Accurately ripped
10 [1ad24a4a|a2ec4ecb] (22+29/53) Accurately ripped
11 [2ca6f5d3|757ba7f3] (22+29/53) Accurately ripped
12 [3922ab2f|ad728f51] (22+30/54) Accurately ripped
13 [69592f1c|e731b1f9] (22+29/53) Accurately ripped
14 [89b6f464|e2a4526b] (22+29/53) Accurately ripped
15 [efc1a923|e2defdb0] (23+29/54) Accurately ripped
16 [7567e473|77b28d0e] (23+30/55) Accurately ripped
17 [05374ee4|254b4568] (23+30/55) Accurately ripped
18 [d9ee4ab0|8349e038] (22+30/54) Accurately ripped
19 [1f580578|af2f1ad0] (22+30/54) Accurately ripped
20 [8b5ddab8|f74877b6] (21+29/52) Accurately ripped
Offsetted by -664:
01 [7d56965b] (00/55) No match (V2 was not tested)
02 [dc3a6a24] (00/55) No match (V2 was not tested)
03 [4153586a] (00/53) No match (V2 was not tested)
04 [caaa0911] (00/54) No match (V2 was not tested)
05 [bc757c29] (00/52) No match (V2 was not tested)
06 [4245fcbd] (00/55) No match (V2 was not tested)
07 [8917d2d0] (00/55) No match (V2 was not tested)
08 [c2bda384] (00/54) No match (V2 was not tested)
09 [9c07dd8f] (00/55) No match (V2 was not tested)
10 [9e066782] (00/53) No match (V2 was not tested)
11 [3682d053] (00/53) No match (V2 was not tested)
12 [47d667a7] (00/54) No match (V2 was not tested)
13 [3ad5851c] (00/53) No match (V2 was not tested)
14 [296f0f7c] (00/53) No match (V2 was not tested)
15 [c73bb11b] (00/54) No match (V2 was not tested)
16 [2f2e1912] (00/55) No match (V2 was not tested)
17 [eba57861] (00/55) No match (V2 was not tested)
18 [72a43d8c] (00/54) No match (V2 was not tested)
19 [f2620778] (00/54) No match (V2 was not tested)
20 [affe3608] (00/52) No match (V2 was not tested)

Track Peak [ CRC32 ] [W/O NULL] [ LOG ]
– 100,0 [F64D3BC0] [CDA9D4B9]
01 99,9 [8C702A76] [6C491178] CRC32
02 99,2 [45E91522] [2A8EE1A3] CRC32
03 99,9 [A15AEE08] [F500AD93] CRC32
04 99,9 [A31AA004] [FAABEECA] CRC32
05 99,9 [E89BEE28] [B555C147] CRC32
06 99,9 [130D46A7] [9D0CDF53] CRC32
07 99,9 [CA02B4BC] [8EB77864] CRC32
08 99,9 [84137A47] [0F79EB5B] CRC32
09 99,2 [F482CB5B] [447974F5] CRC32
10 99,9 [0946341D] [1C252A93] CRC32
11 99,9 [E2B2D59C] [B2702DDD] CRC32
12 99,9 [9A5A0E9C] [1D04D55E] CRC32
13 99,9 [663F0C93] [2810804C] CRC32
14 99,9 [7555726B] [7CE5BED9] CRC32
15 99,2 [A47FDF31] [3A35CA0B] CRC32
16 82,0 [48D38AE5] [12E286E1] CRC32
17 99,9 [2774DE97] [875A4F95] CRC32
18 100,0 [CD97C9EB] [5EC70EB3] CRC32
19 99,2 [D7381D8D] [17003E91] CRC32
20 99,9 [E455148C] [FB01B508] CRC32

foobar2000 1.6.3 / Dynamic Range Meter 1.1.1
log date: 2021-07-01 17:19:05

––––––––––––––––––––––––––––––––––––––––
Analyzed: Emmylou Harris with Dolly Parton and Linda Ronstadt / Portraits (Disc 3) (1-3)
Emmylou Harris with Earl Thomas Conley / Portraits (Disc 3) (4)
Emmylou Harris with Flaco Jimenez / Portraits (Disc 3) (5)
Emmylou Harris with Willie Nelson / Portraits (Disc 3) (6)
Emmylou Harris / Portraits (Disc 3) (7-20)
––––––––––––––––––––––––––––––––––––––––

DR Peak RMS Duration Track
––––––––––––––––––––––––––––––––––––––––
DR14 0.00 dB -18.37 dB 3:50 03-To Know Him Is To Love Him
DR13 0.00 dB -15.56 dB 2:35 04-The Pain Of Loving You
DR13 0.00 dB -17.13 dB 4:09 05-Farther Along
DR11 0.00 dB -13.65 dB 3:35 12-We Believe In Happy Endings
DR12 0.00 dB -13.83 dB 3:32 13-West Texas Waltz
DR13 0.00 dB -16.23 dB 3:08 11-Gulf Coast Highway
DR12 0.00 dB -14.44 dB 3:15 01-In My Dreams
DR12 -0.06 dB -13.82 dB 4:39 02-Love Is
DR12 0.00 dB -15.99 dB 3:03 06-Angel Band
DR13 0.00 dB -16.02 dB 2:50 07-I Still Miss Someone
DR13 0.00 dB -16.91 dB 5:05 08-A River For Him
DR12 -0.06 dB -14.00 dB 3:13 09-Heartbreak Hill
DR13 0.00 dB -17.73 dB 4:09 10-Icy Blue Heart
DR12 0.00 dB -15.17 dB 3:28 14-Rollin' And Ramblin' (The Death Of Hank Williams)
DR12 -0.06 dB -14.27 dB 3:56 15-Casey's Last Ride
DR11 -1.72 dB -16.07 dB 3:26 16-Hard Times
DR13 0.00 dB -15.58 dB 3:01 17-Calling My Children Home
DR10 0.00 dB -11.67 dB 4:45 18-Walls Of Time
DR11 -0.06 dB -13.07 dB 4:19 19-When I Paint My Masterpiece
DR12 0.00 dB -15.07 dB 5:39 20-No Regrets
––––––––––––––––––––––––––––––––––––––––

Number of tracks: 20
Official DR value: DR12

Samplerate: 44100 Hz
Channels: 2
Bits per sample: 16
Bitrate: 800 kbps
Codec: FLAC
================================================================================

Emmylou Harris - Portraits (1996) 3CD Box Set

All thanks to original releaser - doolykim

More interesting music in My Blog