Subcategories

European Jazz Trio - Best Repertoire (2011) 2CDs

Posted By: Designol
European Jazz Trio - Best Repertoire (2011) 2CDs

European Jazz Trio - Best Repertoire (2011) 2CDs
EAC | FLAC | Tracks (Cue&Log) ~ 764 Mb | Mp3 (CBR320) ~ 329 Mb | Scans included
Label: Pony Canyon | # PCKD-00222 | Time: 02:10:51
Contemporary Jazz, Post-Bop, Jazz-Pop, Crossover, Easy Listening

This compilation by favorite songs, selection on requests by European Jazz Trio listeners. Includes jazz interpitations to compositions by J.S. Bach, Schubert, Beethoven, Mozart, Chopin, Brahms, Elgar, Faure, Massenet, Milhaud, L.Bernstein, Piazzolla, Morricone, The Beatles, Abba, Santana, Sting, Simon & Garfunkel..

The European Jazz Trio, comprising Marc van Roon on Piano, Frans van der Hoeven on bass and Roy Dackus on drums has been recording and performing since 1995, when it released a CD of Beatles' songs in fresh arrangements.

On each album, the trio has taken songs in every style, shape and color, and has given them a jazz interpretation. For the trio 'Jazz' means to have the freedom to combine and mix styles, melodies, sounds and rhythms to create something fresh and surprising.

Van Roon: "A Specialty of the trio is to try and find some unusual material - unusual in a jazz setting - and to arrange it for the trio. It works both ways: You can take the sound of a jazz trio and give it a fresh voice, a new approach; likewise, you can take the music that everybody knows - pop tunes and classical tunes - and give people a chance to hear them in a different way."

The European Jazz Trio pushes the envelope of jazz music by adding to it its own sound and rhythm, a result of the music that has influenced the trio's members.

"We grew up in the seventies and eighties with pop, rock, classical, rap and lots of fusion music. It wasn't only jazz anymore. Being musicians, we try to absorb everything like a sponge and use it somehow. The classical music we perform we really admire, it's very close to us - to our European side."

With every song the trio records the main focus is on the essence and the inner beauty of the composition.

"You cannot approach each song in the same way. And it doesn't have so much to do with what we as a trio want to do. It's contained within the song, it's already there. So it's more about what we can leave out, what we don't have to play. This makes each performance unique and special."

The European Jazz trio has been recording new albums every year since the release of 'Memories of Liverpool' in 1995. All recording are produced by Makoto Kimata, a highly appreciated jazz producer based in Tokyo. Recent albums have been co-produced by Hiro Yamashita from the record label M&I / Pony Canyon Tokyo.

European Jazz Trio - Best Repertoire (2011) 2CDs


European Jazz Trio - Best Repertoire (2011) 2CDs


Tracklist:

CD1 (01:03:44)

01. Love Is A Many Splendored Thing (4:55)
02. Ouverture No.3 BWV.1068 (5:22)
03. Dancing Queen (5:42)
04. Miagete Goran Yoruno Hoshio (6:23)
05. Europa (8:09)
06. Fur Elise (5:07)
07. Fantasie Impromtu In C Minor (4:43)
08. Sonate Fur Klavier No.17 Tempest Op.31-2 (4:02)
09. Nimrod (Enigma variations No.9) (4:20)
10. Symphony No.3 In F (5:06)
11. Sonate Fur Klavier No.8 Pathetique (4:34)
12. When You Wish Upon A Star (5:20)

CD2 (01:07:07)

01. Maria (West Side Story) (5:41)
02. Ave Maria (5:46)
03. Libertango (4:37)
04. Akatonbo (3:58)
05. Lady Maddona (4:36)
06. Message In A Bottle (4:51)
07. Scaborough Fair (5:21)
08. Turkish March (3:29)
09. Les Songes (3:46)
10. Meditation From Thais (5:04)
11. Prelude 'Raindrop' (op.28-15) (5:31)
12. Pavane (op.50) (3:53)
13. Don't Know Why (5:25)
14. Nuovo Cinema Paradiso (5:08)


Exact Audio Copy V1.0 beta 3 from 29. August 2011

EAC extraction logfile from 7. April 2015, 8:52

European Jazz Trio / Best Repertoire CD1

Used drive : PLEXTOR CD-R PX-W2410A Adapter: 1 ID: 0

Read mode : Secure
Utilize accurate stream : Yes
Defeat audio cache : Yes
Make use of C2 pointers : No

Read offset correction : 98
Overread into Lead-In and Lead-Out : No
Fill up missing offset samples with silence : Yes
Delete leading and trailing silent blocks : No
Null samples used in CRC calculations : Yes
Used interface : Native Win32 interface for Win NT & 2000
Gap handling : Appended to previous track

Used output format : User Defined Encoder
Selected bitrate : 256 kBit/s
Quality : High
Add ID3 tag : No
Command line compressor : C:\Program Files\Exact Audio Copy\FLAC\FLAC.EXE
Additional command line options : -8 -V -T "ARTIST=%artist%" -T "TITLE=%title%" -T "ALBUM=%albumtitle%" -T "DATE=%year%" -T "TRACKNUMBER=%tracknr%" -T "TOTALTRACKS=%numtracks%" -T "GENRE=%genre%" -T "ALBUMARTIST=%albumartist%" -T "ALBUM ARTIST=%albumartist%" -T "COMMENT=EAC Secure Mode, Test & Copy, AccurateRip, FLAC -8" %source%


TOC of the extracted CD

Track | Start | Length | Start sector | End sector
––––––––––––––––––––––––––––-
1 | 0:00.00 | 4:54.65 | 0 | 22114
2 | 4:54.65 | 5:22.10 | 22115 | 46274
3 | 10:17.00 | 5:42.03 | 46275 | 71927
4 | 15:59.03 | 6:23.17 | 71928 | 100669
5 | 22:22.20 | 8:09.07 | 100670 | 137351
6 | 30:31.27 | 5:07.28 | 137352 | 160404
7 | 35:38.55 | 4:42.62 | 160405 | 181616
8 | 40:21.42 | 4:02.10 | 181617 | 199776
9 | 44:23.52 | 4:19.60 | 199777 | 219261
10 | 48:43.37 | 5:05.64 | 219262 | 242200
11 | 53:49.26 | 4:34.33 | 242201 | 262783
12 | 58:23.59 | 5:20.13 | 262784 | 286796


Track 1

Filename C:\EAC\European Jazz Trio - Best Repertoire (2011) [FLAC] {Pony Canyon KR PCKD-00222}\CD1\01 - Love Is A Many Splendored Thing.wav

Pre-gap length 0:00:02.00

Peak level 81.2 %
Extraction speed 1.9 X
Track quality 100.0 %
Test CRC F4095B88
Copy CRC F4095B88
Cannot be verified as accurate (confidence 6) [C4CE8F61], AccurateRip returned [15B61C97] (AR v2)
Copy OK

Track 2

Filename C:\EAC\European Jazz Trio - Best Repertoire (2011) [FLAC] {Pony Canyon KR PCKD-00222}\CD1\02 - Ouverture No.3 BWV.1068.wav

Pre-gap length 0:00:04.45

Peak level 95.8 %
Extraction speed 1.9 X
Track quality 100.0 %
Test CRC 3E319E0C
Copy CRC 3E319E0C
Cannot be verified as accurate (confidence 6) [177FAEBF], AccurateRip returned [203E11AE] (AR v2)
Copy OK

Track 3

Filename C:\EAC\European Jazz Trio - Best Repertoire (2011) [FLAC] {Pony Canyon KR PCKD-00222}\CD1\03 - Dancing Queen.wav

Pre-gap length 0:00:04.45

Peak level 98.8 %
Extraction speed 1.9 X
Track quality 100.0 %
Test CRC 59E31FBB
Copy CRC 59E31FBB
Cannot be verified as accurate (confidence 6) [0A5A406D], AccurateRip returned [C43EED38] (AR v2)
Copy OK

Track 4

Filename C:\EAC\European Jazz Trio - Best Repertoire (2011) [FLAC] {Pony Canyon KR PCKD-00222}\CD1\04 - Miagete Goran Yoruno Hoshio.wav

Pre-gap length 0:00:04.45

Peak level 98.8 %
Extraction speed 1.9 X
Track quality 100.0 %
Test CRC 1594DC5B
Copy CRC 1594DC5B
Cannot be verified as accurate (confidence 6) [B73AD6AD], AccurateRip returned [01BB95F8] (AR v2)
Copy OK

Track 5

Filename C:\EAC\European Jazz Trio - Best Repertoire (2011) [FLAC] {Pony Canyon KR PCKD-00222}\CD1\05 - Europa.wav

Pre-gap length 0:00:04.45

Peak level 93.3 %
Extraction speed 1.9 X
Track quality 100.0 %
Test CRC D85E904E
Copy CRC D85E904E
Cannot be verified as accurate (confidence 6) [28615D09], AccurateRip returned [F52E50F5] (AR v2)
Copy OK

Track 6

Filename C:\EAC\European Jazz Trio - Best Repertoire (2011) [FLAC] {Pony Canyon KR PCKD-00222}\CD1\06 - Fur Elise.wav

Pre-gap length 0:00:04.45

Peak level 100.0 %
Extraction speed 1.9 X
Track quality 100.0 %
Test CRC 8FD09EFA
Copy CRC 8FD09EFA
Cannot be verified as accurate (confidence 6) [4B28F10E], AccurateRip returned [4944F50A] (AR v2)
Copy OK

Track 7

Filename C:\EAC\European Jazz Trio - Best Repertoire (2011) [FLAC] {Pony Canyon KR PCKD-00222}\CD1\07 - Fantasie Impromtu In C Minor.wav

Pre-gap length 0:00:04.45

Peak level 74.1 %
Extraction speed 1.8 X
Track quality 99.9 %
Test CRC E7A04752
Copy CRC E7A04752
Cannot be verified as accurate (confidence 6) [F033D9D4], AccurateRip returned [14978F08] (AR v2)
Copy OK

Track 8

Filename C:\EAC\European Jazz Trio - Best Repertoire (2011) [FLAC] {Pony Canyon KR PCKD-00222}\CD1\08 - Sonate Fur Klavier No.17 Tempest Op.31-2.wav

Pre-gap length 0:00:04.45

Peak level 81.5 %
Extraction speed 1.8 X
Track quality 100.0 %
Test CRC 56839E05
Copy CRC 56839E05
Cannot be verified as accurate (confidence 6) [532F1CB2], AccurateRip returned [A272EA44] (AR v2)
Copy OK

Track 9

Filename C:\EAC\European Jazz Trio - Best Repertoire (2011) [FLAC] {Pony Canyon KR PCKD-00222}\CD1\09 - Nimrod (Enigma variations No.9).wav

Pre-gap length 0:00:04.45

Peak level 98.8 %
Extraction speed 1.8 X
Track quality 100.0 %
Test CRC 90C897D2
Copy CRC 90C897D2
Cannot be verified as accurate (confidence 6) [F9EE5395], AccurateRip returned [CE3E3159] (AR v2)
Copy OK

Track 10

Filename C:\EAC\European Jazz Trio - Best Repertoire (2011) [FLAC] {Pony Canyon KR PCKD-00222}\CD1\10 - Symphony No.3 In F.wav

Pre-gap length 0:00:04.45

Peak level 98.8 %
Extraction speed 1.9 X
Track quality 100.0 %
Test CRC 6E5EEF06
Copy CRC 6E5EEF06
Cannot be verified as accurate (confidence 6) [B0D91FA9], AccurateRip returned [00CFFB43] (AR v2)
Copy OK

Track 11

Filename C:\EAC\European Jazz Trio - Best Repertoire (2011) [FLAC] {Pony Canyon KR PCKD-00222}\CD1\11 - Sonate Fur Klavier No.8 Pathetique.wav

Pre-gap length 0:00:04.45

Peak level 99.2 %
Extraction speed 1.9 X
Track quality 100.0 %
Test CRC E26BC023
Copy CRC E26BC023
Cannot be verified as accurate (confidence 6) [70ECEBAC], AccurateRip returned [F0CA46BF] (AR v2)
Copy OK

Track 12

Filename C:\EAC\European Jazz Trio - Best Repertoire (2011) [FLAC] {Pony Canyon KR PCKD-00222}\CD1\12 - When You Wish Upon A Star.wav

Pre-gap length 0:00:04.45

Peak level 83.1 %
Extraction speed 1.6 X
Track quality 100.0 %
Test CRC 07ADBAF3
Copy CRC 07ADBAF3
Cannot be verified as accurate (confidence 6) [53E1600D], AccurateRip returned [CF54185F] (AR v2)
Copy OK


No tracks could be verified as accurate
You may have a different pressing from the one(s) in the database

No errors occurred

End of status report

–– CUETools DB Plugin V2.1.3

[CTDB TOCID: DSPJcozN5BNHm2sV2w4S4lyRWcE-] found, Submit result: already submitted
[d7c0faff] (13/13) Accurately ripped


==== Log checksum 33F1989B81AB15E2707C4D36E45102A00E4B65F86B70DE57AD903708750DEE3B ====

[CUETools log; Date: 02.08.2018 0:33:34; Version: 2.1.4]
[CTDB TOCID: DSPJcozN5BNHm2sV2w4S4lyRWcE-] found.
Track | CTDB Status
1 | (61/61) Accurately ripped
2 | (61/61) Accurately ripped
3 | (61/61) Accurately ripped
4 | (61/61) Accurately ripped
5 | (61/61) Accurately ripped
6 | (61/61) Accurately ripped
7 | (61/61) Accurately ripped
8 | (61/61) Accurately ripped
9 | (61/61) Accurately ripped
10 | (61/61) Accurately ripped
11 | (61/61) Accurately ripped
12 | (61/61) Accurately ripped
[AccurateRip ID: 001d77af-01114b42-9b0eef0c] found.
Track [ CRC | V2 ] Status
01 [f009fbe5|c4ce8f61] (00+00/17) No match
02 [26847766|177faebf] (00+00/17) No match
03 [5df7bfdc|0a5a406d] (00+00/17) No match
04 [8bf3020e|b73ad6ad] (00+00/17) No match
05 [9488c078|28615d09] (00+00/17) No match
06 [a40c434d|4b28f10e] (00+00/17) No match
07 [1b1faa3d|f033d9d4] (00+00/17) No match
08 [28e18186|532f1cb2] (00+00/17) No match
09 [93799f28|f9ee5395] (00+00/17) No match
10 [d0b46b56|b0d91fa9] (00+00/17) No match
11 [54783bd2|70ecebac] (00+00/17) No match
12 [cec0e250|53e1600d] (00+00/17) No match
Offsetted by 675:
01 [427b551d] (04/17) Accurately ripped
02 [47320494] (04/17) Accurately ripped
03 [3e986da4] (04/17) Accurately ripped
04 [26f2ad9f] (04/17) Accurately ripped
05 [0ada210f] (04/17) Accurately ripped
06 [abd7c578] (04/17) Accurately ripped
07 [38515b22] (04/17) Accurately ripped
08 [47d05bdf] (04/17) Accurately ripped
09 [4c322ae6] (04/17) Accurately ripped
10 [297315b5] (04/17) Accurately ripped
11 [c4a6eca8] (04/17) Accurately ripped
12 [6690be9d] (04/17) Accurately ripped

Track Peak [ CRC32 ] [W/O NULL] [ LOG ]
– 100,0 [FDC56EB8] [3DF0DA0A]
01 81,2 [F4095B88] [D5ADF598] CRC32
02 95,8 [3E319E0C] [1D69396A] CRC32
03 98,8 [59E31FBB] [EB22F87B] CRC32
04 98,8 [1594DC5B] [DA609547] CRC32
05 93,3 [D85E904E] [4294EECB] CRC32
06 100,0 [8FD09EFA] [E4912751] CRC32
07 74,1 [E7A04752] [F2B227B6] CRC32
08 81,5 [56839E05] [237235C1] CRC32
09 98,8 [90C897D2] [764B7C98] CRC32
10 98,8 [6E5EEF06] [BED45196] CRC32
11 99,2 [E26BC023] [69355E0F] CRC32
12 83,1 [07ADBAF3] [132DF0AB] CRC32

foobar2000 1.2 / Dynamic Range Meter 1.1.1
log date: 2018-08-02 00:06:21

––––––––––––––––––––––––––––––––––––––––
Analyzed: European Jazz Trio / Best Repertoire CD1
––––––––––––––––––––––––––––––––––––––––

DR Peak RMS Duration Track
––––––––––––––––––––––––––––––––––––––––
DR8 -1.80 dB -11.50 dB 4:55 01-Love Is A Many Splendored Thing
DR13 -0.37 dB -16.84 dB 5:22 02-Ouverture No.3 BWV.1068
DR11 -0.10 dB -15.22 dB 5:42 03-Dancing Queen
DR10 -0.10 dB -12.71 dB 6:23 04-Miagete Goran Yoruno Hoshio
DR8 -0.60 dB -10.67 dB 8:09 05-Europa
DR12 0.00 dB -15.73 dB 5:07 06-Fur Elise
DR7 -2.60 dB -12.31 dB 4:43 07-Fantasie Impromtu In C Minor
DR8 -1.77 dB -12.23 dB 4:02 08-Sonate Fur Klavier No.17 Tempest Op.31-2
DR9 -0.10 dB -11.99 dB 4:20 09-Nimrod (Enigma variations No.9)
DR12 -0.10 dB -15.75 dB 5:06 10-Symphony No.3 In F
DR11 -0.07 dB -13.48 dB 4:34 11-Sonate Fur Klavier No.8 Pathetique
DR9 -1.60 dB -13.85 dB 5:20 12-When You Wish Upon A Star
––––––––––––––––––––––––––––––––––––––––

Number of tracks: 12
Official DR value: DR10

Samplerate: 44100 Hz
Channels: 2
Bits per sample: 16
Bitrate: 827 kbps
Codec: FLAC
================================================================================


Exact Audio Copy V1.0 beta 3 from 29. August 2011

EAC extraction logfile from 6. April 2015, 9:06

European Jazz Trio / Best Repertoire CD2

Used drive : PLEXTOR CD-R PX-W2410A Adapter: 1 ID: 0

Read mode : Secure
Utilize accurate stream : Yes
Defeat audio cache : Yes
Make use of C2 pointers : No

Read offset correction : 98
Overread into Lead-In and Lead-Out : No
Fill up missing offset samples with silence : Yes
Delete leading and trailing silent blocks : No
Null samples used in CRC calculations : Yes
Used interface : Native Win32 interface for Win NT & 2000
Gap handling : Appended to previous track

Used output format : User Defined Encoder
Selected bitrate : 256 kBit/s
Quality : High
Add ID3 tag : No
Command line compressor : C:\Program Files\Exact Audio Copy\FLAC\FLAC.EXE
Additional command line options : -8 -V -T "ARTIST=%artist%" -T "TITLE=%title%" -T "ALBUM=%albumtitle%" -T "DATE=%year%" -T "TRACKNUMBER=%tracknr%" -T "TOTALTRACKS=%numtracks%" -T "GENRE=%genre%" -T "ALBUMARTIST=%albumartist%" -T "ALBUM ARTIST=%albumartist%" -T "COMMENT=EAC Secure Mode, Test & Copy, AccurateRip, FLAC -8" %source%


TOC of the extracted CD

Track | Start | Length | Start sector | End sector
––––––––––––––––––––––––––––-
1 | 0:00.00 | 5:40.74 | 0 | 25573
2 | 5:40.74 | 5:46.30 | 25574 | 51553
3 | 11:27.29 | 4:36.52 | 51554 | 72305
4 | 16:04.06 | 3:57.63 | 72306 | 90143
5 | 20:01.69 | 4:35.72 | 90144 | 110840
6 | 24:37.66 | 4:50.39 | 110841 | 132629
7 | 29:28.30 | 5:21.06 | 132630 | 156710
8 | 34:49.36 | 3:28.58 | 156711 | 172368
9 | 38:18.19 | 3:46.35 | 172369 | 189353
10 | 42:04.54 | 5:04.35 | 189354 | 212188
11 | 47:09.14 | 5:31.23 | 212189 | 237036
12 | 52:40.37 | 3:53.34 | 237037 | 254545
13 | 56:33.71 | 5:25.24 | 254546 | 278944
14 | 61:59.20 | 5:07.45 | 278945 | 302014


Track 1

Filename C:\EAC\European Jazz Trio - Best Repertoire (2011) [FLAC] {Pony Canyon KR PCKD-00222}\CD2\01 - Maria (West Side Story).wav

Pre-gap length 0:00:02.00

Peak level 100.0 %
Extraction speed 1.8 X
Track quality 100.0 %
Test CRC E3130C1C
Copy CRC E3130C1C
Cannot be verified as accurate (confidence 7) [464A4BC2], AccurateRip returned [35EADE0A] (AR v2)
Copy OK

Track 2

Filename C:\EAC\European Jazz Trio - Best Repertoire (2011) [FLAC] {Pony Canyon KR PCKD-00222}\CD2\02 - Ave Maria.wav

Pre-gap length 0:00:04.45

Peak level 81.2 %
Extraction speed 1.9 X
Track quality 100.0 %
Test CRC 439F5880
Copy CRC 439F5880
Cannot be verified as accurate (confidence 7) [CC827560], AccurateRip returned [9BCAC22B] (AR v2)
Copy OK

Track 3

Filename C:\EAC\European Jazz Trio - Best Repertoire (2011) [FLAC] {Pony Canyon KR PCKD-00222}\CD2\03 - Libertango.wav

Pre-gap length 0:00:04.45

Peak level 100.0 %
Extraction speed 1.8 X
Track quality 100.0 %
Test CRC 00940579
Copy CRC 00940579
Cannot be verified as accurate (confidence 7) [37CFEA3F], AccurateRip returned [C51FB842] (AR v2)
Copy OK

Track 4

Filename C:\EAC\European Jazz Trio - Best Repertoire (2011) [FLAC] {Pony Canyon KR PCKD-00222}\CD2\04 - Akatonbo.wav

Pre-gap length 0:00:04.45

Peak level 98.8 %
Extraction speed 1.8 X
Track quality 100.0 %
Test CRC 7ABD4B47
Copy CRC 7ABD4B47
Cannot be verified as accurate (confidence 7) [97DC8303], AccurateRip returned [0ECEA3A3] (AR v2)
Copy OK

Track 5

Filename C:\EAC\European Jazz Trio - Best Repertoire (2011) [FLAC] {Pony Canyon KR PCKD-00222}\CD2\05 - Lady Maddona.wav

Pre-gap length 0:00:04.45

Peak level 68.4 %
Extraction speed 1.9 X
Track quality 100.0 %
Test CRC 7CDE0AE4
Copy CRC 7CDE0AE4
Cannot be verified as accurate (confidence 7) [5D64ABB8], AccurateRip returned [5D6E1D3F] (AR v2)
Copy OK

Track 6

Filename C:\EAC\European Jazz Trio - Best Repertoire (2011) [FLAC] {Pony Canyon KR PCKD-00222}\CD2\06 - Message In A Bottle.wav

Pre-gap length 0:00:03.45

Peak level 98.8 %
Extraction speed 1.8 X
Track quality 99.9 %
Test CRC 0FD4EC9D
Copy CRC 0FD4EC9D
Cannot be verified as accurate (confidence 7) [438B88D3], AccurateRip returned [3B571B0B] (AR v2)
Copy OK

Track 7

Filename C:\EAC\European Jazz Trio - Best Repertoire (2011) [FLAC] {Pony Canyon KR PCKD-00222}\CD2\07 - Scaborough Fair.wav

Pre-gap length 0:00:04.45

Peak level 92.2 %
Extraction speed 1.9 X
Track quality 100.0 %
Test CRC 4418B2D7
Copy CRC 4418B2D7
Cannot be verified as accurate (confidence 7) [39713C7C], AccurateRip returned [5169B2D6] (AR v2)
Copy OK

Track 8

Filename C:\EAC\European Jazz Trio - Best Repertoire (2011) [FLAC] {Pony Canyon KR PCKD-00222}\CD2\08 - Turkish March.wav

Pre-gap length 0:00:03.45

Peak level 79.9 %
Extraction speed 1.9 X
Track quality 100.0 %
Test CRC 4675A379
Copy CRC 4675A379
Cannot be verified as accurate (confidence 7) [933C55C9], AccurateRip returned [39CEA15D] (AR v2)
Copy OK

Track 9

Filename C:\EAC\European Jazz Trio - Best Repertoire (2011) [FLAC] {Pony Canyon KR PCKD-00222}\CD2\09 - Les Songes.wav

Pre-gap length 0:00:04.45

Peak level 100.0 %
Extraction speed 1.8 X
Track quality 100.0 %
Test CRC A2CA58CE
Copy CRC A2CA58CE
Cannot be verified as accurate (confidence 7) [C75B36C3], AccurateRip returned [3F28316F] (AR v2)
Copy OK

Track 10

Filename C:\EAC\European Jazz Trio - Best Repertoire (2011) [FLAC] {Pony Canyon KR PCKD-00222}\CD2\10 - Meditation From Thais.wav

Pre-gap length 0:00:03.45

Peak level 99.2 %
Extraction speed 1.8 X
Track quality 99.9 %
Test CRC AC35DFF0
Copy CRC AC35DFF0
Cannot be verified as accurate (confidence 7) [491D93A3], AccurateRip returned [1C9997C2] (AR v2)
Copy OK

Track 11

Filename C:\EAC\European Jazz Trio - Best Repertoire (2011) [FLAC] {Pony Canyon KR PCKD-00222}\CD2\11 - Prelude 'Raindrop' (op.28-15).wav

Pre-gap length 0:00:03.45

Peak level 98.8 %
Extraction speed 1.8 X
Track quality 99.9 %
Test CRC B4BEE8FA
Copy CRC B4BEE8FA
Cannot be verified as accurate (confidence 7) [CFA03FAF], AccurateRip returned [D201CE4F] (AR v2)
Copy OK

Track 12

Filename C:\EAC\European Jazz Trio - Best Repertoire (2011) [FLAC] {Pony Canyon KR PCKD-00222}\CD2\12 - Pavane (op.50).wav

Pre-gap length 0:00:04.45

Peak level 92.7 %
Extraction speed 1.8 X
Track quality 100.0 %
Test CRC 073642F1
Copy CRC 073642F1
Cannot be verified as accurate (confidence 7) [88CF76AF], AccurateRip returned [B81EDBC2] (AR v2)
Copy OK

Track 13

Filename C:\EAC\European Jazz Trio - Best Repertoire (2011) [FLAC] {Pony Canyon KR PCKD-00222}\CD2\13 - Don't Know Why.wav

Pre-gap length 0:00:04.45

Peak level 92.2 %
Extraction speed 1.9 X
Track quality 100.0 %
Test CRC 64AF8080
Copy CRC 64AF8080
Cannot be verified as accurate (confidence 7) [6D84C192], AccurateRip returned [F867633C] (AR v2)
Copy OK

Track 14

Filename C:\EAC\European Jazz Trio - Best Repertoire (2011) [FLAC] {Pony Canyon KR PCKD-00222}\CD2\14 - Nuovo Cinema Paradiso.wav

Pre-gap length 0:00:04.45

Peak level 98.8 %
Extraction speed 1.6 X
Track quality 100.0 %
Test CRC 859678C2
Copy CRC 859678C2
Cannot be verified as accurate (confidence 7) [DBDFBC4A], AccurateRip returned [7332618E] (AR v2)
Copy OK


No tracks could be verified as accurate
You may have a different pressing from the one(s) in the database

No errors occurred

End of status report

–– CUETools DB Plugin V2.1.3

[CTDB TOCID: QLAhSP29ZNB2VYwz96m_j4cX8ds-] found, Submit result: QLAhSP29ZNB2VYwz96m_j4cX8ds- has been confirmed
[e98791cb] (12/12) Accurately ripped


==== Log checksum 7AE722E059EEBADBDF93EA242F7D4A7FF124A104E52C28D81E53F76916331B78 ====

[CUETools log; Date: 02.08.2018 0:33:53; Version: 2.1.4]
[CTDB TOCID: QLAhSP29ZNB2VYwz96m_j4cX8ds-] found.
Track | CTDB Status
1 | (63/63) Accurately ripped
2 | (63/63) Accurately ripped
3 | (63/63) Accurately ripped
4 | (63/63) Accurately ripped
5 | (62/63) Accurately ripped
6 | (62/63) Accurately ripped
7 | (62/63) Accurately ripped
8 | (62/63) Accurately ripped
9 | (62/63) Accurately ripped
10 | (62/63) Accurately ripped
11 | (62/63) Accurately ripped
12 | (62/63) Accurately ripped
13 | (62/63) Accurately ripped
14 | (62/63) Accurately ripped
[AccurateRip ID: 0022e287-0170aa44-bc0fba0e] found.
Track [ CRC | V2 ] Status
01 [bd1ddfe4|464a4bc2] (00+00/18) No match
02 [78d81005|cc827560] (00+00/18) No match
03 [cabfd79c|37cfea3f] (00+00/18) No match
04 [c5a04f69|97dc8303] (00+00/18) No match
05 [28793cb1|5d64abb8] (00+00/18) No match
06 [00dda551|438b88d3] (00+00/18) No match
07 [8b3fc7c5|39713c7c] (00+00/18) No match
08 [b0344722|933c55c9] (00+00/18) No match
09 [ab6a5e8f|c75b36c3] (00+00/18) No match
10 [f8e86b16|491d93a3] (00+00/18) No match
11 [2c204b6a|cfa03faf] (00+00/18) No match
12 [71cb64a3|88cf76af] (00+00/18) No match
13 [0bf9b4b8|6d84c192] (00+00/18) No match
14 [f75a16f6|dbdfbc4a] (00+00/18) No match
Offsetted by 669:
01 [d3366e7d] (04/18) Accurately ripped
02 [762b5b08] (04/18) Accurately ripped
03 [489f03cb] (04/18) Accurately ripped
04 [0b2b8000] (04/18) Accurately ripped
05 [19ef6332] (04/18) Accurately ripped
06 [f242dfd4] (04/18) Accurately ripped
07 [bb0ca418] (04/18) Accurately ripped
08 [0a3ce483] (04/18) Accurately ripped
09 [e784ea0d] (04/18) Accurately ripped
10 [d4840886] (04/18) Accurately ripped
11 [4eba0d3e] (04/18) Accurately ripped
12 [69f51f4d] (04/18) Accurately ripped
13 [af374a80] (04/18) Accurately ripped
14 [9af7a78c] (04/18) Accurately ripped

Track Peak [ CRC32 ] [W/O NULL] [ LOG ]
– 100,0 [4E0B9581] [94AFFB61]
01 100,0 [E3130C1C] [E5CF95D4] CRC32
02 81,2 [439F5880] [8E91D578] CRC32
03 100,0 [00940579] [694888A8] CRC32
04 98,8 [7ABD4B47] [D7059C19] CRC32
05 68,3 [7CDE0AE4] [2CDC6F5B] CRC32
06 98,8 [0FD4EC9D] [49708823] CRC32
07 92,2 [4418B2D7] [743B1072] CRC32
08 79,9 [4675A379] [D573B9BF] CRC32
09 100,0 [A2CA58CE] [E640A771] CRC32
10 99,1 [AC35DFF0] [7707A1FE] CRC32
11 98,8 [B4BEE8FA] [A2C82697] CRC32
12 92,7 [073642F1] [A63EDF8B] CRC32
13 92,2 [64AF8080] [93FB3841] CRC32
14 98,8 [859678C2] [6B9A7944] CRC32

foobar2000 1.2 / Dynamic Range Meter 1.1.1
log date: 2018-08-02 00:06:47

––––––––––––––––––––––––––––––––––––––––
Analyzed: European Jazz Trio / Best Repertoire CD2
––––––––––––––––––––––––––––––––––––––––

DR Peak RMS Duration Track
––––––––––––––––––––––––––––––––––––––––
DR10 0.00 dB -13.54 dB 5:41 01-Maria (West Side Story)
DR10 -1.80 dB -14.84 dB 5:46 02-Ave Maria
DR11 0.00 dB -12.95 dB 4:37 03-Libertango
DR12 -0.10 dB -14.73 dB 3:58 04-Akatonbo
DR7 -3.30 dB -12.52 dB 4:36 05-Lady Maddona
DR9 -0.10 dB -12.58 dB 4:51 06-Message In A Bottle
DR9 -0.70 dB -13.83 dB 5:21 07-Scaborough Fair
DR8 -1.95 dB -11.44 dB 3:29 08-Turkish March
DR10 0.00 dB -12.16 dB 3:46 09-Les Songes
DR15 -0.07 dB -18.20 dB 5:04 10-Meditation From Thais
DR11 -0.10 dB -15.61 dB 5:31 11-Prelude 'Raindrop' (op.28-15)
DR11 -0.65 dB -15.26 dB 3:53 12-Pavane (op.50)
DR9 -0.70 dB -13.25 dB 5:25 13-Don't Know Why
DR13 -0.10 dB -16.07 dB 5:08 14-Nuovo Cinema Paradiso
––––––––––––––––––––––––––––––––––––––––

Number of tracks: 14
Official DR value: DR10

Samplerate: 44100 Hz
Channels: 2
Bits per sample: 16
Bitrate: 723 kbps
Codec: FLAC
================================================================================

European Jazz Trio - Best Repertoire (2011) 2CDs

All thanks to original releaser

More interesting music in My Blog