Tags
Language
Tags

Evelyn "Champagne" King - I'm In Love (1981) [2011, Remastered & Expanded Edition]

Posted By: BlondStyle
Evelyn "Champagne" King - I'm In Love (1981) [2011, Remastered & Expanded Edition]

Evelyn "Champagne" King - I'm In Love (1981) [2011, Remastered & Expanded Edition]
R&B, Funk/Soul, Quiet Storm, Post-Disco | EAC Rip | FLAC, Img+CUE+LOG+Scans (JPEG) | 58:39 | 437,20 Mb
Label: Big Break Records (UK) | Cat.# CDBBR 0036 | Released: 2011-03-14 (1981-06-21)
Evelyn "Champagne" King - I'm In Love (1981) [2011, Remastered & Expanded Edition]

"I'm in Love" is the 4th album released by R&B singer Evelyn "Champagne" King on RCA Records in 1981. It was produced by Morrie Brown, Willie Lester, Rodney Brown, Kashif, and Lawrence Jones. By the time her previous album "Call on Me" was released, disco music in the United States faced severe backlash across the country pressuring it to move underground. The now infamous so-called "death of disco" propelled artists to look elsewhere for inspiration, one of which was the way of "one-man bands" pioneered by Stevie Wonder. King was one of the previous successful disco artists who followed the new direction in music. The album peaked at #6 on the R&B albums chart. It also reached #28 on the Billboard 200. It produced the hit singles "I'm In Love", "If You Want My Lovin'", "Don't Hide Our Love", and "Spirit of the Dancer". The album was certified Gold by the RIAA. The album was digitally remastered and reissued on CD with 5 bonus tracks in 2011 by Big Break Records.
~Wikipedia

Evelyn "Champagne" King - I'm In Love (1981) [2011, Remastered & Expanded Edition]

After working with producer T. Life on her first three albums (1977's Smooth Talk, 1979's Music Box, and 1980's Call on Me), Evelyn "Champagne" King changed producers for her fourth album, I'm in Love - a generally excellent release that found the singer being commercially and creatively revitalized. Half of the songs were produced by Kashif associate Morrie Brown (with Kashif and Lawrence Jones serving as associate producers), while the other half were produced by Willie Lester and Rodney Brown. Either way, I'm in Love is King's most rewarding and commercially successful effort since Smooth Talk, and she is undeniably inspired on gems that range from the funky title song (a major hit that Kashif wrote) and the assertive "If You Want My Lovin'" to the ballads "Don't Hide Our Love" and "The Best Is Yet to Come." An interesting tidbit: with I'm in Love, King temporarily dropped the "Champagne" from her name and simply went by Evelyn King - however, she went back to calling herself Evelyn "Champagne" King with 1983's Face to Face. If you only have a few King albums in your collection, I'm in Love should be among them.
~Review by Alex Henderson

Evelyn "Champagne" King - I'm In Love (1981) [2011, Remastered & Expanded Edition]

Evelyn "Champagne" King - I'm In Love (1981) [2011, Remastered & Expanded Edition]


Release of the album: 1981, June, 21 [LP RCA Victor AFL1-3962, USA]
Release of this CD: 2011, March, 14 [CD Big Break Records (UK), Cat.# CDBBR 0036 / UPC: 5013929033627]
℗ 1981. This compilation ℗&© 2011 Big Break Records.
All tracks licensed from Sony Music Entertainment (UK) Ltd.
Marketed and Distributed by Cherry Red Records Ltd.
Made in EC/MCPS


Credits:

Backing Vocals – B.J. Nelson, Evelyn King, Rochele Cappelli, James Brown, Hattie Council
Design [BBR Logo] – Colin Elliot
Executive Producer, Remastered By [Digitally] – Wayne A. Dickson
Liner Notes, Research – Justin Kantor
Other [Makeup] – Robert LaCourte
Other [Stylist] – Patti Wilson
Photography By – Nick Sangiamo
Producer [Associate] – Christian John Wikane
Reissue Producer – Michal L. Bednarek
Transcription By – Leon Fort


Tracklist:

01. "I'm In Love" (05:06)
(Kashif Saleem)
02. "If You Want My Lovin'" (04:21)
(Paul Laurence Jones III, Morrie Brown)
03. "Don't Hide Our Love" (05:27)
(Paul Laurence Jones III, Arthur Sonny Moore)
04. "What Are You Waiting For" (04:12)
(Willie Lester, Rodney Brown)
05. "Spirit Of The Dancer" (04:53)
(Kashif Saleem, Morrie Brown)
06. "The Other Side Of Love" (04:31)
(Willie Lester, Rodney Brown)
07. "I Can't Take It" (04:11)
(Rodney Brown, Willie Lester)
08. "The Best Is Yet To Come" (05:20)
(Rodney Brown, Willie Lester)

Bonus Tracks:

09. "I'm In Love" (Single Version) (03:51)
(Kashif Saleem)
10. "If You Want My Lovin'" (UK Single Version) (03:16)
(Paul Laurence Jones III, Morrie Brown)
11. "Don't Hide Our Love" (Single Version) (04:12)
(Paul Laurence Jones III, Arthur Sonny Moore)
12. "Spirit Of The Dancer" (Single Version) (03:26)
(Kashif Saleem, Morrie Brown)
13. "I'm In Love" (12" Dance Mix) (05:52)
(Kashif Saleem)

Exact Audio Copy V1.3 from 2. September 2016

EAC extraction logfile from 3. October 2021, 17:21

Evelyn ''Champagne'' King / I'm In Love (Expanded Edition)

Used drive : PIONEER BD-RW BDR-208D Adapter: 1 ID: 0

Read mode : Secure
Utilize accurate stream : Yes
Defeat audio cache : Yes
Make use of C2 pointers : No

Read offset correction : 667
Overread into Lead-In and Lead-Out : No
Fill up missing offset samples with silence : Yes
Delete leading and trailing silent blocks : No
Null samples used in CRC calculations : Yes
Used interface : Native Win32 interface for Win NT & 2000

Used output format : Internal WAV Routines
Sample format : 44.100 Hz; 16 Bit; Stereo


TOC of the extracted CD

Track | Start | Length | Start sector | End sector
––––––––––––––––––––––––––––-
1 | 0:00.00 | 5:05.64 | 0 | 22938
2 | 5:05.64 | 4:20.71 | 22939 | 42509
3 | 9:26.60 | 5:26.66 | 42510 | 67025
4 | 14:53.51 | 4:12.33 | 67026 | 85958
5 | 19:06.09 | 4:53.25 | 85959 | 107958
6 | 23:59.34 | 4:30.53 | 107959 | 128261
7 | 28:30.12 | 4:11.34 | 128262 | 147120
8 | 32:41.46 | 5:20.30 | 147121 | 171150
9 | 38:02.01 | 3:51.21 | 171151 | 188496
10 | 41:53.22 | 3:15.70 | 188497 | 203191
11 | 45:09.17 | 4:11.67 | 203192 | 222083
12 | 49:21.09 | 3:25.45 | 222084 | 237503
13 | 52:46.54 | 5:52.37 | 237504 | 263940


Range status and errors

Selected range

Filename D:\BlondStyle\I'm In Love (Expanded Edition).wav

Peak level 100.0 %
Extraction speed 6.9 X
Range quality 99.9 %
Test CRC EF79C0FA
Copy CRC EF79C0FA
Copy OK

No errors occurred


AccurateRip summary

Track 1 accurately ripped (confidence 7) [4BF0BF18] (AR v2)
Track 2 accurately ripped (confidence 7) [B33F8A68] (AR v2)
Track 3 accurately ripped (confidence 7) [9A080526] (AR v2)
Track 4 accurately ripped (confidence 7) [09A4FAFF] (AR v2)
Track 5 accurately ripped (confidence 7) [65B4223D] (AR v2)
Track 6 accurately ripped (confidence 7) [BEE329A3] (AR v2)
Track 7 accurately ripped (confidence 7) [902A86C0] (AR v2)
Track 8 accurately ripped (confidence 7) [8989C7DA] (AR v2)
Track 9 accurately ripped (confidence 6) [6F2963D1] (AR v2)
Track 10 accurately ripped (confidence 6) [08EA7016] (AR v2)
Track 11 accurately ripped (confidence 6) [78A4766F] (AR v2)
Track 12 accurately ripped (confidence 6) [A261E598] (AR v2)
Track 13 accurately ripped (confidence 6) [CBE4EBAD] (AR v2)

All tracks accurately ripped

End of status report

–– CUETools DB Plugin V2.1.6

[CTDB TOCID: zEWGOEEWDJNo3XZKDK9fQafb8Xc-] found
Submit result: zEWGOEEWDJNo3XZKDK9fQafb8Xc- has been confirmed
Track | CTDB Status
1 | (7/7) Accurately ripped
2 | (7/7) Accurately ripped
3 | (7/7) Accurately ripped
4 | (7/7) Accurately ripped
5 | (7/7) Accurately ripped
6 | (7/7) Accurately ripped
7 | (7/7) Accurately ripped
8 | (7/7) Accurately ripped
9 | (7/7) Accurately ripped
10 | (7/7) Accurately ripped
11 | (7/7) Accurately ripped
12 | (7/7) Accurately ripped
13 | (7/7) Accurately ripped


==== Log checksum 6841609B73977386D093D76C1DD92A0094D3FAB42C199C767DCED1DB9F444CA4 ====

––––––––––––––––––––––––––––––––––––––––
Analyzed: Evelyn ''Champagne'' King / I'm In Love (Expanded Edition)
––––––––––––––––––––––––––––––––––––––––

DR Peak RMS Duration Track
––––––––––––––––––––––––––––––––––––––––
DR8 0.00 dB -10.56 dB 5:06 01-I'm In Love
DR8 0.00 dB -9.98 dB 4:21 02-If You Want My Lovin'
DR8 0.00 dB -11.17 dB 5:27 03-Don't Hide Our Love
DR8 0.00 dB -10.08 dB 4:12 04-What Are You Waiting For
DR10 0.00 dB -11.19 dB 4:53 05-Spirit Of The Dancer
DR8 0.00 dB -10.51 dB 4:31 06-The Other Side Of Love
DR9 0.00 dB -10.25 dB 4:11 07-I Can't Take It
DR8 0.00 dB -11.69 dB 5:20 08-The Best Is Yet To Come
DR8 0.00 dB -10.22 dB 3:51 09-I'm In Love (Single Version) (Bonus Track)
DR9 0.00 dB -10.55 dB 3:16 10-If You Want My Lovin' (UK Single Version) (Bonus Track)
DR9 0.00 dB -11.73 dB 4:12 11-Don't Hide Our Love (Single Version) (Bonus Track)
DR9 0.00 dB -10.28 dB 3:26 12-Spirit Of The Dancer (Single Version) (Bonus Track)
DR9 0.00 dB -10.51 dB 5:52 13-I'm In Love (12'' Dance Mix) (Bonus Track)
––––––––––––––––––––––––––––––––––––––––

Number of tracks: 13
Official DR value: DR9

Samplerate: 44100 Hz
Channels: 2
Bits per sample: 16
Bitrate: 959 kbps
Codec: FLAC
================================================================================

See also:

♫~Welcome To My Blog~♫

password: BlondStyle