Tags
Language
Tags

VA - Future Retro (2006)

Posted By: v3122
VA - Future Retro (2006)

VA - Future Retro (2006)
EAC | Flac(Image) + Cue + Log & MP3 CBR 320Kbps
Rhino, R2 73198 | ~ 575 or 185 Mb | Artwork(jpg) -> 124 Mb
Synth-pop, New Wave, Electro, Breaks, Tech House

Arranged by Craig DeGraff, who claims, hopefully with tongue placed somewhat injuriously in cheek, "Not since the KLF has there been such a rock & roll swindle," Future Retro is a compilation from Rhino that sets up WEA-distributed hits of the early '80s (most of them new wave) with remixers. He also wisely states that "These remixes are in no way meant to replace the originals," which is a better way to look at the set. If you're a new wave freak who has kept up with club music, Future Retro will likely surprise you a few times, though it is unsurprising that Richard X – with his wonderfully layered mix of Yaz's "Situation" – and Tiga – with his teasingly spacious mix of Depeche Mode's "Shake the Disease" – are responsible for the highlights. Some of these tracks, however, become grindingly tedious within a few seconds and might as well be progressive trance covers via DJ Sammy. One requested match for the second volume: Jacques Lu Cont and Telex's "Moskow Diskow."

by Andy Kellman, allmusic
VA - Future Retro (2006):

VA - Future Retro (2006)

Tracklist:

01. The Cure - The The Walk (Infusion Mix)
02. Yaz - Situation (Richard X Remix)
03. Echo & The Bunnymen - Lips Like Sugar (Way Out West Remix Edit)
04. INXS - Need You Tonight (Static Revenger Mix Edit)
05. Depeche Mode - Shake The Disease (Tiga Remix)
06. Erasure - A Little Respect (Jaded Alliance 'Electrospect' Remix)
07. Howard Jones - New Song (Peter Black & Hardrock Striker Mix Edit)
08. Alphaville - Forever Young (Hamel Album Mix)
09. New Order - Bizarre Love Triangle (The Crystal Method Extended Mix)
10. Grandmaster Flash & Melle Mel - White Lines [Don't Don't Do It] (Elite Force Mix)
11. Devo - Girl U Want (Black Light Odyssey Mix)
12. B-Movie - Nowhere Girl (Adam Freeland Mix)
13. Book Of Love - Boy (DJ Irene Rockstar Mix)
14. Morrissey - Suedehead (Sparks Remix)

Exact Audio Copy V0.99 prebeta 4 from 23. January 2008

Отчёт EAC об извлечении, выполненном 24. августа 2009, 19:48

Various Artists / Future Retro

Дисковод: _NEC CD-RW NR-9300A Adapter: 0 ID: 1

Режим чтения : Достоверность
Использование точного потока : Да
Отключение кэша аудио : Да
Использование указателей C2 : Нет

Коррекция смещения при чтении : 685
Способность читать области Lead-in и Lead-out : Нет
Заполнение пропущенных сэмплов тишиной : Да
Удаление блоков с тишиной в начале и конце : Нет
При вычислениях CRC использовались нулевые сэмплы : Да
Интерфейс : Установленный внешний ASPI-интерфейс

Выходной формат : Monkey's Audio (без потерь)
Выбранный битрейт : High Lossless Compression
Качество : Высокий
Добавление ID3-тэга : Да
Утилита сжатия : C:\Program Files\Exact Audio Copy\Monkey's Audio\Monkey's Audio.exe


TOC извлечённого CD

Трек | Старт | Длительность | Начальный сектор | Конечный сектор
––––––––––––––––––––––––––––––––––-
1 | 0:00.00 | 5:36.47 | 0 | 25246
2 | 5:36.47 | 5:51.11 | 25247 | 51582
3 | 11:27.58 | 4:52.33 | 51583 | 73515
4 | 16:20.16 | 4:21.08 | 73516 | 93098
5 | 20:41.24 | 6:48.74 | 93099 | 123772
6 | 27:30.23 | 6:31.09 | 123773 | 153106
7 | 34:01.32 | 3:26.67 | 153107 | 168623
8 | 37:28.24 | 4:45.28 | 168624 | 190026
9 | 42:13.52 | 6:05.74 | 190027 | 217475
10 | 48:19.51 | 7:35.28 | 217476 | 251628
11 | 55:55.04 | 3:47.09 | 251629 | 268662
12 | 59:42.13 | 7:30.00 | 268663 | 302412
13 | 67:12.13 | 4:27.00 | 302413 | 322437
14 | 71:39.13 | 6:36.63 | 322438 | 352200


Характеристики диапазона извлечения и сообщения об ошибках

Выбранный диапазон

Имя файла D:\torrent\VA - Future Retro [R2 73198] - 2006\Various Artists - Future Retro.wav

Пиковый уровень 99.8 %
Качество диапазона 100.0 %
CRC теста 30510AA9
CRC копии 30510AA9
Копирование… OK

Ошибок не произошло


AccurateRip: сводка

Трек 1 точное извлечение (доверие 10) [B01FA92E]
Трек 2 точное извлечение (доверие 11) [8544C3D5]
Трек 3 точное извлечение (доверие 10) [CE1F6A53]
Трек 4 точное извлечение (доверие 10) [88B2228F]
Трек 5 точное извлечение (доверие 10) [06F337D4]
Трек 6 точное извлечение (доверие 10) [4E4BD516]
Трек 7 точное извлечение (доверие 10) [7BAE85E9]
Трек 8 точное извлечение (доверие 10) [C6E6ACD0]
Трек 9 точное извлечение (доверие 10) [F5D02B16]
Трек 10 точное извлечение (доверие 10) [836F9EBD]
Трек 11 точное извлечение (доверие 10) [AD7B2A00]
Трек 12 точное извлечение (доверие 10) [63AD283A]
Трек 13 точное извлечение (доверие 10) [7A80996D]
Трек 14 точное извлечение (доверие 10) [7AC278AA]

Все треки извлечены точно

Конец отчёта


[CUETools log; Date: 24.12.2020 22:59:11; Version: 2.1.4]
[AccurateRip ID: 00279404-01a72e48-b812580e] found.
Track [ CRC | V2 ] Status
01 [b01fa92e|f91a8e77] (15+22/37) Accurately ripped
02 [8544c3d5|93329a0d] (16+22/38) Accurately ripped
03 [ce1f6a53|aa61a013] (15+22/37) Accurately ripped
04 [88b2228f|67ae5c55] (15+22/37) Accurately ripped
05 [06f337d4|7940c93b] (15+23/38) Accurately ripped
06 [4e4bd516|35d7d9e6] (15+22/37) Accurately ripped
07 [7bae85e9|541ab685] (15+22/37) Accurately ripped
08 [c6e6acd0|5c05f02f] (15+22/37) Accurately ripped
09 [f5d02b16|fbd665e2] (15+23/38) Accurately ripped
10 [836f9ebd|a45b317d] (15+23/38) Accurately ripped
11 [ad7b2a00|bcc67614] (16+22/38) Accurately ripped
12 [63ad283a|e3bfecd5] (15+22/37) Accurately ripped
13 [7a80996d|3d96ea1b] (15+22/37) Accurately ripped
14 [7ac278aa|d6cc2b3a] (15+23/38) Accurately ripped

Track Peak [ CRC32 ] [W/O NULL] [ LOG ]
– 99,8 [30510AA9] [B5E1D64A] CRC32
01 99,8 [64A52C2B] [F039A459]
02 99,8 [D8BF1F66] [C286A06F]
03 99,8 [181F73CF] [00867FF6]
04 99,8 [70E11079] [A4AD0875]
05 99,2 [C034E24E] [7299AF13]
06 99,8 [ABD40010] [8F7ED65C]
07 99,8 [509E8903] [A851F0A6]
08 99,8 [35060E01] [6A1796CC]
09 99,8 [D9370339] [D20C69EF]
10 99,8 [23DF7BFD] [A7743E71]
11 99,8 [57036B88] [579BBF13]
12 99,8 [E15B0F20] [436EE70E]
13 99,5 [008E5E81] [FBA76804]
14 99,8 [1A0C503B] [908F816E]


VA - Future Retro (2006)

All thanks go to the original releaser

Download VA - Future Retro (2006):