Subcategories

Gipsy Kings - Luna de Fuego (1983) [Re-Up]

Posted By: Designol
Gipsy Kings - Luna de Fuego (1983) [Re-Up]

Gipsy Kings - Luna de Fuego (1983)
EAC | FLAC | Image (Cue&Log) ~ 210 Mb | Mp3 (CBR320) ~ 86 Mb | Scans ~ 70 Mb
New Flamenco, Rumba Catalana, World Fusion | Label: Columbia | # 466763 2 | 00:37:27

The Gipsy Kings had major crossover success with their splendid and innovative third album, which used drums, bass, percussion, and synthesizer to beef up the sound. This French import is their first album from 1983, and it is a much more traditional affair, with only acoustic guitars, voices, and hand claps. It shows that artistically the sound did not need to be beefed up; the music is still wonderful. How can an array of seven guitars and full-throated passion not be wonderful? Commercially, the additions to their sound helped break The Gipsy Kings through to a larger audience, but now that their name is known, it should be possible for more people to go back and appreciate this album. It is in no way crude or unpolished, and the artistry and playing are of an equally high quality.

Review by Rhythm Newsletter, Allmusic.com

Gipsy Kings - Luna de Fuego (1983) [Re-Up]



Tracklist:

01. Amor D'Un Dia (04:56)
02. Luna De Fuego (03:32)
03. Calaverada (02:50)
04. Galaxia (03:03)
05. Ruptura (04:28)
06. Gipsyrock (04:06)
07. Viento Del Arena (04:55)
08. Princessa (03:34)
09. Olvidado (02:44)
10. Ciento (03:19)


Exact Audio Copy V1.0 beta 1 from 15. November 2010

EAC extraction logfile from 6. December 2010, 12:40

Gipsy Kings / Luna De Fuego (466763-2)

Used drive : MATSHITADVD-R UJ-825 Adapter: 0 ID: 1

Read mode : Secure
Utilize accurate stream : Yes
Defeat audio cache : Yes
Make use of C2 pointers : No

Read offset correction : 102
Overread into Lead-In and Lead-Out : No
Fill up missing offset samples with silence : Yes
Delete leading and trailing silent blocks : No
Null samples used in CRC calculations : Yes
Used interface : Native Win32 interface for Win NT & 2000

Used output format : User Defined Encoder
Selected bitrate : 896 kBit/s
Quality : High
Add ID3 tag : No
Command line compressor : C:\Program Files\Exact Audio Copy 1.0\Flac\flac.exe
Additional command line options : -8 -V %s


TOC of the extracted CD

Track | Start | Length | Start sector | End sector
––––––––––––––––––––––––––––-
1 | 0:00.00 | 4:56.50 | 0 | 22249
2 | 4:56.50 | 3:32.05 | 22250 | 38154
3 | 8:28.55 | 2:50.65 | 38155 | 50969
4 | 11:19.45 | 3:03.72 | 50970 | 64766
5 | 14:23.42 | 4:28.65 | 64767 | 84931
6 | 18:52.32 | 4:06.03 | 84932 | 103384
7 | 22:58.35 | 4:55.62 | 103385 | 125571
8 | 27:54.22 | 3:34.08 | 125572 | 141629
9 | 31:28.30 | 2:44.07 | 141630 | 153936
10 | 34:12.37 | 3:19.10 | 153937 | 168871


Range status and errors

Selected range

Filename C:\Olaf der Weisse\Gipsy Kings . 1983 . Luna De Fuego (466763-2)\Gipsy Kings - Luna De Fuego (466763-2).wav

Peak level 97.3 %
Extraction speed 0.0 X
Range quality 100.0 %
Test CRC 78A0D763
Copy CRC 78A0D763
Copy OK

No errors occurred


AccurateRip summary

Track 1 accurately ripped (confidence 2) [4EAF7382]
Track 2 accurately ripped (confidence 2) [41C0CE28]
Track 3 accurately ripped (confidence 2) [39F2CEED]
Track 4 accurately ripped (confidence 2) [45139943]
Track 5 accurately ripped (confidence 2) [F4C474A0]
Track 6 accurately ripped (confidence 2) [0EC2DE54]
Track 7 accurately ripped (confidence 2) [C6B65CF6]
Track 8 accurately ripped (confidence 2) [AB2EA4B3]
Track 9 accurately ripped (confidence 2) [67085468]
Track 10 accurately ripped (confidence 2) [15D7078D]

All tracks accurately ripped

End of status report

==== Log checksum DCE2E1A440D558278E0DD26EC509DC67C8AAA9D16B73D340517F77AB7CE8AA78 ====

foobar2000 1.2.1 / Dynamic Range Meter 1.1.1
log date: 2013-01-29 21:25:42

––––––––––––––––––––––––––––––––––––––––
Analyzed: Gipsy Kings / Luna De Fuego (466763-2)
––––––––––––––––––––––––––––––––––––––––

DR Peak RMS Duration Track
––––––––––––––––––––––––––––––––––––––––
DR13 -3.62 dB -21.40 dB 4:57 01-Amor D'Un Dia
DR15 -0.24 dB -19.48 dB 3:32 02-Luna De Fuego
DR13 -3.25 dB -21.26 dB 2:51 03-Calaverada
DR14 -1.48 dB -18.91 dB 3:04 04-Galaxia
DR14 -3.78 dB -21.00 dB 4:29 05-Ruptura
DR15 -1.60 dB -19.78 dB 4:06 06-Gipsyrock
DR13 -2.79 dB -20.38 dB 4:56 07-Viento Del Arena
DR13 -2.25 dB -19.91 dB 3:34 08-Princessa
DR16 -1.46 dB -21.89 dB 2:44 09-Olvidado
DR13 -3.20 dB -19.48 dB 3:19 10-Ciento
––––––––––––––––––––––––––––––––––––––––

Number of tracks: 10
Official DR value: DR14

Samplerate: 44100 Hz
Channels: 2
Bits per sample: 16
Bitrate: 785 kbps
Codec: FLAC
================================================================================

Gipsy Kings - Luna de Fuego (1983) [Re-Up]

Gipsy Kings - Luna de Fuego (1983) [Re-Up]