Tags
Language
Tags

Govi - Heart Of A Gypsy (1989) [Re-Up]

Posted By: Designol
Govi - Heart Of A Gypsy (1989) [Re-Up]

Govi - Heart Of A Gypsy (1989)
EAC | FLAC | Tracks (Cue&Log) ~ 263 Mb | Mp3 (CBR320) ~ 112 Mb | Scans included
New Age, World Fusion, New Flamenco | Label: Real Music | # RM0789 | 00:39:51

Heart of a Gypsy is a unique blend of original compositions, drawing on influences ranging from Caribbean to flamenco to the Orient. Accompanied by a variety of instruments, Govi’s distinctive guitar playing reflects joy and passion, capturing the true essence of a gypsy.

A sprinkling of rainbow hues from Hawaii, South America, India and the Caribbean. Backed by keyboards, hand drums and instruments from around the world, Govi's jubilant compositions and engaging guitar create the enchanting magic that is Cuchama.

We have all of Govi's CDs and find everyone of them a pleasure to listen to. I find that whenever I want to just relax and not think about the insanity we call life, I fire up a Govi CD and can escape to another world.

"Heart of a Gypsy" is a good title for this CD. Govi presents a really nice mix of music that is wandering and wide ranging.
Like so many words and phrases "The Greatest", "The Best" are far over used and abused. I feel that Govi is very good, he has excellent technique, his selections are quite good and his supporting mixing and engineering are outstanding. Among the pieces on this CD is one of my two favorite pieces, that Govi has done. I feel that "Amber Waves" is just an incredible piece of music (the other is "Spirit Rider").

Once in a rare while a few artists can extend their talent beyond themselves and produce something that is realy exceptional. I feel that "Amber Waves" is one of these rare examples of such a moment. All in all "Heart of a Gypsy" is good music that is easy to listen to and enjoy.

Review by John S. Erickson, Amazon.com

Govi - Heart Of A Gypsy (1989) [Re-Up]



Tracklist:

01. Danza del Mango (4:14)
02. Amber Waves (3:31)
03. Gitana (Gypsy Woman) (3:09)
04. Pied Piper (4:38)
05. Summer Breeze (4:40)
06. Gypsy Heart (3:48)
07. Festiva'l (3:11)
08. In Harmony (5:11)
09. Moonlit Shadows (4:09)
10. Gitanas (Gypsy Women) (3:22)


Exact Audio Copy V0.99 prebeta 4 from 23. January 2008

EAC extraction logfile from 6. December 2008, 15:58

Govi / Heart of a Gypsy

Used drive : PLEXTOR DVDR PX-760A Adapter: 0 ID: 0

Read mode : Secure
Utilize accurate stream : Yes
Defeat audio cache : Yes
Make use of C2 pointers : No

Read offset correction : 30
Overread into Lead-In and Lead-Out : No
Fill up missing offset samples with silence : Yes
Delete leading and trailing silent blocks : No
Null samples used in CRC calculations : Yes
Used interface : Installed external ASPI interface
Gap handling : Appended to previous track

Used output format : User Defined Encoder
Selected bitrate : 128 kBit/s
Quality : High
Add ID3 tag : No
Command line compressor : G:\Program Files\FLAC\flac.exe
Additional command line options : -8 -V -T "ARTIST=%a" -T "TITLE=%t" -T "ALBUM=%g" -T "DATE=%y" -T "TRACKNUMBER=%n" -T "GENRE=%m" -T "COMMENT=ripped by DrStandBy" %s


TOC of the extracted CD

Track | Start | Length | Start sector | End sector
––––––––––––––––––––––––––––-
1 | 0:00.00 | 4:13.55 | 0 | 19029
2 | 4:13.55 | 3:30.47 | 19030 | 34826
3 | 7:44.27 | 3:09.00 | 34827 | 49001
4 | 10:53.27 | 4:37.45 | 49002 | 69821
5 | 15:30.72 | 4:39.50 | 69822 | 90796
6 | 20:10.47 | 3:47.48 | 90797 | 107869
7 | 23:58.20 | 3:10.72 | 107870 | 122191
8 | 27:09.17 | 5:10.45 | 122192 | 145486
9 | 32:19.62 | 4:09.30 | 145487 | 164191
10 | 36:29.17 | 3:22.35 | 164192 | 179376


Track 1

Filename C:\Lossless\GOVI\1989 - Heart Of Gypsy\01. Govi - Danza del Mango.wav

Pre-gap length 0:00:02.00

Peak level 98.8 %
Track quality 100.0 %
Test CRC 66FB8F80
Copy CRC 66FB8F80
Track not present in AccurateRip database
Copy OK

Track 2

Filename C:\Lossless\GOVI\1989 - Heart Of Gypsy\02. Govi - Amber Waves.wav

Pre-gap length 0:00:03.04

Peak level 98.8 %
Track quality 100.0 %
Test CRC 86D9D6F1
Copy CRC 86D9D6F1
Track not present in AccurateRip database
Copy OK

Track 3

Filename C:\Lossless\GOVI\1989 - Heart Of Gypsy\03. Govi - Gitana (Gypsy Woman).wav

Pre-gap length 0:00:01.33

Peak level 94.4 %
Track quality 100.0 %
Test CRC 4A7C4422
Copy CRC 4A7C4422
Track not present in AccurateRip database
Copy OK

Track 4

Filename C:\Lossless\GOVI\1989 - Heart Of Gypsy\04. Govi - Pied Piper.wav

Pre-gap length 0:00:02.22

Peak level 98.8 %
Track quality 99.9 %
Test CRC 370A600B
Copy CRC 370A600B
Track not present in AccurateRip database
Copy OK

Track 5

Filename C:\Lossless\GOVI\1989 - Heart Of Gypsy\05. Govi - Summer Breeze.wav

Pre-gap length 0:00:02.13

Peak level 98.8 %
Track quality 100.0 %
Test CRC 8152FFCE
Copy CRC 8152FFCE
Track not present in AccurateRip database
Copy OK

Track 6

Filename C:\Lossless\GOVI\1989 - Heart Of Gypsy\06. Govi - Gypsy Heart.wav

Pre-gap length 0:00:05.26

Peak level 98.8 %
Track quality 100.0 %
Test CRC 751926CC
Copy CRC 751926CC
Track not present in AccurateRip database
Copy OK

Track 7

Filename C:\Lossless\GOVI\1989 - Heart Of Gypsy\07. Govi - Festiva'l.wav

Pre-gap length 0:00:00.57

Peak level 98.8 %
Track quality 100.0 %
Test CRC 6173D04B
Copy CRC 6173D04B
Track not present in AccurateRip database
Copy OK

Track 8

Filename C:\Lossless\GOVI\1989 - Heart Of Gypsy\08. Govi - In Harmony.wav

Pre-gap length 0:00:01.49

Peak level 98.8 %
Track quality 100.0 %
Test CRC CCF58C1C
Copy CRC CCF58C1C
Track not present in AccurateRip database
Copy OK

Track 9

Filename C:\Lossless\GOVI\1989 - Heart Of Gypsy\09. Govi - Moonlit Shadows.wav

Pre-gap length 0:00:01.82

Peak level 98.8 %
Track quality 99.9 %
Test CRC FA2AE365
Copy CRC FA2AE365
Track not present in AccurateRip database
Copy OK

Track 10

Filename C:\Lossless\GOVI\1989 - Heart Of Gypsy\10. Govi - Gitanas (Gypsy Women).wav

Pre-gap length 0:00:02.49

Peak level 98.8 %
Track quality 100.0 %
Test CRC B55C0940
Copy CRC B55C0940
Track not present in AccurateRip database
Copy OK


None of the tracks are present in the AccurateRip database

No errors occurred

End of status report

[CUETools log; Date: 04.10.2018 2:43:35; Version: 2.1.4]
HDCD: peak extend: none, transient filter: none, gain: none
[CTDB TOCID: HMIbXExcjHS1LQja0Ily3VZIVl8-] found.
Track | CTDB Status
1 | (17/17) Accurately ripped
2 | (17/17) Accurately ripped
3 | (17/17) Accurately ripped
4 | (17/17) Accurately ripped
5 | (17/17) Accurately ripped
6 | (17/17) Accurately ripped
7 | (17/17) Accurately ripped
8 | (17/17) Accurately ripped
9 | (17/17) Accurately ripped
10 | (16/17) Accurately ripped
[AccurateRip ID: 000efe44-0078626e-7209570a] found.
Track [ CRC | V2 ] Status
01 [44e09486|700e1b27] (03+00/12) Accurately ripped
02 [572ce31b|0da33eaf] (03+00/12) Accurately ripped
03 [ae324e42|7fb17fa0] (03+00/12) Accurately ripped
04 [6dc253e2|c245f253] (03+00/12) Accurately ripped
05 [155acfa5|c0226f6c] (03+00/12) Accurately ripped
06 [0ef19ec6|eab49723] (03+00/12) Accurately ripped
07 [277ae3a3|5ca7ad7c] (03+00/12) Accurately ripped
08 [94c60f86|5d61b761] (03+00/12) Accurately ripped
09 [6af54078|d9830c87] (03+00/12) Accurately ripped
10 [89620905|8619bdff] (03+00/12) Accurately ripped
Offsetted by 667:
01 [f0c33506] (03/12) Accurately ripped
02 [47d77398] (03/12) Accurately ripped
03 [97e499d1] (03/12) Accurately ripped
04 [3f88cb1c] (03/12) Accurately ripped
05 [999da23b] (03/12) Accurately ripped
06 [95921e12] (03/12) Accurately ripped
07 [d2825e75] (03/12) Accurately ripped
08 [5a102afd] (03/12) Accurately ripped
09 [0550570b] (03/12) Accurately ripped
10 [180fdd71] (03/12) Accurately ripped
Offsetted by 3:
01 [a705347d] (00/12) No match (V2 was not tested)
02 [94c0978e] (00/12) No match (V2 was not tested)
03 [f7126c90] (00/12) No match (V2 was not tested)
04 [2f837815] (00/12) No match (V2 was not tested)
05 [4aa2c3f7] (00/12) No match (V2 was not tested)
06 [42b20b9d] (00/12) No match (V2 was not tested)
07 [7f0df6b0] (00/12) No match (V2 was not tested)
08 [403599e5] (00/12) No match (V2 was not tested)
09 [1c0ffe56] (00/12) No match (V2 was not tested)
10 [74f7dad0] (00/12) No match (V2 was not tested)

Track Peak [ CRC32 ] [W/O NULL] [ LOG ]
– 98,8 [B31B8C9C] [DE6CC738]
01 98,8 [66FB8F80] [AB71E4C0] CRC32
02 98,8 [86D9D6F1] [91B4815F] CRC32
03 94,4 [4A7C4422] [7E46ECFF] CRC32
04 98,8 [370A600B] [E2E9193B] CRC32
05 98,8 [8152FFCE] [96148361] CRC32
06 98,8 [751926CC] [AE25A2FF] CRC32
07 98,8 [6173D04B] [01088E13] CRC32
08 98,8 [CCF58C1C] [6C9CC029] CRC32
09 98,8 [FA2AE365] [721569FD] CRC32
10 98,8 [B55C0940] [DE67A8F5] CRC32

foobar2000 1.2 / Dynamic Range Meter 1.1.1
log date: 2018-10-04 02:43:29

––––––––––––––––––––––––––––––––––––––––
Analyzed: Govi / Heart of a Gypsy
––––––––––––––––––––––––––––––––––––––––

DR Peak RMS Duration Track
––––––––––––––––––––––––––––––––––––––––
DR10 -0.10 dB -11.66 dB 4:14 01-Danza del Mango
DR10 -0.10 dB -12.56 dB 3:31 02-Amber Waves
DR12 -0.50 dB -14.33 dB 3:09 03-Gitana (Gypsy Woman)
DR9 -0.10 dB -11.85 dB 4:38 04-Pied Piper
DR13 -0.10 dB -15.24 dB 4:40 05-Summer Breeze
DR11 -0.10 dB -12.16 dB 3:48 06-Gypsy Heart
DR11 -0.10 dB -12.52 dB 3:11 07-Festiva'l
DR11 -0.10 dB -12.75 dB 5:11 08-In Harmony
DR10 -0.10 dB -12.48 dB 4:09 09-Moonlit Shadows
DR9 -0.10 dB -11.58 dB 3:22 10-Gitanas (Gypsy Women)
––––––––––––––––––––––––––––––––––––––––

Number of tracks: 10
Official DR value: DR10

Samplerate: 44100 Hz
Channels: 2
Bits per sample: 16
Bitrate: 854 kbps
Codec: FLAC
================================================================================

Govi - Heart Of A Gypsy (1989) [Re-Up]

Govi - Heart Of A Gypsy (1989) [Re-Up]