Tags
Language
Tags

Groundhogs - Thank Christ For Groundhogs: The Liberty Years 1968-1972 (2010) 3CD Box Set [Re-Up]

Posted By: Designol
Groundhogs - Thank Christ For Groundhogs: The Liberty Years 1968-1972 (2010) 3CD Box Set [Re-Up]

Groundhogs - Thank Christ For Groundhogs: The Liberty Years 1968-1972 (2010) 3CD Box Set
EAC | FLAC | Image (Cue&Log) ~ 1.18 Gb | Mp3 (CBR320) ~ 460 Mb | Scans ~ 307 Mb | 03:21:03
Blues Rock, Psychedelic Rock, British Blues | Label: EMI | # 50999 646271 2 0

2010 three CD set that contains their first five albums for Liberty Records (1968-72) plus bonus tracks. With a career that spans an impressive five decades, the Groundhogs are a veritable British Blues-Rock institution. With a line-up cemented around Peter Cruickshank on bass guitar, Ken Pustelnik on drums and fronted by singer, guitarist and principle songwriter Tony (T.S.) McPhee, this bluesy power trio were joined by harmonica toting Steve Rye for their full length debut, Scratching The Surface released on Liberty Records in 1968. With a reputation hard won by their incessant touring schedule, the band recorded Blues Obituary as a three piece in 1969, followed by Thanks Christ For The Bomb (1970), then hitting #5 with their most successful record, Split, in 1971 and rounded off by the fabulously titled Who Will Save The World? The Mighty Groundhogs (1972).

EMI’s 2010 set Thank Christ for the Groundhogs: The Liberty Years (1968-1972) is an excellent budget-line set that contains the band’s five albums for Liberty – Scratching the Surface, Blues Obituary, Thank Christ for the Bomb, Split, and Who Will Save the World? The Mighty Groundhogs – on a three-disc set.

Review by Stephen Thomas Erlewine, Allmusic.com

Groundhogs - Thank Christ For Groundhogs: The Liberty Years 1968-1972 (2010) 3CD Box Set [Re-Up]



Tracklist:

CD1:

01. Rocking Chair (04:14)
02. Early In The Morning (04:50)
03. Waking Blues (02:29)
04. Married Men (04:39)
05. No More Doggin' (04:57)
06. Man Trouble (06:27)
07. Come Back Baby (03:54)
08. You Don't Love Me (04:11)
09. Still A Fool (06:37)
10. Still A Fool (Single Edit) (04:11)
11. B.D.D. (03:49)
12. Daze Of The Weak (05:16)
13. Times (05:19)
14. Mistreated (04:00)

CD2:

01. Express Man (03:58)
02. Natchez Burning (04:37)
03. Light Was The Day (06:54)
04. BDD (Mono Mix) (02:52)
05. Strange Town (04:19)
06. Darkness Is No Friend (03:48)
07. Soldier (04:54)
08. Thank Christ For The Bomb (07:21)
09. Ship On The Ocean (03:28)
10. Garden (05:24)
11. Status People (03:34)
12. Rich Man, Poor Man (03:26)
13. Eccentric Man (04:57)
14. Split - Part One (04:29)
15. Split - Part Two (05:14)
16. Split - Part Three (04:30)
17. Split - Part Four (05:43)

CD3:

01. Cherry Red (05:44)
02. A Year In The Life (03:15)
03. Junkman (05:02)
04. Groundhog (05:50)
05. Earth Is Not Room Enough (04:48)
06. Wages Of Peace (04:38)
07. Body In Mind (03:49)
08. Music Is The Food Of Thought (04:38)
09. Bog Roll Blues (03:09)
10. Death Of The Sun (02:53)
11. Amazing Grace (02:24)
12. The Grey Maze (10:09)


Exact Audio Copy V1.0 beta 1 from 15. November 2010

EAC extraction logfile from 16. April 2011, 0:38

Groundhogs / Groundhogs Liberty Years 1968-1972 CD1

Used drive : HL-DT-STDVDRAM GSA-H60N Adapter: 2 ID: 0

Read mode : Secure
Utilize accurate stream : Yes
Defeat audio cache : Yes
Make use of C2 pointers : No

Read offset correction : 667
Overread into Lead-In and Lead-Out : No
Fill up missing offset samples with silence : Yes
Delete leading and trailing silent blocks : No
Null samples used in CRC calculations : Yes
Used interface : Native Win32 interface for Win NT & 2000

Used output format : Internal WAV Routines
Sample format : 44.100 Hz; 16 Bit; Stereo


TOC of the extracted CD

Track | Start | Length | Start sector | End sector
––––––––––––––––––––––––––––-
1 | 0:00.00 | 4:14.33 | 0 | 19082
2 | 4:14.33 | 4:50.53 | 19083 | 40885
3 | 9:05.11 | 2:29.49 | 40886 | 52109
4 | 11:34.60 | 4:39.74 | 52110 | 73108
5 | 16:14.59 | 4:57.28 | 73109 | 95411
6 | 21:12.12 | 6:27.24 | 95412 | 124460
7 | 27:39.36 | 3:54.50 | 124461 | 142060
8 | 31:34.11 | 4:11.25 | 142061 | 160910
9 | 35:45.36 | 6:37.55 | 160911 | 190740
10 | 42:23.16 | 4:11.60 | 190741 | 209625
11 | 46:35.01 | 3:49.37 | 209626 | 226837
12 | 50:24.38 | 5:16.25 | 226838 | 250562
13 | 55:40.63 | 5:19.63 | 250563 | 274550
14 | 61:00.51 | 4:00.70 | 274551 | 292620


Range status and errors

Selected range

Filename C:\Documents and Settings\Администратор\Рабочий стол\Rip by ALLexxess\2010 Groundhogs Liberty Years 1968-1972 (3CD Box Set EMI Records)\CD1\Groundhogs Liberty Years 1968-1972 CD1.wav

Peak level 99.0 %
Extraction speed 0.4 X
Range quality 100.0 %
Test CRC D5EB5821
Copy CRC D5EB5821
Copy OK

No errors occurred


AccurateRip summary

Track 1 accurately ripped (confidence 5) [48F9C60D]
Track 2 accurately ripped (confidence 5) [A58BFA21]
Track 3 accurately ripped (confidence 5) [D1C5D9B0]
Track 4 accurately ripped (confidence 5) [4A3AE8C3]
Track 5 accurately ripped (confidence 5) [D25D3659]
Track 6 accurately ripped (confidence 5) [8C73C774]
Track 7 accurately ripped (confidence 5) [ACE86565]
Track 8 accurately ripped (confidence 5) [BB9FA2C0]
Track 9 accurately ripped (confidence 5) [3BD5B1E5]
Track 10 accurately ripped (confidence 5) [9E7992CA]
Track 11 accurately ripped (confidence 4) [55048A46]
Track 12 accurately ripped (confidence 4) [BA85E18C]
Track 13 accurately ripped (confidence 4) [EE50B3BA]
Track 14 accurately ripped (confidence 4) [4BEF2D0A]

All tracks accurately ripped

End of status report

==== Log checksum EF250A6FADD23445B7F99695757CCA7393B1D62E465FACEE78053A9FE5EDE9E0 ====

Exact Audio Copy V1.0 beta 1 from 15. November 2010

EAC extraction logfile from 16. April 2011, 1:40

Groundhogs / Groundhogs Liberty Years 1968-1972 CD2

Used drive : HL-DT-STDVDRAM GSA-H60N Adapter: 2 ID: 0

Read mode : Secure
Utilize accurate stream : Yes
Defeat audio cache : Yes
Make use of C2 pointers : No

Read offset correction : 667
Overread into Lead-In and Lead-Out : No
Fill up missing offset samples with silence : Yes
Delete leading and trailing silent blocks : No
Null samples used in CRC calculations : Yes
Used interface : Native Win32 interface for Win NT & 2000

Used output format : Internal WAV Routines
Sample format : 44.100 Hz; 16 Bit; Stereo


TOC of the extracted CD

Track | Start | Length | Start sector | End sector
––––––––––––––––––––––––––––-
1 | 0:00.00 | 3:58.34 | 0 | 17883
2 | 3:58.34 | 4:37.26 | 17884 | 38684
3 | 8:35.60 | 6:54.02 | 38685 | 69736
4 | 15:29.62 | 2:52.31 | 69737 | 82667
5 | 18:22.18 | 4:19.68 | 82668 | 102160
6 | 22:42.11 | 3:48.17 | 102161 | 119277
7 | 26:30.28 | 4:54.70 | 119278 | 141397
8 | 31:25.23 | 7:21.14 | 141398 | 174486
9 | 38:46.37 | 3:28.09 | 174487 | 190095
10 | 42:14.46 | 5:24.36 | 190096 | 214431
11 | 47:39.07 | 3:34.16 | 214432 | 230497
12 | 51:13.23 | 3:26.68 | 230498 | 246015
13 | 54:40.16 | 4:57.30 | 246016 | 268320
14 | 59:37.46 | 4:29.23 | 268321 | 288518
15 | 64:06.69 | 5:14.74 | 288519 | 312142
16 | 69:21.68 | 4:30.29 | 312143 | 332421
17 | 73:52.22 | 5:43.61 | 332422 | 358207


Range status and errors

Selected range

Filename C:\Documents and Settings\Администратор\Рабочий стол\Rip by ALLexxess\2010 Groundhogs Liberty Years 1968-1972 (3CD Box Set EMI Records)\CD2\Groundhogs Liberty Years 1968-1972 CD2.wav

Peak level 89.8 %
Extraction speed 0.4 X
Range quality 99.9 %
Test CRC 1F6C8A10
Copy CRC 1F6C8A10
Copy OK

No errors occurred


AccurateRip summary

Track 1 accurately ripped (confidence 3) [8935E0B8]
Track 2 accurately ripped (confidence 3) [BC4BEC87]
Track 3 accurately ripped (confidence 3) [865271E3]
Track 4 accurately ripped (confidence 3) [2F62560E]
Track 5 accurately ripped (confidence 3) [A03D080F]
Track 6 accurately ripped (confidence 3) [B61AF7E9]
Track 7 accurately ripped (confidence 3) [B452DD16]
Track 8 accurately ripped (confidence 3) [BC46DDEB]
Track 9 accurately ripped (confidence 3) [390ED93D]
Track 10 accurately ripped (confidence 3) [FD493F25]
Track 11 accurately ripped (confidence 3) [1BD19C12]
Track 12 accurately ripped (confidence 3) [F2082A6B]
Track 13 accurately ripped (confidence 3) [DC188301]
Track 14 accurately ripped (confidence 3) [F0E16442]
Track 15 accurately ripped (confidence 3) [0CD9DB78]
Track 16 accurately ripped (confidence 3) [8B0B25B5]
Track 17 accurately ripped (confidence 3) [100BA0F2]

All tracks accurately ripped

End of status report

==== Log checksum 88A51FE4ADE3064C2835065127938C8913975D82175893EA7D1D7DA8747441CA ====

Exact Audio Copy V1.0 beta 1 from 15. November 2010

EAC extraction logfile from 16. April 2011, 11:00

Groundhogs / Groundhogs Liberty Years 1969-1972 CD3

Used drive : HL-DT-STDVDRAM GSA-H60N Adapter: 2 ID: 0

Read mode : Secure
Utilize accurate stream : Yes
Defeat audio cache : Yes
Make use of C2 pointers : No

Read offset correction : 667
Overread into Lead-In and Lead-Out : No
Fill up missing offset samples with silence : Yes
Delete leading and trailing silent blocks : No
Null samples used in CRC calculations : Yes
Used interface : Native Win32 interface for Win NT & 2000

Used output format : Internal WAV Routines
Sample format : 44.100 Hz; 16 Bit; Stereo


TOC of the extracted CD

Track | Start | Length | Start sector | End sector
––––––––––––––––––––––––––––-
1 | 0:00.00 | 5:44.31 | 0 | 25830
2 | 5:44.31 | 3:15.62 | 25831 | 40517
3 | 9:00.18 | 5:02.11 | 40518 | 63178
4 | 14:02.29 | 5:50.42 | 63179 | 89470
5 | 19:52.71 | 4:48.45 | 89471 | 111115
6 | 24:41.41 | 4:38.16 | 111116 | 131981
7 | 29:19.57 | 3:49.56 | 131982 | 149212
8 | 33:09.38 | 4:38.73 | 149213 | 170135
9 | 37:48.36 | 3:09.18 | 170136 | 184328
10 | 40:57.54 | 2:53.01 | 184329 | 197304
11 | 43:50.55 | 2:24.37 | 197305 | 208141
12 | 46:15.17 | 10:09.63 | 208142 | 253879


Range status and errors

Selected range

Filename C:\Documents and Settings\Администратор\Рабочий стол\Rip by ALLexxess\2010 Groundhogs Liberty Years 1968-1972 (3CD Box Set EMI Records)\CD3\Groundhogs Liberty Years 1969-1972 CD3.wav

Peak level 78.7 %
Extraction speed 1.1 X
Range quality 99.9 %
Test CRC AA4F09B1
Copy CRC AA4F09B1
Copy OK

No errors occurred


AccurateRip summary

Track 1 accurately ripped (confidence 3) [98F2EBF7]
Track 2 accurately ripped (confidence 3) [E52FA9A8]
Track 3 accurately ripped (confidence 3) [6A136041]
Track 4 accurately ripped (confidence 3) [6C2285AE]
Track 5 accurately ripped (confidence 3) [760E716C]
Track 6 accurately ripped (confidence 3) [9B0FFE4C]
Track 7 accurately ripped (confidence 3) [043F67A4]
Track 8 accurately ripped (confidence 3) [57C715BC]
Track 9 accurately ripped (confidence 3) [2496FFE4]
Track 10 accurately ripped (confidence 3) [067E4EC9]
Track 11 accurately ripped (confidence 3) [2995B639]
Track 12 accurately ripped (confidence 3) [7C733971]

All tracks accurately ripped

End of status report

==== Log checksum 5B2839DE189A68D30BF26155F993E2A66FD7A7EA0C72DD3D2D1F7643D0FE6F0A ====




Groundhogs - Thank Christ For Groundhogs: The Liberty Years 1968-1972 (2010) 3CD Box Set [Re-Up]

Groundhogs - Thank Christ For Groundhogs: The Liberty Years 1968-1972 (2010) 3CD Box Set [Re-Up]

All thanks to original releaser - ALLexxess

More interesting music in My Blog