Subcategories

Hans Zimmer & VA - Black Rain: Music From The Motion Picture (1989) 2CD Remastered Expanded Limited Edition 2012 [Re-Up]

Posted By: Efgrapha
Hans Zimmer & VA - Black Rain: Music From The Motion Picture (1989) 2CD Remastered Expanded Limited Edition 2012 [Re-Up]

Hans Zimmer & VA - Black Rain: Music From The Motion Picture (1989) 2CD Edition 2012
EAC | FLAC (Tracks) + cue.+log ~ 810 Mb | Mp3, CBR320 kbps ~ 355 Mb | Scans included
Soundtrack, Score, Rock | Label: La-La Land | # LLLCD 1229 | Time: 02:21:58

La-La Land Records, Capitol Records and Paramount Pictures proudly present the expanded and remastered 2-CD SET of acclaimed composer Hans Zimmer's original score to the 1989 culture-clash cop/actioner BLACK RAIN, starring Michael Douglas, Andy Garcia and Ken Takakura, and directed by Ridley Scott. Zimmer's pulse-pounding score would become a sonic blueprint for action film scoring throughout the 90's and well into the present. Finally, as produced by Dan Goldwasser and mastered by Doug Schwartz, BLACK RAIN gets its much-deserved and expanded deluxe treatment, presenting Zimmer's film score on Disc 1 and the original, remastered 1989 album presentation on Disc 2, along with bonus tracks and alternate cues that include the main title version of the opening song "I'll Be Holdin' On." Tim Grieving's exclusive, in-depth liners take you behind the film and its iconic score. This is a limited edition of 3000 Units.

~ Hans Zimmer at Allmusic
~ Hans Zimmer at Wiki
~ Hans Zimmer Website

~ Film at IMDB
~ Film at Wiki

Tracklist:

CD1:

01. Hans Zimmer - Sato Pt. 1/One-Way Glass (06:36)
02. Hans Zimmer - Osaka/Phony Cops ** (01:48)
03. Hans Zimmer - Fucking English */Sato Pt. 2 ** (05:22)
04. Hans Zimmer - Sato Watching/Circling Motorbikes (02:00)
05. Hans Zimmer - Sugai's Photo/Sato Pt. 3 (04:00)
06. Hans Zimmer - Sato Pt. 4 (02:06)
07. Hans Zimmer - Charlie Loses His Head ** (08:23)
08. Hans Zimmer - Sequins (02:50)
09. Hans Zimmer - Masa's Reprimand/Sugai Pt. 1 (05:35)
10. Hans Zimmer - The Steel Mill (02:46)
11. Hans Zimmer - Steel Mill Chase/Airplane/Escape *** (06:20)
12. Hans Zimmer - Sugai Pt. 2 (08:51)
13. Hans Zimmer - Arrival of Oyabuns/Sato's Arrival/Meeting (07:56)
14. Hans Zimmer - Bikes ** /Fight ** /Nick and Masa ** (09:29)

CD2:

01. Iggy Pop - Livin' on the Edge of the Night (03:39)
02. Ub40 - The Way You Do the Things You Do (03:15)
03. Soul II Soul - Back to Life (Jam on the Groove Mix) (05:09)
04. Ryuichi Sakamoto - Laserman (04:48)
05. Les Rita Mitsouko and Sparks - Singing in the Shower (04:23)
06. Gregg Allman - I'll Be Holding On (05:40)
07. Hans Zimmer - Black Rain Suite: Sato (04:45)
08. Hans Zimmer - Black Rain Suite: Charlie Loses His Head *** (07:03)
09. Hans Zimmer - Black Rain Suite: Sugai (06:55)
10. Hans Zimmer - Black Rain Suite: Nick and Masa *** (02:58)

Bonus tracks:

11. Shirley Walker - Airplane Muzak (source) (02:05)
12. Hans Zimmer - Charlie Loses His Head Pt. 1 (alternate percussion) (02:34)
13. Hans Zimmer - Charlie Loses His Head Pt. 2 (alternate with Koto and Oboe) (02:49)
14. Hans Zimmer - Masa's Reprimand (alternate) *** (01:51)
15. Hans Zimmer - Bikes/Fight (alternate) (03:19)
16. Hans Zimmer - Bikes (percussion only) (01:38)
17. Hans Zimmer - Charlie Loses His Head (Monks wild) (02:14)
18. Gregg Allman - I'll Be Holding On (Main Title) (02:36)

* - not used in film
** - contains material unused in film
*** - contains instrumental melody of "I'll Be Holding On"


Exact Audio Copy V1.0 beta 3 from 29. August 2011

EAC extraction logfile from 25. October 2012, 10:13

Hans Zimmer / Black Rain Disc 1

Used drive : ASUS DRW-2014L1 Adapter: 0 ID: 0

Read mode : Secure
Utilize accurate stream : Yes
Defeat audio cache : Yes
Make use of C2 pointers : No

Read offset correction : 6
Overread into Lead-In and Lead-Out : No
Fill up missing offset samples with silence : Yes
Delete leading and trailing silent blocks : No
Null samples used in CRC calculations : Yes
Used interface : Native Win32 interface for Win NT & 2000
Gap handling : Appended to previous track

Used output format : User Defined Encoder
Selected bitrate : 128 kBit/s
Quality : High
Add ID3 tag : No
Command line compressor : C:\Program Files (x86)\Exact Audio Copy\Flac\flac.exe
Additional command line options : -8 -V -T "ARTIST=%artist%" -T "TITLE=%title%" -T "ALBUM=%albumtitle%" -T "DATE=%year%" -T "TRACKNUMBER=%tracknr%" -T "TOTALTRACKS=%numtracks%" -T "GENRE=%genre%" -T "ALBUMARTIST=%albumartist%" -T "ALBUM ARTIST=%albumartist%" -T "COMMENT=EAC Secure Mode, Test & Copy, AccurateRip, FLAC -8" %source%


TOC of the extracted CD

Track | Start | Length | Start sector | End sector
––––––––––––––––––––––––––––-
1 | 0:00.00 | 6:36.41 | 0 | 29740
2 | 6:36.41 | 1:48.59 | 29741 | 37899
3 | 8:25.25 | 5:22.25 | 37900 | 62074
4 | 13:47.50 | 2:00.45 | 62075 | 71119
5 | 15:48.20 | 4:00.04 | 71120 | 89123
6 | 19:48.24 | 2:06.67 | 89124 | 98640
7 | 21:55.16 | 8:23.09 | 98641 | 136374
8 | 30:18.25 | 2:50.54 | 136375 | 149178
9 | 33:09.04 | 5:35.31 | 149179 | 174334
10 | 38:44.35 | 2:46.22 | 174335 | 186806
11 | 41:30.57 | 6:20.39 | 186807 | 215345
12 | 47:51.21 | 8:51.67 | 215346 | 255237
13 | 56:43.13 | 7:56.70 | 255238 | 291007
14 | 64:40.08 | 9:29.58 | 291008 | 333740


Track 1

Filename D:\Hans Zimmer - Black Rain (1989) [FLAC]\disc 1of2\01 - Sato Pt. 1,One-Way Glass.wav

Pre-gap length 0:00:02.00

Peak level 96.6 %
Extraction speed 5.9 X
Track quality 100.0 %
Test CRC 03F32280
Copy CRC 03F32280
Track not present in AccurateRip database
Copy OK

Track 2

Filename D:\Hans Zimmer - Black Rain (1989) [FLAC]\disc 1of2\02 - Osaka,Phony Cops.wav

Pre-gap length 0:00:01.59

Peak level 96.6 %
Extraction speed 5.1 X
Track quality 100.0 %
Test CRC 6811305C
Copy CRC 6811305C
Track not present in AccurateRip database
Copy OK

Track 3

Filename D:\Hans Zimmer - Black Rain (1989) [FLAC]\disc 1of2\03 - Fucking English,Sato Pt. 2.wav

Pre-gap length 0:00:02.09

Peak level 96.6 %
Extraction speed 5.2 X
Track quality 99.9 %
Test CRC D68A596D
Copy CRC D68A596D
Track not present in AccurateRip database
Copy OK

Track 4

Filename D:\Hans Zimmer - Black Rain (1989) [FLAC]\disc 1of2\04 - Sato Watching,Circling Motorbikes.wav

Pre-gap length 0:00:01.14

Peak level 96.6 %
Extraction speed 5.0 X
Track quality 100.0 %
Test CRC 921B7850
Copy CRC 921B7850
Track not present in AccurateRip database
Copy OK

Track 5

Filename D:\Hans Zimmer - Black Rain (1989) [FLAC]\disc 1of2\05 - Sugai's Photo,Sato Pt. 3.wav

Pre-gap length 0:00:01.43

Peak level 96.6 %
Extraction speed 6.0 X
Track quality 100.0 %
Test CRC E9AB30DA
Copy CRC E9AB30DA
Track not present in AccurateRip database
Copy OK

Track 6

Filename D:\Hans Zimmer - Black Rain (1989) [FLAC]\disc 1of2\06 - Sato Pt. 4.wav

Pre-gap length 0:00:01.23

Peak level 96.6 %
Extraction speed 5.5 X
Track quality 100.0 %
Test CRC D82CE302
Copy CRC D82CE302
Track not present in AccurateRip database
Copy OK

Track 7

Filename D:\Hans Zimmer - Black Rain (1989) [FLAC]\disc 1of2\07 - Charlie Loses His Head.wav

Pre-gap length 0:00:01.56

Peak level 96.6 %
Extraction speed 7.2 X
Track quality 100.0 %
Test CRC 39CCCBEA
Copy CRC 39CCCBEA
Track not present in AccurateRip database
Copy OK

Track 8

Filename D:\Hans Zimmer - Black Rain (1989) [FLAC]\disc 1of2\08 - Sequins.wav

Pre-gap length 0:00:01.06

Peak level 96.6 %
Extraction speed 6.7 X
Track quality 100.0 %
Test CRC 0A13E476
Copy CRC 0A13E476
Track not present in AccurateRip database
Copy OK

Track 9

Filename D:\Hans Zimmer - Black Rain (1989) [FLAC]\disc 1of2\09 - Masa's Reprimand,Sugai Pt. 1.wav

Pre-gap length 0:00:08.42

Peak level 96.6 %
Extraction speed 7.6 X
Track quality 100.0 %
Test CRC D48E586A
Copy CRC D48E586A
Track not present in AccurateRip database
Copy OK

Track 10

Filename D:\Hans Zimmer - Black Rain (1989) [FLAC]\disc 1of2\10 - The Steel Mill.wav

Pre-gap length 0:00:01.34

Peak level 96.6 %
Extraction speed 7.0 X
Track quality 100.0 %
Test CRC DE11B8F9
Copy CRC DE11B8F9
Track not present in AccurateRip database
Copy OK

Track 11

Filename D:\Hans Zimmer - Black Rain (1989) [FLAC]\disc 1of2\11 - Steel Mill Chase,Airplane,Escape.wav

Pre-gap length 0:00:00.67

Peak level 96.6 %
Extraction speed 8.3 X
Track quality 100.0 %
Test CRC 3A327235
Copy CRC 3A327235
Track not present in AccurateRip database
Copy OK

Track 12

Filename D:\Hans Zimmer - Black Rain (1989) [FLAC]\disc 1of2\12 - Sugai Pt. 2.wav

Pre-gap length 0:00:01.73

Peak level 96.6 %
Extraction speed 9.0 X
Track quality 100.0 %
Test CRC 3D142057
Copy CRC 3D142057
Track not present in AccurateRip database
Copy OK

Track 13

Filename D:\Hans Zimmer - Black Rain (1989) [FLAC]\disc 1of2\13 - Arrival of Oyabuns,Sato's Arrival,Meeting.wav

Pre-gap length 0:00:01.02

Peak level 96.6 %
Extraction speed 9.4 X
Track quality 100.0 %
Test CRC 08F0D329
Copy CRC 08F0D329
Track not present in AccurateRip database
Copy OK

Track 14

Filename D:\Hans Zimmer - Black Rain (1989) [FLAC]\disc 1of2\14 - Bikes,Fight,Nick and Masa.wav

Pre-gap length 0:00:01.21

Peak level 96.6 %
Extraction speed 9.9 X
Track quality 100.0 %
Test CRC 26676809
Copy CRC 26676809
Track not present in AccurateRip database
Copy OK


None of the tracks are present in the AccurateRip database

No errors occurred

End of status report

==== Log checksum 273FA75DD690B14C7369610FFDEDDC23B21C755AD1A08EE1C7A144D99B6833FF ====

foobar2000 1.2 / Dynamic Range Meter 1.1.1
log date: 2013-08-14 18:56:58

––––––––––––––––––––––––––––––––––––––––
Analyzed: Hans Zimmer / Black Rain Disc 1
––––––––––––––––––––––––––––––––––––––––

DR Peak RMS Duration Track
––––––––––––––––––––––––––––––––––––––––
DR13 -0.30 dB -19.25 dB 6:37 01-Sato Pt. 1/One-Way Glass
DR11 -0.30 dB -15.76 dB 1:49 02-Osaka/Phony Cops
DR14 -0.30 dB -18.68 dB 5:22 03-Fucking English/Sato Pt. 2
DR11 -0.30 dB -15.64 dB 2:01 04-Sato Watching/Circling Motorbikes
DR12 -0.30 dB -17.55 dB 4:00 05-Sugai's Photo/Sato Pt. 3
DR12 -0.30 dB -18.12 dB 2:07 06-Sato Pt. 4
DR11 -0.30 dB -16.35 dB 8:23 07-Charlie Loses His Head
DR12 -0.30 dB -14.99 dB 2:51 08-Sequins
DR12 -0.30 dB -17.57 dB 5:35 09-Masa's Reprimand/Sugai Pt. 1
DR17 -0.30 dB -24.91 dB 2:46 10-The Steel Mill
DR11 -0.30 dB -14.73 dB 6:21 11-Steel Mill Chase/Airplane/Escape
DR14 -0.30 dB -18.78 dB 8:52 12-Sugai Pt. 2
DR12 -0.30 dB -16.23 dB 7:57 13-Arrival of Oyabuns/Sato's Arrival/Meeting
DR10 -0.30 dB -13.53 dB 9:30 14-Bikes/Fight/Nick and Masa
––––––––––––––––––––––––––––––––––––––––

Number of tracks: 14
Official DR value: DR12

Samplerate: 44100 Hz
Channels: 2
Bits per sample: 16
Bitrate: 840 kbps
Codec: FLAC
================================================================================


Exact Audio Copy V1.0 beta 3 from 29. August 2011

EAC extraction logfile from 25. October 2012, 10:42

Hans Zimmer / Black Rain Disc 2

Used drive : ASUS DRW-2014L1 Adapter: 0 ID: 0

Read mode : Secure
Utilize accurate stream : Yes
Defeat audio cache : Yes
Make use of C2 pointers : No

Read offset correction : 6
Overread into Lead-In and Lead-Out : No
Fill up missing offset samples with silence : Yes
Delete leading and trailing silent blocks : No
Null samples used in CRC calculations : Yes
Used interface : Native Win32 interface for Win NT & 2000
Gap handling : Appended to previous track

Used output format : User Defined Encoder
Selected bitrate : 128 kBit/s
Quality : High
Add ID3 tag : No
Command line compressor : C:\Program Files (x86)\Exact Audio Copy\Flac\flac.exe
Additional command line options : -8 -V -T "ARTIST=%artist%" -T "TITLE=%title%" -T "ALBUM=%albumtitle%" -T "DATE=%year%" -T "TRACKNUMBER=%tracknr%" -T "TOTALTRACKS=%numtracks%" -T "GENRE=%genre%" -T "ALBUMARTIST=%albumartist%" -T "ALBUM ARTIST=%albumartist%" -T "COMMENT=EAC Secure Mode, Test & Copy, AccurateRip, FLAC -8" %source%


TOC of the extracted CD

Track | Start | Length | Start sector | End sector
––––––––––––––––––––––––––––-
1 | 0:00.00 | 3:39.30 | 0 | 16454
2 | 3:39.30 | 3:15.21 | 16455 | 31100
3 | 6:54.51 | 5:09.03 | 31101 | 54278
4 | 12:03.54 | 4:48.66 | 54279 | 75944
5 | 16:52.45 | 4:23.58 | 75945 | 95727
6 | 21:16.28 | 5:40.53 | 95728 | 121280
7 | 26:57.06 | 4:45.21 | 121281 | 142676
8 | 31:42.27 | 7:03.26 | 142677 | 174427
9 | 38:45.53 | 6:55.31 | 174428 | 205583
10 | 45:41.09 | 2:58.56 | 205584 | 218989
11 | 48:39.65 | 2:05.26 | 218990 | 228390
12 | 50:45.16 | 2:34.00 | 228391 | 239940
13 | 53:19.16 | 2:49.07 | 239941 | 252622
14 | 56:08.23 | 1:51.19 | 252623 | 260966
15 | 57:59.42 | 3:19.42 | 260967 | 275933
16 | 61:19.09 | 1:38.01 | 275934 | 283284
17 | 62:57.10 | 2:14.09 | 283285 | 293343
18 | 65:11.19 | 2:36.59 | 293344 | 305102


Track 1

Filename D:\Hans Zimmer - Black Rain (1989) [FLAC]\disc 2of2\01 - Iggy Pop - Livin' on the Edge of the Night.wav

Pre-gap length 0:00:02.00

Peak level 89.1 %
Extraction speed 4.9 X
Track quality 100.0 %
Test CRC DC9CCE7D
Copy CRC DC9CCE7D
Track not present in AccurateRip database
Copy OK

Track 2

Filename D:\Hans Zimmer - Black Rain (1989) [FLAC]\disc 2of2\02 - Ub40 - The Way You Do the Things You Do.wav

Pre-gap length 0:00:01.16

Peak level 77.7 %
Extraction speed 5.2 X
Track quality 100.0 %
Test CRC A57B9B6E
Copy CRC A57B9B6E
Track not present in AccurateRip database
Copy OK

Track 3

Filename D:\Hans Zimmer - Black Rain (1989) [FLAC]\disc 2of2\03 - Soul II Soul - Back to Life (Jam on the Groove Mix).wav

Peak level 99.9 %
Extraction speed 6.0 X
Track quality 100.0 %
Test CRC A8E5DFCF
Copy CRC A8E5DFCF
Track not present in AccurateRip database
Copy OK

Track 4

Filename D:\Hans Zimmer - Black Rain (1989) [FLAC]\disc 2of2\04 - Ryuichi Sakamoto - Laserman.wav

Pre-gap length 0:00:01.40

Peak level 90.3 %
Extraction speed 6.5 X
Track quality 100.0 %
Test CRC EF4DE988
Copy CRC EF4DE988
Track not present in AccurateRip database
Copy OK

Track 5

Filename D:\Hans Zimmer - Black Rain (1989) [FLAC]\disc 2of2\05 - Les Rita Mitsouko and Sparks - Singing in the Shower.wav

Peak level 100.0 %
Extraction speed 6.9 X
Track quality 100.0 %
Test CRC 109AFB77
Copy CRC 109AFB77
Track not present in AccurateRip database
Copy OK

Track 6

Filename D:\Hans Zimmer - Black Rain (1989) [FLAC]\disc 2of2\06 - Gregg Allman - I'll Be Holding On.wav

Pre-gap length 0:00:01.20

Peak level 99.9 %
Extraction speed 7.6 X
Track quality 100.0 %
Test CRC 52816B5A
Copy CRC 52816B5A
Track not present in AccurateRip database
Copy OK

Track 7

Filename D:\Hans Zimmer - Black Rain (1989) [FLAC]\disc 2of2\07 - Hans Zimmer - Black Rain Suite- Sato.wav

Pre-gap length 0:00:01.57

Peak level 96.6 %
Extraction speed 7.9 X
Track quality 100.0 %
Test CRC 70E1C307
Copy CRC 70E1C307
Track not present in AccurateRip database
Copy OK

Track 8

Filename D:\Hans Zimmer - Black Rain (1989) [FLAC]\disc 2of2\08 - Hans Zimmer - Black Rain Suite- Charlie Loses His Head.wav

Peak level 96.6 %
Extraction speed 8.7 X
Track quality 100.0 %
Test CRC E91804D4
Copy CRC E91804D4
Track not present in AccurateRip database
Copy OK

Track 9

Filename D:\Hans Zimmer - Black Rain (1989) [FLAC]\disc 2of2\09 - Hans Zimmer - Black Rain Suite- Sugai.wav

Peak level 96.6 %
Extraction speed 9.2 X
Track quality 100.0 %
Test CRC DC181F09
Copy CRC DC181F09
Track not present in AccurateRip database
Copy OK

Track 10

Filename D:\Hans Zimmer - Black Rain (1989) [FLAC]\disc 2of2\10 - Hans Zimmer - Black Rain Suite- Nick and Masa.wav

Peak level 96.6 %
Extraction speed 8.5 X
Track quality 100.0 %
Test CRC A0252F59
Copy CRC A0252F59
Track not present in AccurateRip database
Copy OK

Track 11

Filename D:\Hans Zimmer - Black Rain (1989) [FLAC]\disc 2of2\11 - Shirley Walker - Airplane Muzak (source).wav

Pre-gap length 0:00:06.10

Peak level 82.7 %
Extraction speed 8.1 X
Track quality 100.0 %
Test CRC C7ABD9E3
Copy CRC C7ABD9E3
Track not present in AccurateRip database
Copy OK

Track 12

Filename D:\Hans Zimmer - Black Rain (1989) [FLAC]\disc 2of2\12 - Hans Zimmer - Charlie Loses His Head Pt. 1 (alternate percussion).wav

Peak level 96.6 %
Extraction speed 6.1 X
Track quality 99.9 %
Test CRC 0B2E59AD
Copy CRC 0B2E59AD
Track not present in AccurateRip database
Copy OK

Track 13

Filename D:\Hans Zimmer - Black Rain (1989) [FLAC]\disc 2of2\13 - Hans Zimmer - Charlie Loses His Head Pt. 2 (alternate with Koto and Oboe).wav

Pre-gap length 0:00:01.40

Peak level 90.2 %
Extraction speed 7.6 X
Track quality 100.0 %
Test CRC 0FB0A1E1
Copy CRC 0FB0A1E1
Track not present in AccurateRip database
Copy OK

Track 14

Filename D:\Hans Zimmer - Black Rain (1989) [FLAC]\disc 2of2\14 - Hans Zimmer - Masa's Reprimand (alternate).wav

Pre-gap length 0:00:01.58

Peak level 86.7 %
Extraction speed 6.9 X
Track quality 100.0 %
Test CRC 65605EFD
Copy CRC 65605EFD
Track not present in AccurateRip database
Copy OK

Track 15

Filename D:\Hans Zimmer - Black Rain (1989) [FLAC]\disc 2of2\15 - Hans Zimmer - Bikes,Fight (alternate).wav

Pre-gap length 0:00:01.57

Peak level 96.6 %
Extraction speed 6.9 X
Track quality 99.9 %
Test CRC B0F7F9E9
Copy CRC B0F7F9E9
Track not present in AccurateRip database
Copy OK

Track 16

Filename D:\Hans Zimmer - Black Rain (1989) [FLAC]\disc 2of2\16 - Hans Zimmer - Bikes (percussion only).wav

Pre-gap length 0:00:01.05

Peak level 96.6 %
Extraction speed 7.0 X
Track quality 100.0 %
Test CRC 0D491869
Copy CRC 0D491869
Track not present in AccurateRip database
Copy OK

Track 17

Filename D:\Hans Zimmer - Black Rain (1989) [FLAC]\disc 2of2\17 - Hans Zimmer - Charlie Loses His Head (Monks wild).wav

Pre-gap length 0:00:02.49

Peak level 74.0 %
Extraction speed 6.2 X
Track quality 99.9 %
Test CRC EE822B7A
Copy CRC EE822B7A
Track not present in AccurateRip database
Copy OK

Track 18

Filename D:\Hans Zimmer - Black Rain (1989) [FLAC]\disc 2of2\18 - Gregg Allman - I'll Be Holding On (Main Title).wav

Pre-gap length 0:00:01.51

Peak level 96.6 %
Extraction speed 7.9 X
Track quality 100.0 %
Test CRC 9D72BACA
Copy CRC 9D72BACA
Track not present in AccurateRip database
Copy OK


None of the tracks are present in the AccurateRip database

No errors occurred

End of status report

==== Log checksum 8E583CD940FDBB9AD7DDF3F09927783D7F6B78A439237B61C249CAD478D189A3 ====

foobar2000 1.2 / Dynamic Range Meter 1.1.1
log date: 2013-08-14 18:57:18

––––––––––––––––––––––––––––––––––––––––
Analyzed: Gregg Allman / Black Rain Disc 2 (1-2)
Hans Zimmer / Black Rain Disc 2 (3-12)
Iggy Pop / Black Rain Disc 2 (13)
Les Rita Mitsouko and Sparks / Black Rain Disc 2 (14)
Ryuichi Sakamoto / Black Rain Disc 2 (15)
Shirley Walker / Black Rain Disc 2 (16)
Soul II Soul / Black Rain Disc 2 (17)
Ub40 / Black Rain Disc 2 (18)
––––––––––––––––––––––––––––––––––––––––

DR Peak RMS Duration Track
––––––––––––––––––––––––––––––––––––––––
DR13 0.00 dB -15.66 dB 5:41 06-I'll Be Holding On
DR10 -0.30 dB -14.40 dB 2:37 18-I'll Be Holding On (Main Title)
DR12 -0.30 dB -18.30 dB 4:45 07-Black Rain Suite: Sato
DR11 -0.30 dB -16.97 dB 7:03 08-Black Rain Suite: Charlie Loses His Head
DR15 -0.30 dB -20.13 dB 6:55 09-Black Rain Suite: Sugai
DR10 -0.30 dB -14.80 dB 2:59 10-Black Rain Suite: Nick and Masa
DR11 -0.30 dB -15.73 dB 2:34 12-Charlie Loses His Head Pt. 1 (alternate percussion)
DR11 -0.89 dB -17.62 dB 2:49 13-Charlie Loses His Head Pt. 2 (alternate with Koto and Oboe)
DR11 -1.23 dB -17.88 dB 1:51 14-Masa's Reprimand (alternate)
DR9 -0.30 dB -11.05 dB 3:20 15-Bikes/Fight (alternate)
DR13 -0.30 dB -15.68 dB 1:38 16-Bikes (percussion only)
DR10 -2.61 dB -15.32 dB 2:14 17-Charlie Loses His Head (Monks wild)
DR12 -1.00 dB -15.24 dB 3:39 01-Livin' on the Edge of the Night
DR14 0.00 dB -15.58 dB 4:24 05-Singing in the Shower
DR11 -0.88 dB -13.30 dB 4:49 04-Laserman
DR11 -1.65 dB -17.96 dB 2:05 11-Airplane Muzak (source)
DR14 0.00 dB -14.87 dB 5:09 03-Back to Life (Jam on the Groove Mix)
DR11 -2.19 dB -14.57 dB 3:15 02-The Way You Do the Things You Do
––––––––––––––––––––––––––––––––––––––––

Number of tracks: 18
Official DR value: DR12

Samplerate: 44100 Hz
Channels: 2
Bits per sample: 16
Bitrate: 896 kbps
Codec: FLAC
================================================================================

Hans Zimmer & VA - Black Rain: Music From The Motion Picture (1989) 2CD Remastered Expanded Limited Edition 2012 [Re-Up]

Hans Zimmer & VA - Black Rain: Music From The Motion Picture (1989) 2CD Remastered Expanded Limited Edition 2012 [Re-Up]

All thanks to original uploader

More Movies & Soundtracks in Efgrapha Blog